osu file format v12

[General]
AudioFilename: mican & Ayakura Mei - Night that can be danced.mp3
AudioLeadIn: 0
PreviewTime: 45226
Countdown: 1
SampleSet: None
StackLeniency: 0.7
Mode: 0
LetterboxInBreaks: 1
WidescreenStoryboard: 1

[Editor]
Bookmarks: 58481,68598,91272,246156
DistanceSpacing: 0.7
BeatDivisor: 4
GridSize: 4
TimelineZoom: 1.1

[Metadata]
Title:Night That Can Be Danced
TitleUnicode:Night That Can Be Danced
Artist:Syrufit (feat. mican* & Ayakura Mei)
ArtistUnicode:Syrufit (feat. mican* & Ayakura Mei)
Creator:JapanPanda
Version:Insane AR10
Source:
Tags:Ayakura Mei Where Is Love Syrufit Where is Love Himorogi Burn in Violet Story of Eastern Wonderland
BeatmapID:433764
BeatmapSetID:179429

[Difficulty]
HPDrainRate:7
CircleSize:4
OverallDifficulty:7
ApproachRate:10
SliderMultiplier:1.4
SliderTickRate:1

[Events]
//Background and Video events
0,0,"maxresdefault.png",0,0
//Break Periods
//Storyboard Layer 0 (Background)
//Storyboard Layer 1 (Fail)
//Storyboard Layer 2 (Pass)
//Storyboard Layer 3 (Foreground)
//Storyboard Sound Samples
//Background Colour Transformations
3,100,163,162,255

[TimingPoints]
575,348.837209302326,4,2,0,100,1,0
67290,-66.6666666666667,4,2,0,100,0,0

[HitObjects]
92,76,11737,6,0,P|152:68|208:128,1,140
68,280,12609,2,0,L|136:248,1,70
264,208,13133,1,0,0:0:0:0:
152,128,13481,1,0,0:0:0:0:
444,104,14005,2,0,L|380:133,1,70
248,176,14529,1,0,0:0:0:0:
360,256,14877,1,0,0:0:0:0:
216,196,15400,5,0,0:0:0:0:
216,196,15575,1,0,0:0:0:0:
296,160,15923,2,0,P|228:116|152:132,1,140
48,108,16621,1,0,0:0:0:0:
48,108,16795,1,0,0:0:0:0:
48,108,16970,1,0,0:0:0:0:
136,292,17319,6,0,P|188:312|280:296,1,140
96,184,18191,1,0,0:0:0:0:
96,184,18365,1,0,0:0:0:0:
44,124,18714,2,0,P|102:93|154:134,1,140
416,200,19586,1,0,0:0:0:0:
416,200,19760,1,0,0:0:0:0:
468,259,20109,2,0,P|409:290|357:249,1,140
148,276,20981,5,0,0:0:0:0:
148,276,21156,1,0,0:0:0:0:
380,120,21505,1,0,0:0:0:0:
52,92,22377,1,0,0:0:0:0:
188,252,22900,6,0,P|260:280|328:260,1,140
412,216,23423,2,0,L|452:176,2,35
260,192,23772,1,0,0:0:0:0:
260,192,23947,1,0,0:0:0:0:
332,132,24295,6,0,P|268:104|201:118,1,140
108,168,24818,2,0,L|83:192,2,35
260,192,25167,1,0,0:0:0:0:
260,192,25342,1,0,0:0:0:0:
16,248,25691,6,0,P|48:304|132:328,1,140
236,284,26214,2,0,L|276:272,2,35
296,172,26563,1,0,0:0:0:0:
296,172,26737,1,0,0:0:0:0:
56,100,27086,6,0,P|80:184|128:208,1,140
152,120,27609,1,0,0:0:0:0:
152,120,27697,1,0,0:0:0:0:
152,120,27784,1,0,0:0:0:0:
236,212,27958,1,0,0:0:0:0:
360,224,28133,1,0,0:0:0:0:
455,284,28481,6,0,P|445:216|389:177,1,140
360,264,29004,1,0,0:0:0:0:
360,264,29092,1,0,0:0:0:0:
360,264,29179,1,0,0:0:0:0:
276,172,29353,1,0,0:0:0:0:
152,160,29528,1,0,0:0:0:0:
88,52,29877,6,0,P|64:136|96:176,1,140
152,108,30400,2,0,P|196:96|228:176,1,140
160,272,30923,1,0,0:0:0:0:
423,332,31272,6,0,P|452:270|420:210,1,140
359,276,31795,2,0,P|295:278|279:216,1,140
352,112,32318,1,0,0:0:0:0:
100,88,32668,5,0,0:0:0:0:
292,284,33016,1,0,0:0:0:0:
172,244,33191,2,0,L|128:224,4,35
60,188,33714,1,0,0:0:0:0:
312,188,34063,5,0,0:0:0:0:
312,188,34150,1,0,0:0:0:0:
312,188,34237,1,0,0:0:0:0:
312,188,34325,1,0,0:0:0:0:
312,188,34412,1,0,0:0:0:0:
348,324,34586,2,0,L|292:332,4,35
228,288,35108,1,0,0:0:0:0:
200,196,35458,5,0,0:0:0:0:
200,196,35545,1,0,0:0:0:0:
200,196,35632,1,0,0:0:0:0:
200,196,35720,1,0,0:0:0:0:
200,196,35807,1,0,0:0:0:0:
164,60,35981,2,0,L|198:55,4,35
284,96,36503,1,0,0:0:0:0:
460,56,36854,5,0,0:0:0:0:
432,68,36941,1,0,0:0:0:0:
404,80,37028,1,0,0:0:0:0:
376,92,37115,1,0,0:0:0:0:
348,104,37202,1,0,0:0:0:0:
240,144,37377,1,0,0:0:0:0:
240,144,37551,1,0,0:0:0:0:
240,144,37726,1,0,0:0:0:0:
240,144,37900,1,4,0:0:0:0:
52,328,38249,5,0,0:0:0:0:
80,316,38336,1,0,0:0:0:0:
108,304,38423,1,0,0:0:0:0:
136,292,38510,1,0,0:0:0:0:
164,280,38597,1,0,0:0:0:0:
272,240,38772,1,0,0:0:0:0:
272,240,38946,1,0,0:0:0:0:
272,240,39121,1,0,0:0:0:0:
272,240,39295,1,4,0:0:0:0:
40,36,39644,5,0,0:0:0:0:
68,52,39731,1,0,0:0:0:0:
96,68,39819,1,0,0:0:0:0:
124,84,39906,1,0,0:0:0:0:
152,96,39993,1,0,0:0:0:0:
264,152,40168,2,0,L|208:228,1,70,0|8,0:0|0:0,0:0:0:0:
264,152,40516,2,0,L|305:95,1,70,0|8,0:0|0:0,0:0:0:0:
472,348,41040,5,0,0:0:0:0:
444,332,41127,1,0,0:0:0:0:
416,316,41215,1,0,0:0:0:0:
388,300,41302,1,0,0:0:0:0:
360,288,41389,1,0,0:0:0:0:
248,232,41564,2,0,L|289:175,1,70,0|8,0:0|0:0,0:0:0:0:
248,232,41912,2,0,L|206:288,1,70,0|8,0:0|0:0,0:0:0:0:
76,72,42435,6,0,P|100:128|176:144,1,140
276,72,42958,2,0,L|304:44,4,35
404,80,43481,2,0,P|432:116|376:188,1,140
256,192,44005,1,0,0:0:0:0:
164,104,44179,1,0,0:0:0:0:
348,280,44354,1,0,0:0:0:0:
348,104,44528,1,0,0:0:0:0:
164,280,44702,1,0,0:0:0:0:
256,192,44877,1,0,0:0:0:0:
256,192,45051,1,0,0:0:0:0:
256,192,45226,5,4,0:0:0:0:
48,48,45575,1,0,0:0:0:0:
144,116,45749,1,0,0:0:0:0:
244,52,45923,1,0,0:0:0:0:
348,112,46098,2,0,P|380:136|392:168,2,70
312,236,46621,1,0,0:0:0:0:
216,168,46795,1,0,0:0:0:0:
120,240,46970,2,0,P|91:220|76:189,2,70
224,296,47493,6,0,P|268:328|304:316,1,70
384,264,47842,2,0,P|416:232|412:200,1,70
352,108,48191,2,0,P|312:104|276:120,1,70
172,148,48540,2,0,P|132:184|132:212,2,70
288,124,49063,1,0,0:0:0:0:
396,176,49237,2,0,P|440:224|432:236,1,70
340,276,49586,1,0,0:0:0:0:
220,288,49761,2,0,P|172:268|168:224,1,70
152,136,50109,6,0,P|196:104|216:112,1,70
324,108,50458,1,0,0:0:0:0:
444,104,50633,2,0,P|444:160|412:180,1,70
332,224,50981,1,0,0:0:0:0:
212,220,51156,1,0,0:0:0:0:
92,232,51330,2,0,P|96:300|120:316,1,70
212,320,51679,1,0,0:0:0:0:
332,324,51854,2,0,P|388:312|404:284,1,70
428,192,52202,2,0,P|416:120|404:108,1,70
304,96,52551,5,0,0:0:0:0:
244,104,52638,1,0,0:0:0:0:
184,108,52726,1,0,0:0:0:0:
80,168,52900,2,0,P|56:200|56:244,1,70
208,288,53249,5,0,0:0:0:0:
268,280,53336,1,0,0:0:0:0:
328,276,53424,1,0,0:0:0:0:
459,228,53598,2,0,P|453:194|432:168,1,70
340,96,53947,1,0,0:0:0:0:
232,44,54121,1,0,0:0:0:0:
132,108,54295,2,0,P|88:156|88:172,1,70
136,268,54644,2,0,P|164:296|208:292,1,70
300,244,54993,5,0,0:0:0:0:
408,196,55168,2,0,L|444:172,2,35
400,316,55516,1,0,0:0:0:0:
300,244,55691,2,0,L|300:168,1,70
300,56,56040,2,0,L|208:56,1,70
128,116,56388,2,0,P|92:176|104:196,1,70
168,256,56737,1,0,0:0:0:0:
276,304,56912,2,0,P|328:304|352:280,1,70
408,196,57261,5,0,0:0:0:0:
332,104,57435,2,0,P|292:84|268:96,2,70
332,104,57958,2,0,P|359:84|392:92,2,70
332,104,58481,2,0,P|351:131|343:164,2,70
212,112,59005,1,0,0:0:0:0:
112,176,59179,1,0,0:0:0:0:
124,232,59266,1,0,0:0:0:0:
164,276,59354,1,0,0:0:0:0:
284,280,59528,2,0,P|336:272|356:248,1,70
436,180,59877,1,0,0:0:0:0:
388,72,60051,6,0,P|344:72|316:88,1,70
204,108,60400,1,0,0:0:0:0:
148,124,60487,1,0,0:0:0:0:
100,160,60575,1,0,0:0:0:0:
96,280,60749,2,0,P|116:328|152:332,1,70
248,332,61098,2,0,P|304:320|320:288,1,70
300,192,61447,2,0,P|360:180|376:208,1,70
480,172,61795,2,0,L|428:120,1,70
316,92,62144,1,0,0:0:0:0:
256,88,62231,1,0,0:0:0:0:
196,100,62319,1,0,0:0:0:0:
104,176,62493,6,0,P|88:224|112:256,1,70
196,304,62842,1,0,0:0:0:0:
316,296,63016,2,0,P|380:264|384:240,1,70
412,156,63365,2,0,P|448:180|460:232,1,70
432,320,63714,1,0,0:0:0:0:
316,296,63888,1,0,0:0:0:0:
236,208,64063,2,0,P|188:168|176:136,1,70
228,52,64412,1,0,0:0:0:0:
344,72,64586,1,0,0:0:0:0:
368,124,64673,1,0,0:0:0:0:
364,184,64761,1,0,0:0:0:0:
272,260,64935,6,0,P|216:292|192:280,1,70
128,212,65284,1,0,0:0:0:0:
136,92,65458,2,0,P|176:80|208:104,1,70
304,152,65807,1,0,0:0:0:0:
376,244,65981,1,0,0:0:0:0:
364,304,66069,1,0,0:0:0:0:
308,328,66156,1,0,0:0:0:0:
192,300,66330,6,0,P|112:268|100:260,1,70
72,172,66679,1,0,0:0:0:0:
48,40,67551,6,0,L|148:116,1,105.000004005432
284,196,67900,1,0,0:0:0:0:
108,240,68075,2,0,P|136:292|188:304,1,105.000004005432
284,196,68423,1,0,0:0:0:0:
456,152,68598,2,0,P|434:105|386:86,1,105.000004005432
208,92,68947,1,0,0:0:0:0:
92,228,69121,2,0,P|120:292|164:304,1,105.000004005432
328,296,69470,6,0,P|256:292|252:240,1,105.000004005432
120,144,69819,2,0,P|176:200|216:188,1,105.000004005432
372,184,70168,2,0,P|300:180|280:148,1,105.000004005432
156,36,70516,1,0,0:0:0:0:
328,80,70691,2,0,P|388:112|392:144,1,105.000004005432
212,132,71040,2,0,P|144:128|116:152,1,105.000004005432
280,224,71388,2,0,P|332:256|344:304,1,105.000004005432
168,264,71737,2,0,P|108:276|80:312,1,105.000004005432
260,324,72086,2,0,L|372:308,1,105.000004005432
396,216,72609,1,0,0:0:0:0:
372,40,72784,1,0,0:0:0:0:
468,344,73133,6,0,L|376:260,1,105.000004005432
260,140,73481,1,0,0:0:0:0:
84,76,73656,2,0,P|64:136|88:188,1,105.000004005432
248,256,74005,2,0,P|308:248|352:208,2,105.000004005432
72,188,74528,1,0,0:0:0:0:
220,68,74702,1,0,0:0:0:0:
376,180,74877,1,0,0:0:0:0:
188,184,75051,2,0,P|256:132|288:144,1,105.000004005432
444,204,75400,2,0,P|472:144|448:112,1,105.000004005432
80,52,75923,6,0,L|160:136,1,105.000004005432
312,232,76272,1,0,0:0:0:0:
408,68,76447,2,0,P|324:92|304:112,1,105.000004005432
192,248,76795,2,0,P|260:320|308:324,1,105.000004005432
440,252,77144,2,0,P|480:184|468:156,1,105.000004005432
300,92,77493,1,0,0:0:0:0:
112,88,77668,2,0,P|80:156|88:200,1,105.000004005432
272,204,78016,2,0,P|256:144|188:132,1,105.000004005432
192,200,78365,1,0,0:0:0:0:
100,304,78714,6,0,P|160:328|212:320,1,105.000004005432
376,260,79063,1,0,0:0:0:0:
352,72,79237,2,0,P|276:104|252:128,1,105.000004005432
444,172,79586,2,0,P|348:208|320:196,1,105.000004005432
172,148,79935,2,0,P|124:196|144:248,1,105.000004005432
316,256,80284,2,0,P|360:188|340:172,1,105.000004005432
284,12,80633,2,0,P|236:72|248:96,1,105.000004005432
116,228,80981,1,0,0:0:0:0:
292,292,81156,1,0,0:0:0:0:
432,164,81330,2,0,P|376:128|324:136,1,105.000004005432
152,96,81679,6,0,P|76:128|76:176,1,105.000004005432
212,268,82028,2,0,P|328:256|340:244,1,105.000004005432
388,92,82377,2,0,P|436:140|424:192,1,105.000004005432
244,176,82726,1,0,0:0:0:0:
56,184,82900,2,0,P|116:104|144:104,1,105.000004005432
300,96,83249,2,0,P|292:152|232:156,1,105.000004005432
104,284,83598,2,0,P|172:308|220:324,1,105.000004005432
360,212,83947,1,0,0:0:0:0:
40,60,84295,6,0,P|120:116|164:104,1,105.000004005432
116,40,84644,1,0,0:0:0:0:
292,196,84819,6,0,P|260:155|210:140,1,105.000004005432
216,216,85168,1,0,0:0:0:0:
396,36,85342,2,0,P|408:96|464:116,1,105.000004005432
440,184,85691,2,0,P|380:172|324:32,1,210.000008010865
132,56,86214,2,0,P|96:104|104:184,1,105.000004005432
176,316,86563,1,0,0:0:0:0:
356,256,86737,1,0,0:0:0:0:
304,44,87086,6,0,P|304:96|248:120,1,105.000004005432
88,52,87435,2,0,P|88:120|128:168,1,105.000004005432
168,92,87784,1,0,0:0:0:0:
292,232,87958,1,0,0:0:0:0:
160,212,88133,2,0,L|276:140,1,105.000004005432
436,120,88481,2,0,L|368:212,1,105.000004005432
200,280,88830,1,0,0:0:0:0:
76,136,89005,2,0,P|140:108|264:172,1,210.000008010865
160,192,89528,1,0,0:0:0:0:
376,48,89877,6,0,P|396:104|312:220,1,210.000008010865,4|0,0:0|0:0,0:0:0:0:
196,72,90400,2,0,P|152:108|140:256,1,210.000008010865
328,276,90923,1,0,0:0:0:0:
135,335,91272,6,0,P|121:235|194:165,1,210.000008010865,4|0,0:0|0:0,0:0:0:0:
316,311,91795,2,0,P|382:234|374:132,1,210.000008010865
212,240,92319,1,0,0:0:0:0:
124,40,92668,6,0,P|200:40|272:152,1,210.000008010865,4|0,0:0|0:0,0:0:0:0:
64,136,93191,2,0,P|140:136|212:248,1,210.000008010865
400,236,93714,1,0,0:0:0:0:
344,152,94063,2,0,P|288:120|152:160,2,210.000008010865
256,224,94935,1,0,0:0:0:0:
352,280,95109,2,0,P|258:321|163:284,1,210.000008010865
92,108,95633,1,0,0:0:0:0:
272,48,95807,1,0,0:0:0:0:
424,160,95981,1,0,0:0:0:0:
288,296,96156,6,0,P|236:288|196:248,1,105.000004005432
348,136,96505,2,0,P|300:188|256:196,1,105.000004005432
148,52,96854,2,0,P|128:136|136:176,1,105.000004005432
208,200,97202,2,0,P|272:180|308:232,1,105.000004005432
432,64,97726,1,0,0:0:0:0:
432,64,97900,1,0,0:0:0:0:
60,140,98249,6,0,P|64:220|180:264,1,210.000008010865
328,156,98772,1,0,0:0:0:0:
168,56,98947,2,0,P|264:60|300:84,1,105.000004005432
408,192,99295,2,0,P|420:264|292:276,2,210.000008010865
392,160,100080,5,0,0:0:0:0:
364,136,100168,1,0,0:0:0:0:
328,128,100255,1,0,0:0:0:0:
292,124,100342,1,0,0:0:0:0:
256,124,100429,1,0,0:0:0:0:
220,128,100516,1,0,0:0:0:0:
188,148,100604,1,0,0:0:0:0:
164,176,100691,1,0,0:0:0:0:
140,200,100778,1,0,0:0:0:0:
124,232,100865,1,0,0:0:0:0:
112,268,100952,1,0,0:0:0:0:
104,300,101040,2,0,P|164:340|232:332,1,105.000004005432,4|0,0:0|0:0,0:0:0:0:
372,272,101388,5,0,0:0:0:0:
424,88,101563,2,0,P|444:160|400:192,1,105.000004005432
244,224,101912,1,0,0:0:0:0:
112,88,102086,2,0,P|188:72|296:152,1,210.000008010865
232,324,102609,1,0,0:0:0:0:
116,176,102784,2,0,P|176:188|200:240,2,105.000004005432
72,248,103307,2,0,L|160:304,1,105.000004005432
432,40,103830,6,0,P|420:128|384:140,1,105.000004005432
236,64,104179,1,0,0:0:0:0:
296,244,104354,1,0,0:0:0:0:
140,140,104528,2,0,P|216:160|224:208,1,105.000004005432
36,204,104877,2,0,P|92:290|191:319,1,210.000008010865
476,180,105575,2,0,P|419:93|320:64,1,210.000008010865
36,204,106272,2,0,P|92:290|191:319,1,210.000008010865
328,188,106795,1,0,0:0:0:0:
188,60,106970,2,0,P|296:72|308:96,1,105.000004005432
240,136,107493,5,0,0:0:0:0:
240,136,107668,1,0,0:0:0:0:
80,216,108016,6,0,P|112:272|152:280,1,105.000004005432
332,236,108365,1,0,0:0:0:0:
380,52,108540,1,0,0:0:0:0:
192,76,108714,2,0,P|128:120|96:120,1,105.000004005432
120,40,109063,1,0,0:0:0:0:
300,92,109412,6,0,P|320:152|368:172,1,105.000004005432,0|0,0:0|0:0,0:0:0:0:
172,124,109761,2,0,P|196:188|104:296,1,210.000008010865
116,200,110284,1,0,0:0:0:0:
116,200,110458,1,0,0:0:0:0:
256,192,110633,12,4,112202,0:0:0:0:
256,192,112377,5,0,0:0:0:0:
104,84,112551,2,0,P|88:172|104:204,1,105.000004005432
252,84,112900,2,0,P|324:120|336:180,1,105.000004005432
216,288,113249,2,0,P|332:308|348:296,1,105.000004005432
444,180,113598,2,0,P|384:244|356:232,1,105.000004005432
216,152,113947,2,0,P|248:88|316:92,1,105.000004005432
460,44,114295,2,0,P|408:116|368:112,1,105.000004005432
216,68,114644,1,0,0:0:0:0:
28,80,114819,2,0,P|44:164|76:176,1,105.000004005432
228,244,115168,1,0,0:0:0:0:
392,152,115342,5,0,0:0:0:0:
416,312,115516,2,0,P|328:340|304:324,1,105.000004005432
144,272,115865,2,0,P|144:216|196:184,1,105.000004005432
344,92,116214,2,0,P|316:168|280:172,1,105.000004005432
124,108,116563,1,0,0:0:0:0:
24,268,116737,2,0,P|96:200|120:212,1,105.000004005432
256,120,117086,2,0,P|312:164|260:284,1,210.000008010865
460,56,117784,6,0,P|456:128|424:164,1,105.000004005432
276,252,118133,2,0,P|220:252|184:212,1,105.000004005432
128,40,118481,2,0,P|208:36|232:60,1,105.000004005432
388,144,118830,1,0,0:0:0:0:
208,200,119005,1,0,0:0:0:0:
44,104,119179,2,0,P|44:184|68:216,1,105.000004005432
232,276,119528,1,0,0:0:0:0:
392,144,119702,2,0,B|396:92|360:52|328:40,2,105.000004005432
232,44,120226,1,0,0:0:0:0:
44,56,120400,6,0,P|56:128|80:156,1,105.000004005432
460,256,120923,1,0,0:0:0:0:
460,256,121098,1,0,0:0:0:0:
460,256,121272,2,0,P|432:196|304:124,1,210.000008010865
124,124,121795,1,0,0:0:0:0:
308,80,121970,2,0,P|288:148|172:224,1,210.000008010865
84,60,122493,1,0,0:0:0:0:
84,248,122668,2,0,P|128:320|176:328,1,105.000004005432
328,284,123016,2,0,P|376:240|380:196,1,105.000004005432
256,64,123365,6,0,L|372:144,1,105.000004005432
392,308,123714,1,0,0:0:0:0:
244,192,123888,2,0,P|199:168|159:197,1,105.000004005432
48,44,124237,1,0,0:0:0:0:
72,232,124412,2,0,P|112:316|144:324,1,105.000004005432
300,272,124761,2,0,P|356:236|360:176,1,105.000004005432
224,76,125109,1,0,0:0:0:0:
56,164,125284,2,0,P|112:104|160:108,1,105.000004005432
320,108,125633,1,0,0:0:0:0:
472,220,125807,1,0,0:0:0:0:
300,272,125981,5,0,0:0:0:0:
160,184,126156,2,0,P|188:112|316:120,1,210.000008010865
256,192,126679,1,0,0:0:0:0:
344,200,126854,2,0,P|295:286|197:273,1,210.000008010865
256,192,127377,1,0,0:0:0:0:
160,184,127551,2,0,P|188:112|316:120,1,210.000008010865
256,192,128075,1,0,0:0:0:0:
120,64,128249,2,0,P|84:124|72:192,1,105.000004005432
200,300,128598,1,0,0:0:0:0:
476,44,128947,6,0,L|384:124,1,105.000004005432
376,300,129295,1,0,0:0:0:0:
308,124,129470,2,0,P|296:176|252:224,1,105.000004005432
124,88,129819,2,0,P|188:96|192:144,1,105.000004005432
64,260,130168,2,0,P|112:200|100:168,1,105.000004005432
460,316,130691,2,0,P|392:252|376:256,1,105.000004005432
216,188,131040,1,0,0:0:0:0:
288,12,131214,2,0,P|356:72|352:96,1,105.000004005432
312,260,131563,1,0,0:0:0:0:
128,220,131737,2,0,P|144:296|192:308,1,105.000004005432
384,56,132784,6,0,P|336:116|272:132,1,105.000004005432
128,76,133133,1,0,0:0:0:0:
128,76,133220,1,0,0:0:0:0:
128,76,133307,1,0,0:0:0:0:
128,76,133394,1,0,0:0:0:0:
128,76,133481,2,0,P|116:160|300:260,1,315.000012016297
304,136,134179,1,0,0:0:0:0:
304,136,134354,2,0,P|212:160|172:136,1,105.000004005432,0|4,0:0|0:0,0:0:0:0:
144,84,134702,1,0,0:0:0:0:
40,72,134877,6,0,P|32:144|56:172,1,105.000004005432
216,260,135226,2,0,P|280:252|320:224,1,105.000004005432
436,84,135575,2,0,P|460:136|432:192,1,105.000004005432
288,76,135923,2,0,P|224:88|196:128,1,105.000004005432
96,276,136272,1,0,0:0:0:0:
204,120,136447,2,0,P|260:136|320:272,1,210.000008010865
216,216,136970,5,0,0:0:0:0:
48,132,137144,2,0,P|60:200|108:216,1,105.000004005432
276,212,137493,2,0,P|336:200|360:144,1,105.000004005432
416,40,137842,1,0,0:0:0:0:
440,228,138016,2,0,P|392:296|340:304,1,105.000004005432
188,276,138365,1,0,0:0:0:0:
188,88,138540,2,0,P|276:80|308:112,1,105.000004005432
472,116,138888,2,0,P|404:120|348:152,1,105.000004005432
188,188,139237,1,0,0:0:0:0:
352,280,139412,1,0,0:0:0:0:
168,320,139586,6,0,L|88:240,1,105.000004005432
96,56,139935,2,0,L|176:148,1,105.000004005432
344,200,140284,2,0,P|400:176|400:132,2,105.000004005432
156,212,140807,1,0,0:0:0:0:
256,52,140981,2,0,P|244:124|204:128,1,105.000004005432
40,176,141330,1,0,0:0:0:0:
144,336,141505,2,0,P|248:336|268:320,1,105.000004005432
356,184,141854,1,0,0:0:0:0:
192,92,142028,1,0,0:0:0:0:
100,256,142202,2,0,L|96:140,1,105.000004005432
236,280,142551,5,0,0:0:0:0:
416,220,142726,2,0,P|428:296|368:320,1,105.000004005432
280,180,143075,1,0,0:0:0:0:
244,160,143162,1,0,0:0:0:0:
204,148,143249,1,0,0:0:0:0:
44,48,143423,2,0,P|48:132|104:160,1,105.000004005432
228,228,143772,1,0,0:0:0:0:
416,264,143947,2,0,P|444:188|420:168,1,105.000004005432
272,84,144295,1,0,0:0:0:0:
100,168,144470,6,0,P|88:228|120:264,1,105.000004005432
256,192,144819,2,0,P|248:140|288:100,1,105.000004005432
256,192,145168,1,0,0:0:0:0:
256,192,145255,1,0,0:0:0:0:
256,192,145342,1,0,0:0:0:0:
256,192,145516,6,0,P|264:244|224:284,1,105.000004005432
256,192,145865,2,0,P|204:200|164:160,1,105.000004005432
340,92,146214,1,0,0:0:0:0:
388,272,146388,2,0,P|296:300|280:280,1,105.000004005432
144,200,146737,2,0,P|148:276|200:280,1,105.000004005432
368,183,147086,2,0,P|382:136|347:100,1,105.000004005432
160,76,147435,1,0,0:0:0:0:
120,100,147522,1,0,0:0:0:0:
88,132,147609,1,0,0:0:0:0:
92,292,147784,6,0,P|152:332|208:332,1,105.000004005432
364,284,148133,1,0,0:0:0:0:
420,104,148307,2,0,P|348:104|288:136,1,105.000004005432
144,188,148656,1,0,0:0:0:0:
328,220,148830,2,0,P|284:272|228:272,1,105.000004005432
144,188,149179,1,0,0:0:0:0:
250,277,149354,2,0,P|299:263|328:220,1,105.000004005432
212,72,149702,2,0,P|272:80|312:140,1,105.000004005432
440,240,150051,1,0,0:0:0:0:
276,340,150226,5,0,0:0:0:0:
108,256,150400,1,0,0:0:0:0:
232,112,150575,1,0,0:0:0:0:
272,112,150662,1,0,0:0:0:0:
312,120,150749,1,0,0:0:0:0:
364,300,150923,2,0,P|420:284|424:236,1,105.000004005432
420,112,151272,1,0,0:0:0:0:
244,184,151447,1,0,0:0:0:0:
96,68,151621,2,0,P|152:28|192:48,1,105.000004005432
372,44,151970,2,0,P|368:96|328:132,1,105.000004005432
280,140,152231,5,0,0:0:0:0:
232,148,152319,2,0,P|208:228|228:256,1,105.000004005432
252,260,152580,1,0,0:0:0:0:
296,260,152668,1,0,0:0:0:0:
336,248,152755,1,0,0:0:0:0:
380,236,152842,1,0,0:0:0:0:
440,56,153016,2,0,P|352:72|320:96,1,105.000004005432
160,140,153365,1,0,0:0:0:0:
52,296,153540,2,0,P|48:228|72:200,1,105.000004005432
208,332,153888,1,0,0:0:0:0:
272,152,154063,2,0,P|276:88|328:80,1,105.000004005432
436,212,154412,5,0,0:0:0:0:
252,256,154586,1,0,0:0:0:0:
112,132,154761,2,0,P|64:200|84:240,1,105.000004005432
256,192,155109,2,0,P|292:240|340:236,1,105.000004005432
284,324,155458,2,0,P|224:308|180:172,1,210.000008010865
324,60,155981,1,0,0:0:0:0:
416,228,156156,2,0,P|460:176|448:140,1,105.000004005432
272,84,156505,6,0,P|196:80|184:108,1,105.000004005432
272,84,156854,2,0,P|268:160|296:172,1,105.000004005432,4|0,0:0|0:0,0:0:0:0:
96,160,157202,1,0,0:0:0:0:
236,288,157377,1,0,0:0:0:0:
424,292,157551,2,0,P|364:240|332:240,1,105.000004005432
180,144,157900,2,0,P|168:204|200:240,1,105.000004005432
332,144,158249,2,0,P|344:204|312:240,1,105.000004005432
256,340,158598,2,0,L|256:224,1,105.000004005432
256,24,158947,2,0,L|256:276,2,210.000008010865
408,136,159819,5,0,0:0:0:0:
340,312,159993,2,0,P|400:276|408:240,1,105.000004005432
104,248,160342,1,0,0:0:0:0:
103,138,160516,2,0,P|124:91|171:72,1,105.000004005432
360,60,160865,2,0,L|276:144,1,105.000004005432
152,324,161388,2,0,L|226:249,1,105.000004005432
360,60,161912,1,0,0:0:0:0:
360,60,162086,1,0,0:0:0:0:
76,80,162435,6,0,P|56:132|160:220,1,210.000008010865
192,216,162871,1,0,0:0:0:0:
228,204,162958,1,0,0:0:0:0:
256,184,163045,1,0,0:0:0:0:
292,172,163133,2,0,P|352:188|300:304,1,210.000008010865
132,276,163656,1,0,0:0:0:0:
132,88,163830,2,0,P|80:112|64:260,1,210.000008010865
240,308,164354,1,0,0:0:0:0:
388,192,164528,2,0,P|376:124|332:120,1,105.000004005432
160,124,164877,1,0,0:0:0:0:
432,52,165226,6,0,P|352:88|304:204,1,210.000008010865
388,208,165749,1,0,0:0:0:0:
408,172,165836,1,0,0:0:0:0:
440,144,165923,1,0,0:0:0:0:
272,56,166098,2,0,P|232:108|192:96,1,105.000004005432
20,44,166447,1,0,0:0:0:0:
168,160,166621,2,0,P|144:236|104:240,1,105.000004005432
343,160,166970,2,0,P|343:210|383:241,1,105.000004005432
64,312,167493,1,0,0:0:0:0:
64,312,167668,1,0,0:0:0:0:
440,128,168016,6,0,P|416:216|272:224,1,210.000008010865
352,156,168540,1,0,0:0:0:0:
71,128,168714,6,0,P|103:223|201:245,1,210.000008010865
160,156,169238,1,0,0:0:0:0:
256,344,169412,2,0,L|256:200,1,105.000004005432
256,28,169761,2,0,L|256:240,2,210.000008010865
408,172,170633,1,0,0:0:0:0:
216,260,170807,2,0,P|160:224|160:188,1,105.000004005432
328,64,171156,1,0,0:0:0:0:
352,191,171330,2,0,P|342:240|296:260,1,105.000004005432
184,64,171679,1,0,0:0:0:0:
88,252,171854,2,0,P|144:320|192:324,1,105.000004005432
364,304,172202,6,0,P|280:316|248:280,1,105.000004005432
144,140,172551,2,0,P|208:208|248:212,1,105.000004005432
468,40,173075,1,0,0:0:0:0:
468,40,173249,1,0,0:0:0:0:
48,56,173598,6,0,P|56:156|76:176,1,105.000004005432
256,192,173947,1,0,0:0:0:0:
464,327,174120,2,0,P|474:277|456:228,1,105.000004005432
256,192,174469,1,0,0:0:0:0:
47,327,174644,2,0,P|37:277|55:228,1,105.000004005432
256,192,174993,1,0,0:0:0:0:
464,56,175168,2,0,P|456:156|436:176,1,105.000004005432
256,192,175517,1,0,0:0:0:0:
256,192,175865,1,0,0:0:0:0:
256,192,176040,1,0,0:0:0:0:
56,52,176388,6,0,P|64:104|176:212,1,210.000008010865
316,56,176912,1,0,0:0:0:0:
224,244,177086,2,0,P|340:236|416:164,1,210.000008010865
208,108,177609,1,0,0:0:0:0:
8,180,177784,2,0,P|44:256|68:260,1,105.000004005432
260,312,178133,2,0,P|324:280|352:248,1,105.000004005432
224,48,178656,1,0,0:0:0:0:
224,48,178830,1,0,0:0:0:0:
416,128,179179,6,0,P|356:196|324:192,1,105.000004005432,4|0,0:0|0:0,0:0:0:0:
148,140,179528,1,0,0:0:0:0:
304,280,179702,1,0,0:0:0:0:
48,56,180051,1,0,0:0:0:0:
48,56,180226,1,0,0:0:0:0:
95,128,180575,6,0,P|114:175|161:196,1,105.000004005432,4|0,0:0|0:0,0:0:0:0:
364,140,180924,1,0,0:0:0:0:
208,280,181098,1,0,0:0:0:0:
464,56,181447,1,0,0:0:0:0:
464,56,181622,1,0,0:0:0:0:
92,244,181970,6,0,P|220:184|232:208,1,210.000008010865,4|0,0:0|0:0,0:0:0:0:
164,232,182493,1,0,0:0:0:0:
368,100,182842,1,0,0:0:0:0:
368,100,183016,1,0,0:0:0:0:
56,52,183365,5,0,0:0:0:0:
456,332,183714,5,0,0:0:0:0:
456,52,184063,5,0,0:0:0:0:
56,332,184412,5,0,0:0:0:0:
256,192,184761,2,0,B|256:76|256:76|360:76,1,210.000008010865,4|0,0:0|0:0,0:0:0:0:
456,76,185284,1,0,0:0:0:0:
456,308,185633,1,0,0:0:0:0:
456,308,185807,1,0,0:0:0:0:
256,192,186156,2,0,B|256:308|256:308|152:308,1,210.000008010865,4|0,0:0|0:0,0:0:0:0:
56,308,186679,1,0,0:0:0:0:
56,76,187028,1,0,0:0:0:0:
56,76,187202,1,0,0:0:0:0:
476,76,187551,6,0,L|280:180,1,210.000008010865
96,256,188075,2,0,P|164:188|120:88,1,210.000008010865
84,168,188598,1,0,0:0:0:0:
472,332,188947,2,0,P|392:312|320:208,1,210.000008010865
248,32,189644,2,0,P|188:112|260:184,1,210.000008010865
208,256,190342,1,4,0:0:0:0:
396,120,190691,2,0,P|372:176|312:196,1,105.000004005432
80,92,191214,2,0,P|52:144|80:192,1,105.000004005432
476,292,191737,6,0,P|392:316|380:296,1,105.000004005432
200,232,192086,2,0,P|244:180|284:168,1,105.000004005432
80,92,192609,1,0,0:0:0:0:
80,92,192784,1,0,0:0:0:0:
84,324,193133,2,0,P|92:264|128:228,1,105.000004005432
304,132,193481,2,0,P|224:92|196:96,1,105.000004005432
472,296,194005,1,0,0:0:0:0:
472,296,194179,1,0,0:0:0:0:
104,92,194528,6,0,P|100:172|76:184,1,105.000004005432
272,276,194877,2,0,P|264:220|208:212,1,105.000004005432
392,80,195226,2,0,P|392:152|424:152,1,105.000004005432
220,56,195575,1,0,0:0:0:0:
112,264,195923,6,0,P|132:200|116:168,1,105.000004005432
308,108,196272,2,0,P|300:168|340:188,1,105.000004005432
400,308,196795,2,0,P|340:304|256:332,1,105.000004005432
76,64,197319,6,0,P|128:152|148:152,1,105.000004005432
328,164,197668,2,0,P|408:132|408:104,1,105.000004005432
16,280,198191,2,0,P|60:224|92:232,1,105.000004005432
476,72,198714,6,0,P|456:132|412:152,1,105.000004005432
216,200,199063,2,0,P|168:240|180:288,1,105.000004005432
380,236,199412,2,0,P|380:168|356:140,1,105.000004005432
160,68,199761,2,0,P|216:104|204:144,1,105.000004005432
132,164,200109,2,0,L|88:200,1,52.5000020027161
216,276,200284,2,0,L|280:292,1,52.5000020027161
316,136,200458,2,0,L|276:92,1,52.5000020027161
444,228,200633,2,0,L|484:272,1,52.5000020027161
232,200,200807,2,0,L|192:152,1,52.5000020027161
340,64,200981,2,0,L|392:48,1,52.5000020027161
356,292,201156,2,0,L|408:320,1,52.5000020027161
276,184,201330,1,0,0:0:0:0:
112,140,201505,6,0,P|112:200|232:312,1,210.000008010865,4|0,0:0|0:0,0:0:0:0:
396,296,202028,1,0,0:0:0:0:
456,116,202202,2,0,P|408:92|352:112,1,105.000004005432
180,164,202551,1,0,0:0:0:0:
108,340,202726,2,0,P|64:288|68:256,1,105.000004005432
164,92,203075,2,0,P|125:125|124:176,1,105.000004005432
224,340,203423,2,0,P|180:288|184:256,1,105.000004005432
280,92,203772,2,0,P|241:125|240:176,1,105.000004005432
344,336,204121,2,0,P|300:284|304:252,1,105.000004005432
92,140,204644,1,0,0:0:0:0:
268,208,204819,1,0,0:0:0:0:
452,172,204993,1,0,0:0:0:0:
92,288,205342,6,0,P|152:236|164:168,1,105.000004005432
268,60,205691,2,0,P|232:144|192:136,1,105.000004005432
52,196,206040,1,0,0:0:0:0:
220,284,206214,1,0,0:0:0:0:
376,180,206388,2,0,P|392:248|284:320,1,210.000008010865
40,36,207086,6,0,P|84:104|204:128,1,210.000008010865
388,80,207609,1,0,0:0:0:0:
380,268,207784,2,0,P|304:296|280:288,1,105.000004005432
116,200,208133,2,0,P|128:268|160:280,1,105.000004005432
320,184,208481,2,0,P|292:132|236:128,1,105.000004005432
68,72,208830,2,0,L|164:136,1,105.000004005432
280,276,209179,1,0,0:0:0:0:
420,148,209354,2,0,P|432:208|400:244,2,105.000004005432
244,72,209877,1,0,0:0:0:0:
72,196,210226,1,0,0:0:0:0:
240,284,210400,1,0,0:0:0:0:
408,200,210575,1,0,0:0:0:0:
64,40,210923,6,0,P|116:96|140:120,1,105.000004005432
304,204,211272,2,0,P|216:240|188:228,1,105.000004005432
24,268,211621,1,0,0:0:0:0:
172,152,211795,1,0,0:0:0:0:
356,116,211970,2,0,P|392:208|336:308,1,210.000008010865
176,340,212668,2,0,P|192:284|160:228,1,105.000004005432
60,92,213016,1,0,0:0:0:0:
248,88,213191,2,0,P|272:184|304:192,1,105.000004005432
440,144,213714,6,0,P|432:220|404:236,1,105.000004005432
232,288,214063,1,0,0:0:0:0:
112,128,214412,1,0,0:0:0:0:
84,316,214586,2,0,P|60:224|72:212,1,105.000004005432
220,128,214935,1,0,0:0:0:0:
360,256,215109,2,0,P|368:180|336:172,1,105.000004005432
176,236,215458,2,0,P|120:192|112:148,1,105.000004005432
288,96,215807,1,0,0:0:0:0:
436,212,215981,2,0,P|444:276|404:304,2,105.000004005432
288,96,216505,2,0,P|180:72|164:92,1,105.000004005432
36,156,216854,6,0,P|44:236|160:284,1,210.000008010865
332,232,217377,1,0,0:0:0:0:
212,88,217551,2,0,P|152:104|196:228,1,210.000008010865
440,60,218249,6,0,P|380:152|284:148,1,210.000008010865
108,92,218772,1,0,0:0:0:0:
188,264,218947,2,0,P|248:280|404:248,1,210.000008010865
272,108,219470,1,0,0:0:0:0:
108,200,219644,2,0,P|120:132|248:32,1,210.000008010865
404,92,220168,1,0,0:0:0:0:
344,272,220342,2,0,P|288:308|244:296,1,105.000004005432
188,124,220691,2,0,P|168:212|188:240,1,105.000004005432
352,160,221040,1,0,0:0:0:0:
64,76,222086,6,0,P|64:176|88:212,1,105.000004005432
432,264,222609,1,0,0:0:0:0:
244,276,222784,2,0,P|184:240|312:108,1,315.000012016297
484,108,223481,2,4,P|456:164|312:168,1,210.000008010865,0|4,0:0|0:0,0:0:0:0:
152,92,224005,5,0,0:0:0:0:
136,280,224179,2,0,P|184:324|232:320,1,105.000004005432
356,188,224528,2,0,P|296:260|260:240,1,105.000004005432
136,172,224877,2,0,P|212:212|236:208,1,105.000004005432
348,64,225226,2,0,P|424:72|428:108,1,105.000004005432
448,276,225575,2,0,P|404:320|356:328,1,105.000004005432
48,120,226098,2,0,P|40:192|64:224,1,105.000004005432
244,228,226447,2,0,P|184:288|152:292,2,105.000004005432
280,100,226970,1,0,0:0:0:0:
416,144,227319,2,0,P|400:228|384:240,1,105.000004005432
212,308,227668,5,0,0:0:0:0:
108,152,227842,1,0,0:0:0:0:
284,84,228016,2,0,P|272:164|240:184,1,105.000004005432
380,320,228365,2,0,P|368:232|392:216,1,105.000004005432
180,240,228714,1,0,0:0:0:0:
136,56,228888,2,0,P|104:124|60:136,1,105.000004005432
80,324,229237,2,0,P|88:232|104:224,1,105.000004005432
268,176,229586,1,0,0:0:0:0:
456,172,229761,2,0,P|424:228|368:248,1,105.000004005432
204,268,230109,5,0,0:0:0:0:
144,88,230284,1,0,0:0:0:0:
192,88,230371,1,0,0:0:0:0:
232,96,230458,1,0,0:0:0:0:
356,240,230633,2,0,P|416:220|412:184,2,105.000004005432
264,224,231069,1,0,0:0:0:0:
220,208,231156,1,0,0:0:0:0:
184,184,231243,1,0,0:0:0:0:
140,168,231330,2,0,P|96:236|112:276,1,105.000004005432
220,324,231679,1,0,0:0:0:0:
72,204,231854,6,0,P|76:120|96:116,1,105.000004005432
260,76,232202,1,0,0:0:0:0:
404,196,232377,1,0,0:0:0:0:
288,344,232551,2,0,P|356:324|368:296,1,105.000004005432
360,108,232900,2,0,P|308:128|252:128,1,105.000004005432
80,64,233249,1,0,0:0:0:0:
96,252,233423,2,0,P|148:296|208:296,1,105.000004005432
356,224,233772,1,0,0:0:0:0:
316,200,233859,1,0,0:0:0:0:
284,172,233947,1,0,0:0:0:0:
100,140,234121,6,0,P|164:108|196:112,1,105.000004005432
384,92,234470,1,0,0:0:0:0:
440,272,234644,2,0,P|392:328|352:328,1,105.000004005432
196,248,234993,1,0,0:0:0:0:
180,60,235168,2,0,P|160:120|172:164,1,105.000004005432
324,268,235516,2,0,P|316:212|268:176,1,105.000004005432
96,216,235865,2,0,P|52:176|56:128,1,105.000004005432
240,112,236214,1,0,0:0:0:0:
284,108,236301,1,0,0:0:0:0:
328,104,236388,2,0,P|384:112|404:160,1,105.000004005432
364,336,236737,6,0,P|416:304|444:260,1,105.000004005432
252,248,237086,2,0,P|184:284|156:280,1,105.000004005432
296,148,237435,2,0,P|348:92|352:56,1,105.000004005432
164,96,237784,2,0,P|112:148|60:156,1,105.000004005432
160,328,238133,2,0,L|172:268,2,52.5000020027161
336,256,238481,2,0,P|384:184|424:208,1,105.000004005432
432,176,238743,1,0,0:0:0:0:
464,140,238830,1,0,0:0:0:0:
464,100,238918,1,0,0:0:0:0:
440,56,239005,1,0,0:0:0:0:
252,80,239179,6,0,P|200:132|176:128,1,105.000004005432
56,276,239528,1,0,0:0:0:0:
240,312,239702,2,0,P|176:260|172:232,1,105.000004005432
348,176,240051,1,0,0:0:0:0:
404,356,240226,2,0,P|332:296|324:276,1,105.000004005432
188,160,240575,2,0,P|136:184|88:160,1,105.000004005432
264,88,240923,1,0,0:0:0:0:
308,88,241011,1,0,0:0:0:0:
340,104,241098,1,0,0:0:0:0:
168,148,241272,1,0,0:0:0:0:
24,44,241447,5,0,0:0:0:0:
132,184,241621,2,0,P|36:168|28:148,1,105.000004005432
164,300,241970,2,0,P|208:272|264:268,1,105.000004005432
420,188,242319,1,0,0:0:0:0:
244,156,242493,2,0,P|280:200|272:248,1,105.000004005432
100,288,242842,1,0,0:0:0:0:
116,112,243016,2,0,P|176:64|212:76,1,105.000004005432
368,116,243365,1,0,0:0:0:0:
404,292,243540,2,0,P|384:228|412:200,1,105.000004005432
452,32,243888,5,0,0:0:0:0:
276,68,244063,1,0,0:0:0:0:
240,100,244150,1,0,0:0:0:0:
208,136,244237,1,0,0:0:0:0:
76,256,244412,2,0,P|132:312|164:308,1,105.000004005432
312,228,244761,1,0,0:0:0:0:
424,88,244935,2,0,P|440:164|420:204,1,105.000004005432
296,304,245284,1,0,0:0:0:0:
148,208,245458,2,0,P|152:296|176:312,1,105.000004005432
196,320,245720,1,0,0:0:0:0:
236,320,245807,1,0,0:0:0:0:
276,316,245894,1,0,0:0:0:0:
316,308,245981,1,0,0:0:0:0:
356,292,246069,1,0,0:0:0:0:
392,272,246156,1,0,0:0:0:0:
