osu file format v5

[General]
AudioFilename: Mad Machine.mp3
AudioLeadIn: 0
PreviewTime: -1
Countdown: 2
SampleSet: Normal
StackLeniency: 0.2
Mode: 0
LetterboxInBreaks: 1
SkinPreference:grungosu

[Metadata]
Title:Mad Machine
Artist:Syrsa
Creator:SYRSA
Version:Insane
Source:
Tags:Speecore Hardcore Insane Mad Machine OMG!

[Difficulty]
HPDrainRate:5
CircleSize:7
OverallDifficulty:10
SliderMultiplier:2
SliderTickRate:3

[Events]
//Background and Video events
0,0,"Syrsa Logo.png"
//Break Periods
//Storyboard Layer 0 (Background)
//Storyboard Layer 1 (Failing)
//Storyboard Layer 2 (Passing)
//Storyboard Layer 3 (Foreground)
//Storyboard Sound Samples
//Background Colour Transformations
3,100,101,124,86

[TimingPoints]
0,222.222222222222,4,1,0,50,1,0

[Colours]
Combo1 : 83,81,81
Combo2 : 129,167,140
Combo3 : 41,41,41
Combo4 : 106,164,43

[HitObjects]
256,192,3333,1,0
256,192,3388,1,0
256,192,3444,1,0
256,192,3499,1,0
256,192,3555,2,0,B|47:192,2,200
256,192,3999,2,0,B|467:193,2,200
256,192,4444,2,0,B|10:10,1,300
14,13,4777,2,0,B|120:13,1,100
114,13,4888,2,0,B|316:96|342:160|314:226|287:241|252:240|233:228|221:204|241:182|249:180|264:192,1,400
255,126,5666,1,0
263,191,5333,2,0,B|356:232|223:340|165:240|162:168|224:97|277:135,1,300
255,126,5666,2,0,B|375:127,2,100
255,126,5888,2,0,B|48:125|79:325|164:296,1,300
145,298,6222,1,0
257,298,6833,1,0
257,298,7111,2,0,B|335:208,2,100
257,298,7333,2,0,B|176:214,2,100
257,298,7555,2,0,B|329:216,2,100
257,298,7777,2,0,B|182:220,2,100
257,298,8000,2,0,B|335:208,2,100
257,298,8222,2,0,B|176:214,2,100
257,298,8444,2,0,B|329:216,2,100
257,298,8666,2,0,B|182:220,2,100
257,298,8888,2,0,B|335:208,2,100
257,298,9110,2,0,B|176:214,2,100
257,298,9332,2,0,B|329:216,2,100
257,298,9554,2,0,B|182:220,2,100
257,298,9777,2,0,B|358:377|440:272|412:155|340:147|220:149,1,400
227,148,10222,2,0,B|116:149,2,100
227,148,10444,2,0,B|256:148,7,25
256,192,10666,2,0,B|47:192,2,200
256,192,11110,2,0,B|467:193,2,200
256,192,11555,2,0,B|10:10,1,300
14,13,11888,2,0,B|120:13,1,100
114,13,11999,2,0,B|316:96|342:160|314:226|287:241|252:240|233:228|221:204|241:182|249:180|264:192,1,400
263,191,12444,2,0,B|356:232|223:340|165:240|162:168|224:97|277:135,1,300
255,126,12777,1,0
255,126,12777,2,0,B|375:127,2,100
255,126,12999,2,0,B|48:125|79:325|164:296,1,300
145,298,13333,1,0
257,298,13944,1,0
257,298,14222,2,0,B|335:208,2,100
257,298,14444,2,0,B|176:214,2,100
257,298,14666,2,0,B|329:216,2,100
257,298,14888,2,0,B|182:220,2,100
257,298,15111,2,0,B|335:208,2,100
257,298,15333,2,0,B|176:214,2,100
257,298,15555,2,0,B|329:216,2,100
257,298,15777,2,0,B|182:220,2,100
257,298,15999,2,0,B|335:208,2,100
257,298,16221,2,0,B|176:214,2,100
257,298,16443,2,0,B|329:216,2,100
257,298,16665,2,0,B|182:220,2,100
257,298,16888,2,0,B|358:377|440:272|412:155|340:147|222:149,1,400
227,148,17333,1,0
204,152,17361,1,0
184,162,17388,1,0
167,174,17416,1,0
152,189,17444,1,0
137,206,17472,1,0
125,224,17499,1,0
116,243,17527,1,0
108,264,17555,1,0
103,285,17583,1,0
100,308,17611,1,0
99,329,17638,1,0
104,348,17666,1,0
118,364,17694,1,0
139,370,17722,1,0
161,372,17749,1,0
182,372,17777,2,0,B|388:372|388:372|388:158|388:158|144:22|228:70,1,600
230,71,18444,2,0,B|336:72,2,100
230,71,18666,2,0,B|230:180,2,100
230,71,18888,2,0,B|123:71,2,100
230,71,19111,2,0,B|341:72,2,100
230,71,19333,2,0,B|230:177,2,100
230,71,19555,2,0,B|403:191|403:191,1,200
394,184,19777,2,0,B|265:344,1,200
269,340,19999,2,0,B|92:202,2,200
300,330,20888,1,0
320,330,20916,1,0
340,325,20944,1,0
360,316,20972,1,0
378,304,20999,1,0
393,287,21027,1,0
403,268,21055,1,0
408,244,21083,1,0
407,220,21111,1,0
394,200,21138,1,0
372,190,21166,1,0
349,183,21194,1,0
325,179,21222,1,0
302,176,21249,1,0
278,175,21277,1,0
255,175,21305,1,0
232,175,21333,2,0,B|149:173|92:141|159:46|202:5|332:62|357:112|357:185,2,400
232,175,22222,2,0,B|311:107,2,100
232,175,22444,2,0,B|148:99,2,100
232,175,22666,2,0,B|313:105,2,100
232,175,22888,2,0,B|152:103,2,100
232,175,23111,2,0,B|361:303|208:368|98:292|113:137,1,400
112,143,23555,2,0,B|129:21|315:33|382:128|380:233,1,400
379,222,23999,2,0,B|497:223,2,100
337,273,24444,1,0
337,273,24472,1,0
336,169,24555,1,0
336,169,24583,1,0
280,273,24666,1,0
280,273,24694,1,0
280,170,24777,1,0
280,170,24805,1,0
330,221,24888,2,0,B|118:220|118:220|119:25|119:25|216:25|216:25|216:137|216:137|216:136,1,600
216,121,25555,2,0,B|419:122,1,200
415,121,25777,2,0,B|416:224,2,100
415,121,25999,2,0,B|417:14,2,100
415,121,26222,2,0,B|416:236,2,100
415,121,26444,2,0,B|417:12,2,100
415,121,26666,2,0,B|212:121|212:121|211:320,1,400
211,318,27111,2,0,B|5:319|5:319|7:116,1,400
96,128,27999,1,0
116,128,28027,1,0
136,128,28055,1,0
156,127,28083,1,0
175,128,28111,1,0
194,128,28138,1,0
213,128,28166,1,0
232,128,28194,1,0
251,128,28222,1,0
271,128,28249,1,0
291,128,28277,1,0
311,128,28305,1,0
330,128,28333,1,0
349,128,28361,1,0
368,128,28388,1,0
387,128,28416,1,0
407,128,28444,2,0,B|512:135|512:223|470:310|408:308|250:307,1,400
260,307,28888,2,0,B|19:308|56:42|304:29|391:68|393:226|306:281|177:263|167:209|200:169|252:180|248:187,1,600
233,183,29555,2,0,B|269:172|224:140|152:180|176:240|255:273|263:254|430:223|392:57|236:5|104:76|85:101|44:221|56:299,1,600
54,289,30222,1,0
74,289,30249,1,0
94,289,30277,1,0
114,289,30305,1,0
134,289,30333,1,0
154,289,30361,1,0
173,288,30388,1,0
192,288,30416,1,0
211,289,30444,1,0
231,288,30472,1,0
250,289,30499,1,0
269,289,30527,1,0
288,289,30555,1,0
307,289,30583,1,0
326,289,30611,1,0
345,289,30638,1,0
364,289,30666,1,0
384,288,30694,1,0
404,287,30722,1,0
423,277,30749,1,0
440,263,30777,1,0
450,244,30805,1,0
455,222,30833,1,0
455,199,30861,1,0
449,176,30888,1,0
437,156,30916,1,0
422,137,30944,1,0
403,123,30972,1,0
381,114,30999,1,0
359,108,31027,1,0
336,104,31055,1,0
313,103,31083,1,0
291,103,31111,1,0
246,102,31138,1,0
200,103,31166,1,0
154,103,31194,1,0
108,109,31222,1,0
68,132,31249,1,0
41,171,31277,1,0
30,218,31305,1,0
30,266,31333,1,0
38,313,31361,1,0
70,348,31388,1,0
114,364,31416,1,0
161,365,31444,1,0
209,361,31472,1,0
254,345,31499,1,0
289,314,31527,1,0
309,272,31555,1,0
302,225,31583,1,0
271,189,31611,1,0
228,171,31638,1,0
182,160,31666,1,0
136,161,31694,1,0
97,194,31722,1,0
85,244,31749,1,0
91,293,31777,1,0
133,314,31805,1,0
180,318,31833,1,0
224,305,31861,1,0
258,271,31888,1,0
239,227,31916,1,0
196,207,31944,1,0
149,208,31972,1,0
136,255,31999,2,0,B|212:338|400:260|348:108|228:72,2,400
136,255,32888,2,0,B|71:158|14:265|26:340|78:381|115:372|164:349|184:317|192:277|192:201,1,400
191,224,33333,2,0,B|213:204|213:204|192:191|192:191|210:178|210:178|190:165|190:165|209:149|209:149|189:134|189:134|209:119|209:119|189:103,2,200
191,224,33777,2,0,B|344:367|474:164|403:110|380:41|340:53,2,400
191,224,34666,2,0,B|190:332,2,100
191,224,34888,2,0,B|192:108,2,100
238,224,35166,1,0
283,225,35222,1,0
328,225,35277,1,0
373,226,35333,1,0
418,226,35388,1,0
373,226,35444,1,0
328,225,35499,1,0
283,225,35555,2,0,B|284:77|121:65|50:132|60:264,2,400
283,225,36444,2,0,B|389:228,2,100
283,225,36666,2,0,B|68:224,1,200
104,224,36916,1,0
124,224,36944,1,0
143,225,36972,1,0
162,224,36999,1,0
181,225,37027,1,0
200,225,37055,1,0
219,225,37083,1,0
238,225,37111,1,0
257,224,37138,1,0
283,225,37166,1,0
302,225,37194,1,0
321,225,37222,1,0
340,226,37249,1,0
359,226,37277,1,0
380,226,37305,1,0
399,226,37333,2,0,B|544:224|472:73|364:29|276:103|250:200,1,400
256,179,37777,2,0,B|197:285|99:282|62:159|136:56|260:68,1,400
247,67,38222,2,0,B|264:88|264:88|245:106|245:106|264:120|264:120|251:140|251:140|264:162|264:162|252:184|252:184|263:206|263:206|252:232|252:232|262:254|262:254|252:277|252:277|261:300|261:300|253:321|253:321|262:345|262:345|254:368|254:368|228:369|228:369|228:345,2,400
247,67,39111,2,0,B|135:66,8,100
247,67,39999,2,0,B|150:12,2,100
197,171,40444,1,0
247,67,40222,2,0,B|339:113|294:170|244:173|188:171,1,200
174,175,40472,1,0
156,187,40499,1,0
139,202,40527,1,0
124,220,40555,1,0
115,240,40583,1,0
112,262,40611,1,0
117,286,40638,1,0
130,308,40666,1,0
145,327,40694,1,0
165,340,40722,1,0
184,352,40749,1,0
207,361,40777,1,0
229,367,40805,1,0
251,369,40833,1,0
273,368,40861,1,0
296,363,40888,1,0
318,354,40916,1,0
339,344,40944,1,0
360,332,40972,1,0
380,318,40999,1,0
397,300,41027,1,0
413,279,41055,1,0
426,257,41083,1,0
436,233,41111,1,0
441,208,41138,1,0
443,183,41166,1,0
440,158,41194,1,0
436,134,41222,1,0
427,113,41249,1,0
416,92,41277,1,0
403,71,41305,1,0
387,51,41333,2,0,C|338:12|281:-4|217:-4|154:25|105:71|80:120|72:162,1,400
75,140,41777,2,0,C|280:140,2,200
75,140,42222,2,0,C|75:200,1,50
89,252,42333,2,0,C|122:304,1,50
165,337,42444,2,0,C|221:363,1,50
273,364,42555,2,0,C|339:349,1,50
376,322,42611,2,0,C|416:276,1,50
408,284,42666,2,0,C|407:176,8,100
408,284,43999,1,0
408,284,43555,2,0,C|482:290|502:332|476:367|423:366,2,200
384,286,44027,1,0
359,286,44055,1,0
334,287,44083,1,0
311,285,44111,1,0
287,279,44138,1,0
262,271,44166,1,0
242,254,44194,1,0
230,232,44222,1,0
225,207,44249,1,0
227,184,44277,1,0
238,164,44305,1,0
254,148,44333,1,0
274,137,44361,1,0
296,130,44388,1,0
317,128,44416,1,0
338,129,44444,2,0,C|408:130|445:100|432:71|376:13|295:-21|224:-22|159:-2|117:33|84:75|61:128|54:172|60:220|75:264|92:293,1,800
91,291,45333,2,0,C|295:291,2,200
91,291,45777,2,0,C|91:185,4,100
91,291,46222,2,0,B|324:291|324:291|423:192|423:192|204:56|228:70,1,600
230,71,46889,2,0,B|336:72,2,100
230,71,47111,2,0,B|230:180,2,100
230,71,47333,2,0,B|123:71,2,100
230,71,47556,2,0,B|341:72,2,100
230,71,47778,2,0,B|230:177,2,100
230,71,48000,2,0,B|403:191|403:191,1,200
394,184,48222,2,0,B|265:344,1,200
269,340,48444,2,0,B|92:202,2,200
300,330,49333,1,0
320,330,49361,1,0
340,325,49389,1,0
360,316,49417,1,0
378,304,49444,1,0
393,287,49472,1,0
403,268,49500,1,0
408,244,49528,1,0
407,220,49556,1,0
394,200,49583,1,0
372,190,49611,1,0
349,183,49639,1,0
325,179,49667,1,0
302,176,49694,1,0
278,175,49722,1,0
255,175,49750,1,0
232,175,49778,2,0,B|149:173|92:141|159:46|202:5|332:62|357:112|357:185,2,400
232,175,50667,2,0,B|311:107,2,100
232,175,50889,2,0,B|148:99,2,100
232,175,51111,2,0,B|313:105,2,100
232,175,51333,2,0,B|152:103,2,100
232,175,51556,2,0,B|361:303|208:368|98:292|113:137,1,400
112,143,52000,2,0,B|129:21|315:33|382:128|380:233,1,400
379,222,52888,1,0
379,222,52444,2,0,B|168:221,2,200
379,222,53111,1,0
379,222,53222,1,0
379,222,53277,1,0
379,222,53305,1,0
379,222,53333,1,0
