osu file format v9

[General]
AudioFilename: Mad Machine.mp3
AudioLeadIn: 0
PreviewTime: 30222
Countdown: 0
SampleSet: Normal
StackLeniency: 0.7
Mode: 0
LetterboxInBreaks: 0

[Editor]
Bookmarks: 47333,65777
DistanceSpacing: 1.15
BeatDivisor: 1
GridSize: 4

[Metadata]
Title:Mad Machine
Artist:Syrsa
Creator:Louis Cyphre
Version:Middling
Source:
Tags:Speedcore

[Difficulty]
HPDrainRate:3
CircleSize:3
OverallDifficulty:3
ApproachRate:4
SliderMultiplier:0.750000005960464
SliderTickRate:1

[Events]
//Background and Video events
0,0,"Syrsa Logo.jpg"
//Break Periods
2,53532,59124
//Storyboard Layer 0 (Background)
//Storyboard Layer 1 (Fail)
//Storyboard Layer 2 (Pass)
//Storyboard Layer 3 (Foreground)
//Storyboard Sound Samples
//Background Colour Transformations
3,100,101,124,86

[TimingPoints]
0,222.222222222222,4,1,1,75,1,0
31999,-100,4,1,1,60,0,0
32888,-100,4,1,1,75,0,0
33777,-100,4,1,1,60,0,0
34666,-100,4,1,1,75,0,0
35555,-100,4,1,1,60,0,0
36444,-100,4,1,1,75,0,0
37333,-100,4,1,1,60,0,0
38222,-100,4,1,1,50,0,0
39111,-100,4,1,1,75,0,0
40888,-100,4,1,1,60,0,0
41777,-100,4,1,1,75,0,0
43999,-100,4,1,1,50,0,0
44444,-100,4,1,1,75,0,0
44888,-100,4,1,1,50,0,0
45777,-100,4,1,1,75,0,0
75999,-100,4,1,1,20,0,0
76444,-100,4,1,1,60,0,0

[Colours]
Combo1 : 89,138,85
Combo2 : 1,254,108
Combo3 : 171,223,162
Combo4 : 141,196,60
SliderBorder : 200,200,200

[HitObjects]
168,244,3555,2,0,B|164:292|184:352|256:367|328:352|348:292|344:244,1,300.000002384186,8|8
344,156,4666,2,0,B|420:156,2,75.0000005960464,0|8|0
276,100,5333,2,0,B|252:72|212:60|172:72|144:104,1,150.000001192093,8|8
212,160,5999,1,0
144,216,6222,2,0,B|171:247|211:259|251:247|275:219,1,150.000001192093,8|0
388,348,7111,6,0,B|356:336|344:296|356:252|388:236|416:236|444:236|476:220|488:176|476:136|440:124,1,300.000002384186,0|8
360,164,8222,2,0,B|336:128|352:88,2,75.0000005960464,0|8|0
300,228,8888,2,0,B|256:192|252:132|264:92,2,150.000001192093,8|0|8
176,348,10222,6,0,B|176:284|112:284|112:216,1,150.000001192093,8|8
56,56,11111,2,0,B|108:108,1,75.0000005960464,8|0
176,56,11555,2,0,B|228:108,3,75.0000005960464,8|0|8|0
264,32,12444,2,0,B|316:84|316:84|324:160|276:200|216:208|168:160,1,300.000002384186,8|8
32,268,13777,6,0,B|108:268,1,75.0000005960464,2|2
128,352,14222,2,0,B|176:344|192:300|192:300|256:300,1,150.000001192093,8|8
428,312,15111,2,0,B|428:160,1,150.000001192093,8|8
344,136,15777,1,0
408,80,15999,2,0,B|368:40|308:36|260:64|240:112|248:168|276:200|312:208,1,300.000002384186,8|2
360,280,17111,1,2
272,280,17333,6,0,B|200:252|184:168,2,150.000001192093,2|8|0
100,264,18666,2,0,B|52:200|68:120,1,150.000001192093,8|8
224,48,19555,2,0,B|212:96|224:136|256:156|304:156,2,150.000001192093,8|8|2
308,72,20666,1,2
368,132,20888,6,0,B|292:152|272:240,2,150.000001192093,2|8|8
340,304,22222,2,0,B|320:248|272:216|208:224|168:272|168:272|76:272,1,300.000002384186,8|8
80,100,23555,2,0,B|124:124|124:124|160:96|220:88,1,150.000001192093,8|8
388,96,24444,6,0,B|368:64|328:48,2,75.0000005960464,2|2|8
256,208,25333,1,0
108,296,25777,2,0,B|56:260|56:196|56:196|84:176|96:148|88:120|56:100|56:100|56:36,1,300.000002384186,8|8
216,104,27111,2,0,B|168:100|148:148|168:196|216:192,1,150.000001192093,2|2
260,24,27999,5,2
300,192,28444,2,0,B|347:195|367:147|347:99|299:103,1,150.000001192093,8|0
456,34,29333,2,0,B|456:100|456:100|424:120|416:148|428:176|456:196|456:196|456:260|404:296,1,300.000002384186,8|2
256,192,30444,12,2,31999
256,192,32222,12,2,33777
156,260,34666,6,0,B|148:276|156:296|176:312|204:308|236:304|256:352|256:352|276:304|308:308|336:312|356:296|364:276|356:260,1,300.000002384186,2|2
343,87,35999,1,0
170,88,36444,1,2
212,256,36888,6,0,B|212:208|256:184|300:208|300:256,2,150.000001192093,2|0|2
124,108,38222,2,0,B|180:48|256:24|332:48|388:108,2,300.000002384186,2|0|2
188,268,40444,6,0,B|216:244|256:228|296:244|324:268,2,150.000001192093,2|0|2
256,108,41777,1,8
428,116,42222,6,0,B|472:176,1,75.0000005960464,2|2
400,224,42666,2,0,B|400:320,1,75.0000005960464,8|0
312,292,43111,2,0,B|256:348,2,75.0000005960464,8|0|8
332,120,43999,6,0,B|316:196|236:228,1,150.000001192093,2|0
72,172,44888,2,0,B|150:190|210:134,1,150.000001192093,2|0
104,272,45777,6,0,B|156:324,2,75.0000005960464,2|2|8
268,328,46666,2,0,B|224:284|224:284|220:240|260:208,1,150.000001192093,8|8
336,252,47333,5,0
412,212,47555,1,8
412,124,47777,1,0
336,80,47999,1,8
188,168,48444,2,0,B|32:168,1,150.000001192093,8|2
152,296,49333,6,0,B|212:296|212:296|248:260|296:260,1,150.000001192093,2|8
452,192,50222,1,8
292,124,50666,6,0,B|240:72,1,75.0000005960464,8|0
168,120,51111,2,0,B|224:176,1,75.0000005960464,8|0
152,224,51555,2,0,B|92:164,1,75.0000005960464,8|0
36,228,51999,2,0,B|92:284,2,75.0000005960464,8|0|2
196,296,52888,2,0,B|212:332|256:348|300:332|316:296,1,150.000001192093,2|4
320,192,60444,6,0,B|396:176|392:208|468:192,1,150.000001192093,2|8
320,284,61333,2,0,B|296:316|256:328|216:316|192:284,1,150.000001192093,8|8
43,191,62222,2,0,B|120:208|116:176|192:192,1,150.000001192093,8|8
256,136,62888,1,2
192,76,63111,2,0,B|208:48|256:28|304:48|320:76,2,150.000001192093,8|2|8
340,164,64444,6,0,B|416:164|416:164|476:224,2,150.000001192093,8|8|8
172,164,65777,2,0,B|96:164|96:164|36:224,2,150.000001192093,8|8|8
200,336,67111,1,8
256,272,67333,2,0,B|256:196,2,75.0000005960464,0|8|0
340,252,67999,6,0,B|340:196|340:196|340:160|320:128|296:120,1,150.000001192093,8|0
256,44,68666,1,0
216,120,68888,2,0,B|191:128|171:160|171:196|171:196|171:252,1,150.000001192093,8|0
116,88,69777,1,2
44,244,70222,2,0,B|76:264|84:304,2,75.0000005960464,2|2|2
204,304,71111,6,0,B|260:304|260:304|296:304|320:276|320:244,1,150.000001192093,8|8
376,84,71999,2,0,B|376:148|376:148|404:176|404:228,1,150.000001192093,8|8
232,216,72888,2,0,B|232:152|232:152|204:124|204:72,1,150.000001192093,8|8
152,248,73777,2,0,B|152:184|152:184|124:156|124:108|124:108|120:64|68:40|20:64|16:108,1,300.000002384186,2|8
256,332,75999,6,0,B|256:176,1,150.000001192093,2|2
256,192,76666,12,2,78222
256,192,78444,12,2,79999
256,192,80222,12,2,81777
256,192,81999,12,4,83555
