osu file format v9

[General]
AudioFilename: Mad Machine.mp3
AudioLeadIn: 0
PreviewTime: 30222
Countdown: 0
SampleSet: Normal
StackLeniency: 0.7
Mode: 0
LetterboxInBreaks: 0

[Editor]
Bookmarks: 65777
DistanceSpacing: 1
BeatDivisor: 4
GridSize: 4

[Metadata]
Title:Mad Machine
Artist:Syrsa
Creator:Louis Cyphre
Version:Experienced
Source:
Tags:Speedcore

[Difficulty]
HPDrainRate:5
CircleSize:4
OverallDifficulty:7
ApproachRate:8
SliderMultiplier:1.5
SliderTickRate:1

[Events]
//Background and Video events
0,0,"Syrsa Logo.jpg"
//Break Periods
2,53532,59694
//Storyboard Layer 0 (Background)
//Storyboard Layer 1 (Fail)
//Storyboard Layer 2 (Pass)
//Storyboard Layer 3 (Foreground)
//Storyboard Sound Samples
//Background Colour Transformations
3,100,101,124,86

[TimingPoints]
0,222.222222222222,4,1,1,75,1,0
17333,-50,4,1,1,75,0,0
17780,-100,4,1,1,75,0,0
20888,-50,4,1,1,75,0,0
21333,-100,4,1,1,75,0,0
27999,-50,4,1,1,75,0,0
28444,-100,4,1,1,75,0,0
30222,-100,4,1,1,55,0,0
31999,-100,4,1,1,60,0,0
32888,-100,4,1,1,75,0,0
33333,-50,4,1,1,75,0,0
33777,-100,4,1,1,60,0,0
34666,-100,4,1,1,75,0,0
35555,-100,4,1,1,60,0,0
36444,-100,4,1,1,75,0,0
36888,-50,4,1,1,75,0,0
37333,-100,4,1,1,60,0,0
38222,-100,4,1,1,50,0,0
39111,-100,4,1,1,75,0,0
40888,-100,4,1,1,60,0,0
41777,-100,4,1,1,75,0,0
43999,-100,4,1,1,50,0,0
44444,-100,4,1,1,75,0,0
44888,-100,4,1,1,50,0,0
45777,-100,4,1,1,75,0,0
49333,-50,4,1,1,75,0,0
49777,-100,4,1,1,75,0,0
73777,-100,4,1,1,75,0,0
74222,-50,4,1,1,75,0,0
74666,-100,4,1,1,75,0,0
75999,-100,4,1,1,20,0,0
76444,-100,4,1,1,35,0,0
77777,-100,4,1,1,100,0,0
78222,-100,4,1,1,35,0,0
79111,-100,4,1,1,50,0,0
79666,-100,4,1,1,100,0,0
79999,-100,4,1,1,35,0,0
80888,-100,4,1,1,50,0,0
81444,-100,4,1,1,100,0,0
81777,-100,4,1,1,50,0,0
83777,-100,4,1,1,100,0,0

[Colours]
Combo1 : 89,138,85
Combo2 : 1,254,108
Combo3 : 171,223,162
Combo4 : 141,196,60
SliderBorder : 200,200,200

[HitObjects]
448,192,3333,2,0,B|420:220,3,37.5,2|2|2|2
436,252,3555,2,0,B|412:280|412:280|348:280|348:204,1,150,8|0
76,252,3999,2,0,B|100:280|100:280|164:280|164:204,1,150,8|0
144,56,4444,2,0,B|160:88|144:120|144:120|192:112|216:152,1,150,8|0
256,88,4777,1,8
296,152,4888,2,0,B|319:112|367:120|367:120|351:88|367:56,1,150,0|0
360,208,5333,6,0,B|408:216|408:216|440:256|416:312,1,150,8|0
344,288,5666,1,8
272,320,5777,1,0
240,248,5888,1,8
168,280,5999,2,0,B|208:280|240:256|248:208|224:168,1,150,0|8
96,248,6444,2,0,B|74:212|82:164|114:140|154:140,1,150
216,96,6777,2,0,B|272:40,1,74.9999999999999,8|0
472,40,7111,6,0,B|472:88|472:88|448:136|448:136|448:184,1,150,8|0
40,344,7555,2,0,B|40:295|40:295|64:247|64:247|64:199,1,150,8|0
216,192,7999,2,0,B|208:144|256:120|304:144|296:192,1,150,8|0
296,272,8333,1,8
216,272,8444,1,0
216,352,8555,1,8
296,352,8666,1,0
440,304,8888,6,0,B|400:292|384:248|400:204|440:192,1,150,8|0
432,120,9222,2,0,B|392:120|368:152,1,74.9999999999999,8|0
389,48,9444,2,0,B|352:55|328:88,1,74.9999999999999,8|0
304,232,9777,2,0,B|272:232|264:248|256:280|256:280|248:248|240:232|208:232,1,150,8|0
64,192,10222,5,8
32,120,10333,1,0
104,128,10444,2,0,B|136:112,3,37.5,2|2|2|2
168,96,10666,6,0,B|200:80|200:80|280:80|280:144,1,150,8|0
344,288,11111,2,0,B|312:304|312:304|232:304|232:240,1,150,0|0
376,192,11555,2,0,B|416:152|416:152|384:112|400:64,1,150,8|0
472,96,11888,1,8
488,168,11999,6,0,B|488:216|488:216|440:248|456:304,1,150
312,352,12444,2,0,B|256:352|256:352|224:344|208:320|208:280,1,150,8|0
136,256,12777,2,0,B|104:280|64:272,1,75,8|0
120,184,12999,2,0,B|80:184|56:152,1,75,8|0
152,40,13333,2,0,B|184:24|224:24|256:56|256:104,2,150,8|0|0
176,112,13888,2,0,B|176:160|224:176,1,75,8|0
344,96,14222,6,0,B|376:128|376:128|424:128|456:104|456:72,1,150,8|0
168,288,14666,2,0,B|136:256|136:256|88:256|56:280|56:312,1,150,8|0
336,208,15111,2,0,B|375:236|358:287|307:304|279:264,1,150,8|0
256,192,15444,1,8
176,176,15555,2,0,B|136:147|153:96|204:79|232:119,1,150
368,56,15999,6,0,B|448:80|464:168,1,150,8|0
480,240,16333,2,0,B|488:320,1,75,8|0
408,272,16555,2,0,B|392:344,1,75,8|0
256,280,16888,2,0,B|184:320|112:280,1,150,2|2
40,152,17333,6,0,B|51:140|51:140|40:140|40:140|40:129|40:129|45:112|45:112|31:109|31:109|51:95|51:95|37:81|37:81|51:72|51:72|48:58|48:58|62:61|62:61|71:47|71:47|85:61|85:61|102:38|102:38|102:55|102:55|119:50|119:50|130:50|130:50|130:61|130:61|141:50,2,300,2|10|2
152,240,17999,1,0
208,104,18222,2,0,B|208:60|256:38|304:60|304:104,1,150,8|0
432,184,18666,6,0,B|488:240,1,75,2|0
392,248,18888,2,0,B|448:304,1,75,2|0
376,128,19111,6,0,B|320:72,1,75,2|0
336,192,19333,2,0,B|280:136,1,75,2|0
248,208,19555,2,0,B|288:248|288:248|312:288|288:336,1,150,8|0
168,240,19999,2,0,B|128:200|128:200|104:160|128:112,1,150,8|0
260,40,20444,2,0,B|262:83|295:106|328:121|370:104,1,150,2|2
472,232,20888,6,0,B|460:243|460:243|472:243|472:243|472:254|472:254|466:271|466:271|480:274|480:274|460:288|460:288|474:302|474:302|460:311|460:311|463:325|463:325|449:322|449:322|440:336|440:336|426:322|426:322|409:345|409:345|409:328|409:328|392:333|392:333|381:333|381:333|381:322|381:322|370:333,2,300,2|2|2
328,192,21555,1,0
224,296,21777,6,0,B|141:288|83:229|61:149|96:74,1,300,8|2
168,48,22333,2,0,B|240:32,2,75,0|2|0
192,120,22666,2,0,B|272:128,2,75,0|0|2
176,192,22999,2,0,B|248:224,1,75,0|8
392,192,23333,1,0
320,328,23555,2,0,B|256:328|256:328|216:288|176:288,1,150,8|0
320,240,23999,6,0,B|296:200|296:160|320:128|360:112,1,150,2|2
216,56,24444,2,0,B|144:96,1,75,2|0
80,80,24666,2,0,B|152:112,1,75,2|0
224,104,24888,2,0,B|192:104|152:128|144:184|152:216,1,150,8|0
288,280,25333,6,0,B|320:280|360:256|368:200|360:168,1,150,8|0
224,232,25777,2,0,B|168:288,2,75,2|0|2
160,192,26111,2,0,B|88:216,2,75,0|2|0
128,128,26444,2,0,B|40:128,2,75,2|0|8
256,48,26888,1,0
408,64,27111,6,0,B|408:128|408:128|384:152|384:152|384:208,1,150,8|0
104,320,27555,2,0,B|104:256|104:256|128:232|128:232|128:176,1,150,8|0
256,120,27999,6,0,B|260:128|260:128|252:128|252:128|264:136|264:136|248:136|248:136|264:144|264:144|248:144|248:144|264:152|264:152|248:152|248:152|264:160|264:160|248:160|248:160|264:168|264:168|248:168|248:168|264:176|264:176|248:176|248:176|264:184|264:184|248:184|248:184|264:192|264:192|248:192|248:192|264:200|264:200|248:200|248:200|264:208|264:208|248:208|248:208|264:216|264:216|248:216|248:216|264:224|264:224|248:224|248:224|264:232|264:232|248:232|248:232|264:240|264:240|248:240|248:240|264:248|264:248|248:248|248:248|264:256|264:256|248:256|248:256|264:264|264:264|248:264|248:264|256:272|256:272,1,600,2|2
388,340,28666,1,0
472,216,28888,2,0,B|428:236|392:224|372:192|376:148,1,150,8|0
252,60,29333,6,0,B|180:40,2,75,2|0|2
224,132,29666,2,0,B|144:132,2,75,0|2|0
252,204,29999,2,0,B|180:224,1,75,2|0
196,300,30222,6,0,B|228:316,3,37.5
268,316,30444,2,0,B|304:296,3,37.5
340,300,30666,2,0,B|372:320,3,37.5
408,316,30888,2,0,B|440:300,4,37.5
256,192,31222,12,8,32888
256,352,33111,5,0
296,208,33333,2,0,B|316:200|316:200|296:200|296:200|316:176|316:176|288:184|288:184|312:152|312:152|280:168|280:168|288:128|288:128|264:160|264:160|256:120|256:120|248:160|248:160|224:128|224:128|232:168|232:168|200:152|200:152|224:184|224:184|196:176|196:176|216:200|216:200|196:200|196:200|216:208,1,600,2|0
256,192,33888,12,8,34666
256,48,35111,5,2
232,120,35222,1,2
272,184,35333,1,2
240,256,35444,1,2
256,328,35555,1,8
256,192,35666,12,8,36444
256,48,36666,5,0
216,192,36888,2,0,B|196:200|196:200|216:200|216:200|196:224|196:224|224:216|224:216|200:248|200:248|232:232|232:232|224:272|224:272|248:240|248:240|256:280|256:280|264:240|264:240|288:272|288:272|280:232|280:232|312:248|312:248|288:216|288:216|316:224|316:224|296:200|296:200|316:200|316:200|296:192,1,600,2|0
256,192,37444,12,2,38888
256,148,39111,5,8
256,160,39222,1,8
256,168,39333,1,8
256,176,39444,1,8
256,184,39555,1,8
256,192,39666,1,8
256,200,39777,1,8
256,208,39888,1,8
256,216,39999,2,0,B|256:272|256:272|264:328|320:336,1,150,2|0
256,192,40444,12,8,41777
256,192,41999,5,0
292,336,42222,2,0,B|272:344|256:348|240:344|220:336,3,75,2|0|2|0
256,268,42666,2,0,B|328:244,3,75,8|0|8|0
256,268,43111,2,0,B|184:244,3,75,8|0|8|0
256,192,43555,2,0,B|256:40,1,150,8|0
256,192,43999,12,8,45333
296,232,45777,5,2
316,160,45888,1,2
256,116,45999,1,2
196,160,46111,1,2
216,232,46222,5,8
392,134,46444,1,0
347,298,46666,5,8
255,34,46888,1,0
120,136,47111,6,0,B|44:136,2,75,8|0|8
120,208,47444,2,0,B|45:208,2,75,0|8|0
176,264,47777,1,8
124,328,47888,2,0,B|48:328,1,75,0|8
260,260,48222,5,0
388,340,48444,2,0,B|416:312|416:312|432:272|420:236|384:220,1,150,8|0
243,30,48888,2,0,B|214:59|214:59|198:99|210:135|248:152,1,150,8|0
36,348,49333,2,0,B|51:351|51:351|39:335|39:335|63:343|63:343|51:327|51:327|75:335|75:335|63:319|63:319|87:327|87:327|75:311|75:311|99:319|99:319|87:303|87:303|111:311|111:311|99:295|99:295|123:303|123:303|111:287|111:287|135:295|135:295|123:279|123:279|147:287|147:287|135:271|135:271|159:279|159:279|147:263|147:263|171:271|171:271|159:255|159:255|183:263|183:263|171:247|171:247|195:255|195:255|183:239|183:239|203:235,1,600,0|8
52,244,49999,5,0
184,168,50222,2,0,B|220:156|220:156|268:172|288:212|276:252,1,150,8|0
252,92,50666,2,0,B|300:36,2,75,8|0|8
312,140,50999,2,0,B|380:92,2,75,0|8|0
348,208,51333,2,0,B|428:184,2,75,8|0|8
200,232,51777,1,0
60,176,51999,6,0,B|104:176|136:160|156:124|156:84,1,150,8|0
256,196,52444,2,0,B|256:344,1,150,2|2
256,196,52888,2,0,B|256:32,2,150,2|2|6
312,112,60444,6,0,B|360:104|360:104|392:116|408:148|400:188,1,150,8|0
200,272,60888,2,0,B|152:280|152:280|120:268|104:236|112:196,1,150,8|0
108,348,61333,2,0,B|64:336|44:312|24:276|28:232,1,150,8|0
48,164,61666,1,8
20,92,61777,2,0,B|36:58|36:58|68:32|112:32|140:56,1,150
256,152,62222,6,0,B|332:152,3,75,8|0|8|0
208,216,62666,6,0,B|128:216,3,75,8|0|8|0
256,276,63111,6,0,B|296:260|332:276|332:276|348:244|388:232,2,150
292,344,63666,2,0,B|208:360,1,75,8|0
72,324,63999,2,0,B|96:300|104:264|88:228|68:212|40:204,1,150,8|0
440,60,64444,2,0,B|416:84|408:120|424:152|444:172|472:180,1,150,8|0
340,108,64888,6,0,B|336:192|404:236,1,150,8|0
444,300,65222,1,8
368,300,65333,2,0,B|316:300|316:300|272:264|268:208,1,150
30,344,65777,6,0,B|72:348|108:336|124:304|124:256,1,150,8|0
68,208,66111,2,0,B|44:180|52:136,2,75,8|0|8
124,156,66444,2,0,B|136:116|176:96,1,75
272,160,66666,6,0,B|232:148|199:168,1,75,8|0
288,288,66888,2,0,B|288:249|248:229,1,75,8|0
149,336,67111,2,0,B|188:340|216:308,1,75,8|0
156,264,67333,6,0,B|164:228,4,37.5,2|2|2|2|8
272,160,67777,1,0
132,104,67999,2,0,B|164:56|212:44|264:56,1,150,8|0
380,280,68444,2,0,B|348:328|300:340|248:328,1,150,8|0
256,252,68777,1,8
320,208,68888,2,0,B|252:264|176:220,1,150,0|0
44,164,69333,6,0,B|28:88,2,75,2|0|2
108,204,69666,1,0
108,128,69777,2,0,B|108:40,2,75,2|0|2
108,204,70111,1,0
172,164,70222,2,0,B|200:88|292:84,2,150,8|0|2
176,240,70777,1,8
244,208,70888,6,0,B|294:179|342:193|382:233,2,150,0|8|0
376,140,71555,2,0,B|380:228|468:240,1,150,8|0
328,292,71999,2,0,B|316:328|280:344|248:340|224:320|216:288,1,150,8|0
256,224,72333,1,8
296,160,72444,2,0,B|288:130|264:110|232:106|196:122|184:158,1,150
152,304,72888,2,0,B|104:280|104:280|104:224|68:192,1,150,8|0
132,152,73222,2,0,B|116:112|68:112,1,75,8|0
188,104,73444,2,0,B|176:64|136:52,1,75,8|0
284,36,73777,2,0,B|312:116|408:100,1,150,2|2
492,344,74222,6,0,B|484:342|476:340|476:340|460:352|460:352|444:340|444:340|428:352|428:352|412:340|412:340|396:352|396:352|380:340|380:340|364:352|364:352|348:340|348:340|332:352|332:352|316:340|316:340|300:352|300:352|284:340|284:340|268:352|268:352|252:340|252:340|236:352|236:352|220:340|220:340|204:352|204:352|188:340|188:340|172:352|172:352|156:340|156:340|140:352|140:352|124:340|124:340|108:352|108:352|92:340|92:340|76:352|76:352|60:340|60:340|44:352|44:352|28:340|28:340|20:352|20:352|12:352,1,600,2|8
256,44,75999,6,0,B|232:92|232:112|280:264|280:296|256:344,1,300,2|2
256,192,76555,12,2,77333
256,192,77777,6,0,B|256:112,4,75
256,192,78333,12,2,79111
256,128,79333,5,0
256,276,79555,2,0,B|256:356,4,75
256,192,80111,12,2,80888
256,192,81333,6,0,B|256:272,4,75,2|0|0|0|0
256,192,81888,12,2,82666
256,192,82888,5,0
380,108,83111,1,2
324,56,83223,1,2
256,28,83334,1,2
188,56,83445,1,2
132,108,83556,1,8
256,192,83777,1,0
