osu file format v9

[General]
AudioFilename: Mad Machine.mp3
AudioLeadIn: 0
PreviewTime: 30222
Countdown: 0
SampleSet: Normal
StackLeniency: 0.7
Mode: 0
LetterboxInBreaks: 0

[Editor]
Bookmarks: 65777
DistanceSpacing: 1
BeatDivisor: 8
GridSize: 4

[Metadata]
Title:Mad Machine
Artist:Syrsa
Creator:Louis Cyphre
Version:Champion
Source:
Tags:Speedcore

[Difficulty]
HPDrainRate:5
CircleSize:4
OverallDifficulty:7
ApproachRate:9
SliderMultiplier:1.6
SliderTickRate:1

[Events]
//Background and Video events
0,0,"Syrsa Logo.jpg"
//Break Periods
2,53533,59844
//Storyboard Layer 0 (Background)
//Storyboard Layer 1 (Fail)
//Storyboard Layer 2 (Pass)
//Storyboard Layer 3 (Foreground)
//Storyboard Sound Samples
//Background Colour Transformations
3,100,101,124,86

[TimingPoints]
0,222.222222222222,4,1,1,75,1,0
31999,-100,4,1,1,60,0,0
32888,-100,4,1,1,75,0,0
33777,-100,4,1,1,60,0,0
34666,-100,4,1,1,75,0,0
35555,-100,4,1,1,60,0,0
36444,-100,4,1,1,75,0,0
37333,-100,4,1,1,60,0,0
38222,-100,4,1,1,50,0,0
39111,-100,4,1,1,75,0,0
40888,-100,4,1,1,60,0,0
41777,-100,4,1,1,75,0,0
43999,-100,4,1,1,50,0,0
44444,-100,4,1,1,75,0,0
44888,-100,4,1,1,50,0,0
45777,-100,4,1,1,75,0,0
74222,-100,4,1,1,45,0,0
74666,-100,4,1,1,75,0,0
75999,-100,4,1,1,20,0,0
76444,-100,4,1,1,35,0,0
77777,-100,4,1,1,100,0,0
78222,-100,4,1,1,35,0,0
79111,-100,4,1,1,50,0,0
79666,-100,4,1,1,100,0,0
79999,-100,4,1,1,35,0,0
80888,-100,4,1,1,50,0,0
81444,-100,4,1,1,100,0,0
81777,-100,4,1,1,50,0,0
83777,-100,4,1,1,100,0,0

[Colours]
Combo1 : 89,138,85
Combo2 : 1,254,108
Combo3 : 171,223,162
Combo4 : 141,196,60
SliderBorder : 200,200,200

[HitObjects]
456,192,3333,1,2
432,208,3388,1,2
408,224,3444,1,2
384,240,3499,1,2
360,256,3555,2,0,B|264:240|272:136,1,160,8|0
120,80,3999,6,0,B|128:176|48:208,1,160,8|0
200,264,4444,2,0,B|232:352|328:328,1,160,8|0
472,344,4777,1,0
408,296,4888,2,0,B|384:256|392:208|424:176|464:168,1,160,8|0
304,192,5333,6,0,B|208:184|224:80,1,160,8|0
152,40,5666,2,0,B|128:128,1,80,8|0
32,232,5888,2,0,B|53:154,1,80,8|0
128,192,6111,1,0
32,312,6222,2,0,B|112:360|176:288,2,160,8|0|0
32,232,6777,1,8
32,152,6888,2,0,B|88:96,1,80
279,104,7111,6,0,B|184:128|152:40,1,160,8|0
232,279,7555,2,0,B|328:256|360:344,1,160,8|0
480,240,7999,2,0,B|440:208|440:208|448:152|400:112,1,160,8|0
360,184,8333,1,0
464,64,8444,2,0,B|448:28|400:4|352:28|336:64,1,160,8|0
232,184,8888,6,0,B|160:232|80:208,1,160,8|0
120,136,9222,2,0,B|48:96,1,80,8|0
240,264,9444,1,8
200,336,9555,2,0,B|256:336|256:336|312:320|312:256,1,160,0|8
456,192,9999,1,0
380,52,10222,5,2
332,116,10333,1,2
256,88,10444,1,2
240,104,10499,1,2
216,112,10555,1,2
192,104,10611,1,2
176,88,10666,6,0,B|224:160|184:240,1,160,8|0
280,352,11111,2,0,B|232:280|272:200,1,160,8|0
424,168,11555,2,0,B|384:184|360:216|360:264|392:304,1,160,8|0
448,248,11888,1,0
400,96,11999,2,0,B|312:128|296:216,1,160,8|0
176,104,12444,6,0,B|144:152|144:152|88:160|72:216,1,160,8|0
152,232,12777,2,0,B|168:272|208:288,1,80,8|0
96,88,12999,2,0,B|72:48|24:48,1,80,8|0
232,176,13333,2,0,B|280:144|296:96|272:32,1,160,8|2
432,64,13777,1,2
480,128,13888,1,8
400,144,13999,6,0,B|424:232|384:304,2,160,0|8|0
112,240,14666,2,0,B|88:152|128:80,1,160,8|0
64,320,15111,2,0,B|112:248|208:264,1,160,8|0
264,320,15444,1,0
280,240,15555,2,0,B|352:200|344:104,1,160,8|0
65,72,15999,2,0,B|64:112|85:156|136:160|176:144,1,160,8|0
144,72,16333,2,0,B|232:48,1,80,8|0
96,224,16555,2,0,B|53:218|31:180,1,80,8|0
104,320,16888,5,8
168,264,16999,1,2
168,184,17111,2,0,B|176:280|277:270,1,160,2|0
296,272,17361,2,0,B|312:288,7,20
328,304,17583,2,0,B|352:328,6,20
344,264,17777,6,0,B|344:224|376:184|432:184|464:208,1,160,8|0
168,120,18222,2,0,B|168:160|136:200|80:200|48:176,1,160,8|0
200,24,18666,6,0,B|272:56,1,80,2|0
416,96,18888,2,0,B|344:128,1,80,2|0
168,120,19111,2,0,B|240:152,1,80,2|0
392,200,19333,2,0,B|312:232,1,80,2|0
328,312,19555,6,0,B|304:224|200:224,1,160,8|0
80,128,19999,2,0,B|32:200|80:280,1,160,8|0
432,278,20444,2,0,B|480:200|432:128,1,160,8|0
408,48,20777,1,2
344,96,20888,2,0,B|320:104,7,20
304,112,21111,2,0,B|272:128,7,20
272,128,21333,6,0,B|320:136|352:168|344:224|320:248,1,160,8|0
152,320,21777,2,0,B|104:312|72:280|80:224|104:200,1,160,8|0
48,48,22222,6,0,B|96:48|120:80,1,80,2|0
272,128,22444,2,0,B|224:128|200:96,1,80,2|0
344,80,22666,2,0,B|368:120|352:160,1,80,2|0
272,128,22888,1,2
416,32,22999,1,0
416,208,23111,2,0,B|392:296|296:296,1,160,8|0
96,208,23555,2,0,B|120:296|216:296,1,160,8|0
256,32,23999,2,0,B|240:56|240:104|272:120|272:168|256:192,1,160,8|0
204,340,24444,5,2
258,187,24555,1,2
308,340,24666,1,2
172,248,24777,1,2
340,248,24888,2,0,B|392:232|392:232|408:176|468:168,1,160,8|0
172,248,25333,2,0,B|120:232|120:232|104:176|44:168,1,160,8|0
148,48,25777,6,0,B|184:124,1,80,2|0
256,84,25999,1,2
364,48,26111,2,0,B|328:124,1,80,0|2
340,200,26333,2,0,B|384:196|404:152,1,80,0|2
172,200,26555,2,0,B|128:196|108:152,1,80,0|8
256,224,26888,1,2
56,208,27111,6,0,B|80:256|144:272|144:272|168:320,1,160,8|0
456,208,27555,2,0,B|432:256|368:272|368:272|344:320,1,160,8|2
256,304,27888,1,0
256,224,27999,6,0,B|256:200,7,20
256,184,28222,2,0,B|256:160,7,20
256,144,28444,2,0,B|312:72|400:104,1,160,8|0
472,288,28888,2,0,B|408:296|368:256|376:192,1,160,8|0
256,304,29333,6,0,B|184:272,1,80,2|0
48,248,29555,2,0,B|128:216,1,80,2|0
88,144,29777,1,2
48,72,29888,1,0
120,32,29999,1,2
160,104,30111,1,0
232,64,30222,5,2
254,56,30277,1,2
278,54,30333,1,2
301,58,30388,1,2
321,70,30444,1,2
335,88,30499,1,2
344,110,30555,1,2
341,134,30611,1,2
335,157,30666,1,2
333,181,30722,1,2
341,203,30777,1,2
357,220,30833,1,2
376,232,30888,1,2
389,251,30944,1,2
395,273,30999,1,2
389,296,31055,1,2
370,311,31111,6,0,B|349:328,15,20
343,329,31555,2,0,B|319:337,15,20
305,328,31999,5,8
283,316,32055,1,8
265,299,32111,1,8
252,278,32166,1,8
243,255,32222,1,8
226,238,32277,1,8
204,227,32333,1,8
181,220,32388,1,8
156,219,32444,1,8
132,223,32499,1,8
108,229,32555,1,8
83,228,32611,1,8
63,214,32666,1,8
55,191,32722,1,8
55,167,32777,1,8
65,145,32833,1,8
79,126,32888,6,0,B|104:88|144:88,1,80,4|2
213,44,33111,1,2
277,90,33222,1,2
351,60,33333,2,0,B|336:49,15,20
368,77,33777,5,8
381,96,33833,1,8
391,117,33888,1,8
396,140,33944,1,8
397,163,33999,1,8
394,187,34055,1,8
385,209,34111,1,8
371,228,34166,1,8
353,244,34222,1,8
330,252,34277,1,8
305,254,34333,1,8
281,249,34388,1,8
256,247,34444,1,8
232,251,34499,1,8
209,260,34555,1,8
187,271,34611,1,8
168,286,34666,2,0,B|200:232|184:180|120:160,1,160,8|2
56,312,35111,5,2
32,232,35222,1,0
56,152,35333,1,2
32,72,35444,1,0
112,88,35555,5,8
136,80,35611,1,8
160,72,35666,1,8
184,80,35722,1,8
208,88,35777,1,8
232,80,35833,1,8
256,72,35888,1,8
280,80,35944,1,8
304,88,35999,1,8
328,80,36055,1,8
352,72,36111,1,8
376,80,36166,1,8
400,88,36222,1,8
424,80,36277,1,8
448,72,36333,1,8
472,80,36388,1,8
496,88,36444,6,0,B|440:104|416:168|448:216,1,160,0|2
359,300,36888,6,0,B|375:314,15,20
336,296,37333,1,0
312,293,37388,1,0
290,280,37444,1,0
274,262,37499,1,0
261,241,37555,1,0
253,218,37611,1,0
248,194,37666,1,0
243,170,37722,1,0
230,149,37777,1,0
212,132,37833,1,0
191,119,37888,1,0
167,111,37944,1,0
143,113,37999,1,0
120,121,38055,1,0
100,135,38111,1,0
86,154,38166,1,0
78,176,38222,5,0
75,199,38277,1,0
76,223,38333,1,0
85,244,38388,1,0
98,263,38444,1,0
115,279,38499,1,0
136,290,38555,1,0
159,296,38611,1,0
180,305,38666,2,0,B|192:331,15,20
208,328,39111,6,0,B|247:306|303:314,1,80,8|8
360,336,39333,1,8
344,256,39444,2,0,B|376:232|424:232,2,80,8|8|8
300,184,39777,2,0,B|323:151|369:137,1,80
232,144,39999,2,0,B|244:104|272:76|312:60|360:56,1,160,8|2
192,40,40444,6,0,B|160:56,7,20
160,56,40666,2,0,B|128:72,7,20
128,72,40888,5,2
107,85,40944,1,2
92,103,40999,1,2
80,124,41055,1,2
74,147,41111,1,2
76,170,41166,1,2
86,191,41222,1,2
103,207,41277,1,2
123,219,41333,6,0,B|145:232,7,20
151,234,41555,2,0,B|185:250,7,20
182,249,41777,2,0,B|189:204|230:176|273:177|306:203,1,160,8|0
408,328,42222,5,2
448,256,42333,1,2
408,184,42444,1,2
448,112,42555,1,2
408,40,42666,6,0,B|376:72|328:64,1,80,8|0
104,40,42888,2,0,B|136:72|184:64,1,80,8|0
408,120,43111,2,0,B|376:152|328:144,1,80,8|0
104,120,43333,2,0,B|136:152|184:144,1,80,8|0
256,336,43555,2,0,B|240:296|232:256|280:256|272:216|256:184,1,160,8|0
256,24,43999,5,8
256,32,44055,1,8
256,40,44111,1,8
256,48,44166,1,8
256,56,44222,1,8
256,64,44277,1,8
256,72,44333,1,8
256,80,44388,1,8
256,96,44444,6,0,B|288:124,7,40,2|2|2|2|2|2|2|2
284,164,44888,6,0,B|260:188,15,20
256,200,45333,6,0,B|256:240|256:240|240:256|240:256|272:256|272:256|256:272|256:272|256:320,1,160,8|2
408,352,45777,5,2
464,288,45888,1,2
424,216,45999,1,2
464,144,46111,1,2
408,80,46222,6,0,B|344:136|256:96,1,160,8|0
40,344,46666,2,0,B|65:253|149:240,1,160,8|0
136,80,47111,2,0,B|59:57,2,80,2|0|2
160,160,47444,1,0
240,136,47555,2,0,B|288:216,2,80,2|0|2
216,56,47888,1,0
296,80,47999,6,0,B|328:160|424:160,1,160,8|0
216,304,48444,2,0,B|184:224|88:224,1,160,8|0
248,216,48888,2,0,B|264:264|312:264,1,80,2|0
441,335,49111,2,0,B|425:287|384:288,1,80,2|0
368,208,49333,5,2
392,200,49388,1,2
416,184,49444,1,2
432,160,49499,1,2
440,136,49555,1,2
440,112,49611,1,2
432,88,49666,1,2
416,72,49722,1,2
392,56,49777,6,0,B|336:128|248:96,1,160,8|0
33,80,50222,2,0,B|89:8|176:40,1,160,8|0
120,120,50666,6,0,B|64:176,1,80,2|0
80,272,50888,2,0,B|136:215,1,80,2|0
272,128,51111,2,0,B|216:184,1,80,2|0
240,280,51333,2,0,B|296:223,1,80,2|0
352,160,51555,6,0,B|448:160|464:64,1,160,8|0
160,160,51999,2,0,B|64:160|48:64,1,160,8|0
256,48,52444,2,0,B|256:72,8,20
256,208,52888,5,2
172,344,53111,1,2
332,344,53333,1,4
488,192,60444,6,0,B|464:176|440:176|408:192|384:208|360:208|336:192,1,160
24,192,60888,2,0,B|48:176|72:176|104:192|128:208|152:208|176:192,1,160,8|0
296,264,61333,6,0,B|312:312|256:344|200:312|216:264,1,160,8|0
256,192,61666,1,0
216,120,61777,2,0,B|200:72|256:40|312:72|296:120,1,160,8|0
456,80,62222,6,0,B|432:160,1,80,2|0
320,224,62444,2,0,B|352:150,1,80,2|0
496,200,62666,2,0,B|463:273,1,80,2|0
360,352,62888,2,0,B|387:276,1,80,2|0
320,224,63111,6,0,B|256:280|168:248,2,160,2|2|2
272,160,63666,1,8
296,80,63777,2,0,B|240:64|184:104|192:168,2,160,0|8|0
112,192,64444,6,0,B|152:176|200:184|224:224|224:264,1,160,8|0
368,336,64888,2,0,B|368:296|394:250|450:253|480:272,1,160,8|0
448,344,65222,1,0
338,224,65333,2,0,B|353:200|395:176|444:175|484:189,1,160,8|0
174,160,65777,6,0,B|159:184|117:208|68:209|28:195,1,160,8|0
24,272,66111,2,0,B|8:360,1,80,8|0
112,272,66333,2,0,B|120:352,1,80,8|0
192,248,66555,1,0
216,320,66666,6,0,B|296:288,1,80,2|0
448,272,66888,2,0,B|376:312,1,80,2|0
352,232,67111,2,0,B|328:192|352:144|352:144|304:96,1,160,8|2
288,80,67388,1,2
264,72,67444,1,2
240,72,67499,1,2
216,80,67555,6,0,B|176:160|80:144,1,160,8|0
40,64,67999,2,0,B|88:144|32:216,1,160,8|0
472,320,68444,6,0,B|424:240|480:168,1,160,8|0
472,88,68777,1,0
296,232,68888,2,0,B|318:141|409:130,1,160,8|0
248,152,69333,6,0,B|160:152,2,80,2|0|2
376,232,69666,1,0
296,88,69777,2,0,B|256:16,2,80,2|0|2
376,232,70111,1,0
216,232,70222,6,0,B|176:224|128:232|104:280|104:320,2,160,8|2|2
192,312,70777,1,8
80,200,70888,2,0,B|96:168|96:120|72:80|24:64,2,160,0|8|0
432,200,71555,6,0,B|416:168|416:120|440:80|488:64,1,160,8|0
192,312,71999,2,0,B|208:276|256:252|304:276|320:312,1,160,8|0
256,360,72333,5,0
184,220,72444,2,0,B|212:192|256:180|304:192|328:220,1,160,8|0
328,60,72888,6,0,B|303:88|255:100|211:88|183:60,1,160,8|0
112,100,73222,2,0,B|132:136|176:140,1,80,8|0
400,100,73444,2,0,B|380:136|336:140,1,80,8|0
184,220,73777,6,0,B|216:248|256:260|296:248|328:220,1,160,2|2
172,312,74222,5,8
196,312,74277,1,8
220,320,74333,1,8
240,332,74388,1,8
256,352,74444,1,8
272,332,74499,1,8
292,320,74554,1,8
316,312,74610,1,8
340,312,74665,1,8
256,176,74888,5,0
296,48,75777,5,2
216,48,75888,1,2
256,112,75999,2,0,B|256:144,15,20
256,168,76444,6,0,B|256:200,15,20
256,224,76888,2,0,B|256:252,15,20
256,280,77333,6,0,B|256:312,16,20
324,324,77888,1,2
376,264,77999,1,2
436,212,78111,1,2
460,136,78222,6,0,B|440:116,15,20
420,92,78666,2,0,B|400:72,16,20
356,28,79222,1,0
324,104,79333,2,0,B|336:172|336:172|380:184|396:236,1,160
320,256,79666,5,2
256,304,79777,1,2
192,256,79888,1,2
140,196,79999,6,0,B|112:184,15,20
88,172,80444,2,0,B|68:148,15,20
72,124,80888,6,0,B|72:100,16,20
144,84,81444,1,2
220,108,81555,1,2
296,80,81666,1,2
372,112,81777,6,0,B|392:132,15,20
416,152,82222,2,0,B|436:168,16,20
396,232,82777,1,0
320,256,82888,2,0,B|300:216|256:200|212:216|192:256,1,160
136,200,83222,6,0,B|112:120,1,80,2|0
192,136,83444,2,0,B|196:52,1,80,2|8
352,96,83777,1,2
