osu file format v9

[General]
AudioFilename: Mad Machine.mp3
AudioLeadIn: 0
PreviewTime: 30222
Countdown: 0
SampleSet: Normal
StackLeniency: 0.7
Mode: 0
LetterboxInBreaks: 0

[Editor]
Bookmarks: 25555,47333,65777
DistanceSpacing: 1
BeatDivisor: 1
GridSize: 4

[Metadata]
Title:Mad Machine
Artist:Syrsa
Creator:Louis Cyphre
Version:Beginner
Source:
Tags:Speedcore

[Difficulty]
HPDrainRate:2
CircleSize:3
OverallDifficulty:2
ApproachRate:3
SliderMultiplier:0.500000005960464
SliderTickRate:1

[Events]
//Background and Video events
0,0,"Syrsa Logo.jpg"
//Break Periods
2,53532,59004
//Storyboard Layer 0 (Background)
//Storyboard Layer 1 (Fail)
//Storyboard Layer 2 (Pass)
//Storyboard Layer 3 (Foreground)
//Storyboard Sound Samples
//Background Colour Transformations
3,100,101,124,86

[TimingPoints]
0,222.222222222222,4,1,1,75,1,0
31999,-100,4,1,1,60,0,0
32888,-100,4,1,1,75,0,0
33777,-100,4,1,1,60,0,0
34666,-100,4,1,1,75,0,0
35555,-100,4,1,1,60,0,0
36444,-100,4,1,1,75,0,0
37333,-100,4,1,1,60,0,0
38222,-100,4,1,1,50,0,0
39111,-100,4,1,1,75,0,0
40888,-100,4,1,1,60,0,0
41777,-100,4,1,1,75,0,0
43999,-100,4,1,1,50,0,0
44444,-100,4,1,1,75,0,0
44888,-100,4,1,1,50,0,0
45777,-100,4,1,1,75,0,0
75555,-100,4,1,1,20,0,0
76444,-100,4,1,1,60,0,0

[Colours]
Combo1 : 89,138,85
Combo2 : 1,254,108
Combo3 : 171,223,162
Combo4 : 141,196,60
SliderBorder : 200,200,200

[HitObjects]
208,192,3555,2,0,B|176:144|208:96,1,100.000001192093,8|8
305,98,4444,2,0,B|335:143|303:191,1,100.000001192093,8|8
352,280,5333,2,0,B|304:304|256:312|208:304|160:280,1,200.000002384186,8|8
304,136,7111,6,0,B|328:80|256:28|184:80|208:136,1,200.000002384186,8|8
256,224,8444,1,0
176,280,8888,2,0,B|192:328|256:343|320:328|336:280,1,200.000002384186,8|8
345,78,10666,6,0,B|447:78,2,100.000001192093,8|8|8
256,128,11999,1,0
167,78,12444,2,0,B|65:78,2,100.000001192093,8|8|8
104,264,14222,6,0,B|152:272|152:272|192:304,1,100.000001192093,8|8
208,208,15111,2,0,B|256:184|304:208,1,100.000001192093,8|8
319,304,15999,2,0,B|360:272|360:272|408:264,1,100.000001192093,8|8
336,192,16888,2,0,B|272:192|256:144|256:144|240:192|176:192,1,200.000002384186,0|8
56,352,18666,6,0,B|104:352|80:352|128:352|128:352|152:344|176:312|152:280|128:272|128:272|80:272|80:272|56:264|36:232|56:200|80:192|80:192|152:192,1,400.000004768371,2|8
256,24,21333,1,8
361,192,22222,2,0,B|432:192|432:192|456:200|476:232|456:264|432:272|432:272|384:272|384:272|360:280|336:312|360:344|384:352|384:352|432:352|408:352|456:352,1,400.000004768371,2|8
256,348,24888,5,8
208,152,25777,2,0,B|180:144|168:128|156:96|160:60|176:28|208:4|256:-3|304:4|336:28|352:60|356:96|344:128|332:144|304:152,1,400.000004768371,2|2
256,348,28444,6,0,B|256:249,1,100.000001192093,8|0
176,188,29333,2,0,B|200:140|256:116|312:140|336:188,1,200.000002384186,2|0
172,304,31111,6,0,B|56:304,2,100.000001192093,2|0|8
256,248,32444,1,8
340,304,32888,2,0,B|456:304,2,100.000001192093,8|0|2
256,192,33999,12,2,37333
256,192,38222,6,0,B|256:92,2,100.000001192093,2|0|8
180,256,39555,1,8
256,324,39999,1,8
332,256,40444,1,2
256,192,40888,12,2,44444
256,192,44666,12,2,46222
348,348,47111,6,0,B|288:348|256:316|256:316|224:348|164:348,2,200.000002384186,8|8|2
336,248,49333,1,0
256,188,49777,2,0,B|256:80,2,100.000001192093,8|8|8
176,248,51111,1,2
92,300,51555,2,0,B|56:264|56:264|56:116,1,200.000002384186,8|2
140,60,52888,2,0,B|140:168,1,100.000001192093,8|4
344,240,60444,6,0,B|376:240|376:240|408:240|440:192|408:144|372:144|372:144|344:144,1,200.000002384186,8|8
256,192,61777,1,8
167,144,62222,2,0,B|140:144|140:144|104:144|72:192|104:240|136:240|136:240|168:240,1,200.000002384186,8|0
256,292,63555,1,2
356,292,63999,6,0,B|356:248|356:248|356:212|324:180|324:140|324:140|324:96,1,200.000002384186,8|8
256,24,65333,1,0
188,96,65777,2,0,B|188:140|188:140|188:180|156:212|156:248|156:248|156:292,1,200.000002384186,8|8
256,312,67111,6,0,B|256:212,2,100.000001192093,8|8|8
356,312,68444,2,0,B|356:208,1,100.000001192093,8|8
384,116,69333,2,0,B|368:64|308:40|248:64|232:116,1,200.000002384186,8|2
120,284,71111,6,0,B|192:284|232:300|256:333|256:333|280:300|320:284|392:284,1,300.000003576278,8|2
328,208,72888,2,0,B|316:152|256:128|196:152|184:208,2,200.000002384186,8|2|8
468,352,75555,6,0,B|468:152,1,200.000002384186,2|2
368,168,76888,1,2
336,80,77333,6,0,B|311:31|255:7|199:31|175:79,2,200.000002384186,8|2|8
256,140,79555,1,0
336,200,79999,6,0,B|312:248|256:272|200:248|176:200,2,200.000002384186,8|8|2
428,164,82222,1,2
404,260,82666,2,0,B|332:332,2,100.000001192093,8|2|4
