osu file format v12

[General]
AudioFilename: moe.mp3
AudioLeadIn: 0
PreviewTime: 145816
Countdown: 0
SampleSet: Soft
StackLeniency: 0.7
Mode: 0
LetterboxInBreaks: 0

[Editor]
DistanceSpacing: 1.1
BeatDivisor: 4
GridSize: 4

[Metadata]
Title:We Are Star Dust
TitleUnicode:We Are Star Dust
Artist:Symphony of Science
ArtistUnicode:Symphony of Science
Creator:Lally
Version:Normal
Source:
Tags:Neil deGrasse Tyson Richard Feynman Lawrence Krauss Techno
BeatmapID:240524
BeatmapSetID:88197

[Difficulty]
HPDrainRate:3
CircleSize:3
OverallDifficulty:3
ApproachRate:5
SliderMultiplier:1.6
SliderTickRate:1

[Events]
//Background and Video events
0,0,"stars.jpg",0,0
//Break Periods
2,57978,67014
2,78850,82668
2,157119,160937
//Storyboard Layer 0 (Background)
//Storyboard Layer 1 (Fail)
//Storyboard Layer 2 (Pass)
//Storyboard Layer 3 (Foreground)
//Storyboard Sound Samples
//Background Colour Transformations
3,100,163,162,255

[TimingPoints]
5599,652.244809218393,4,2,1,100,1,0
16034,-100,4,2,1,30,0,0
16197,-100,4,2,1,50,0,0
26470,-100,4,2,1,60,0,1
26633,-100,4,2,1,60,0,0
36906,-100,4,2,1,70,0,0
37069,-100,4,2,1,60,0,0
57778,-100,4,2,1,50,0,0
68214,-100,4,2,1,70,0,1
68377,-100,4,2,1,60,0,0
78650,-100,4,2,1,50,0,0
83868,-100,4,2,1,60,0,0
112893,-100,4,2,1,50,0,0
115176,-100,4,2,1,70,0,1
115339,-100,4,2,1,60,0,0
125612,-100,4,2,1,70,0,1
125775,-100,4,2,1,70,0,0
145831,-100,4,2,1,50,0,0
146483,-100,4,2,1,70,0,1
146646,-100,4,2,1,70,0,0
156919,-100,4,2,1,50,0,0
162137,-100,4,2,1,60,0,0
170033,697.644809218394,4,2,1,50,1,0
171442,748.129675810474,4,2,1,40,1,0
172190,-100,4,2,1,30,0,0
172938,879.769675810474,4,2,1,30,1,0
175137,-100,4,2,1,15,0,0
177336,-100,4,2,1,5,0,0

[Colours]
Combo1 : 17,153,153
Combo2 : 16,40,97
Combo3 : 240,191,79
Combo4 : 102,6,35

[HitObjects]
104,288,16034,2,0,P|80:232|144:132,1,160,4|8,0:0|0:0,0:0:0:0:
192,96,17013,1,0,0:0:0:0:
256,156,17339,2,0,L|256:248,2,80,2|0|8,0:0|0:0|0:0,0:0:0:0:
320,96,18317,1,0,0:0:0:0:
393,146,18643,6,0,P|432:232|408:288,1,160,2|8,0:0|0:0,0:0:0:0:
336,340,19622,2,0,P|276:308|268:264,1,80,2|0,0:0|0:0,0:0:0:0:
96,280,20600,2,0,L|44:308,2,40,8|0|8,0:0|0:0|0:0,0:0:0:0:
164,224,21252,6,0,P|204:160|208:72,2,160,10|8|2,0:0|0:0|0:0,0:0:0:0:
80,196,22883,2,0,P|52:156|20:128,2,80,0|8|0,0:0|0:0|0:0,0:0:0:0:
96,284,23861,2,0,P|108:340|216:336,1,160,2|8,0:0|0:0,0:0:0:0:
212,180,25166,2,0,L|176:144,2,40,2|0|0,0:0|0:0|0:0,0:0:0:0:
300,180,25818,2,0,L|336:144,2,40,0|8|4,1:0|3:0|3:0,0:0:0:0:
256,256,26470,6,0,P|276:320|372:324,1,160,4|8,0:0|0:0,0:0:0:0:
424,272,27449,1,0,0:0:0:0:
452,188,27775,2,0,P|436:108|336:88,1,160,2|8,0:0|0:0,0:0:0:0:
364,172,28753,1,0,0:0:0:0:
364,172,29079,6,0,P|292:196|260:272,1,160,4|8,0:0|0:0,0:0:0:0:
232,352,30058,1,0,0:0:0:0:
172,288,30384,2,0,P|116:228|20:248,1,160,2|8,0:0|0:0,0:0:0:0:
84,312,31362,1,0,0:0:0:0:
84,312,31688,6,0,L|160:152,1,160,0|8,1:0|0:0,0:0:0:0:
220,112,32667,2,0,P|184:84|128:88,2,80,0|2|0,0:0|0:0|0:0,0:0:0:0:
256,192,33645,1,8,0:0:0:0:
416,264,34297,6,0,P|432:320|340:312,2,160,2|8|2,0:0|0:0|0:0,0:0:0:0:
356,200,35928,2,0,L|396:148,2,40,0|0|8,0:0|1:0|3:0,0:0:0:0:
280,248,36580,1,4,3:0:0:0:
216,308,36906,6,0,P|160:336|72:288,1,160,4|8,0:0|0:0,0:0:0:0:
152,248,37885,2,0,P|200:180|204:152,1,80,0|2,0:0|0:0,0:0:0:0:
256,116,38537,2,0,L|256:52,2,40,0|0|8,0:0|0:0|0:0,0:0:0:0:
320,280,39515,6,0,P|380:312|412:224,2,160,2|8|2,0:0|0:0|0:0,0:0:0:0:
256,116,41472,1,8,0:0:0:0:
192,280,42124,2,0,P|132:312|100:224,1,160,4|8,0:0|0:0,0:0:0:0:
80,160,43103,1,0,0:0:0:0:
136,92,43429,2,0,P|208:52|308:44,1,160,2|8,0:0|0:0,0:0:0:0:
168,176,44733,6,0,P|247:153|345:171,1,160,2|8,0:0|0:0,0:0:0:0:
412,168,45712,1,0,0:0:0:0:
444,248,46038,2,0,P|456:300|368:328,2,160,2|8|2,0:0|0:0|0:0,0:0:0:0:
372,196,47668,5,0,0:0:0:0:
288,172,47994,2,0,P|240:168|172:252,1,160,8|2,0:0|0:0,0:0:0:0:
48,120,49299,2,0,P|96:124|164:40,1,160,8|4,0:0|0:0,0:0:0:0:
76,36,50277,1,0,0:0:0:0:
76,36,50603,6,0,P|120:104|132:192,1,160,8|2,0:0|0:0,0:0:0:0:
180,256,51582,2,0,L|256:332,1,80,0|8,0:0|0:0,0:0:0:0:
320,336,52234,1,0,0:0:0:0:
388,280,52560,6,0,P|416:232|368:136,1,160,2|8,0:0|0:0,0:0:0:0:
292,152,53538,1,0,0:0:0:0:
232,88,53865,2,0,P|196:52|92:88,1,160,2|8,0:0|0:0,0:0:0:0:
256,192,55169,12,4,57778,0:0:0:0:
352,320,68214,38,0,P|300:260|348:164,1,160,4|8,0:0|0:0,0:0:0:0:
388,240,69192,1,0,0:0:0:0:
420,156,69518,2,0,P|384:96|300:84,1,160,2|8,0:0|0:0,0:0:0:0:
228,132,70497,1,0,0:0:0:0:
168,196,70823,2,0,P|120:232|20:200,2,160,2|8|2,0:0|0:0|0:0,0:0:0:0:
256,348,72780,38,0,P|328:352|424:296,1,160,8|4,0:0|0:0,0:0:0:0:
436,232,73758,1,8,0:0:0:0:
388,156,74084,1,8,0:0:0:0:
308,120,74410,1,8,0:0:0:0:
256,192,74736,2,0,L|256:292,2,80,8|8|8,0:0|0:0|0:0,0:0:0:0:
204,120,75715,1,8,0:0:0:0:
256,192,76041,12,4,78650,0:0:0:0:
400,224,83868,38,0,B|360:296|264:308,1,160,2|8,0:0|0:0,0:0:0:0:
184,324,84846,1,0,0:0:0:0:
128,256,85172,2,0,P|116:196|28:160,1,160,2|8,0:0|0:0,0:0:0:0:
44,248,86151,1,0,0:0:0:0:
44,248,86477,38,0,P|104:176|144:96,2,160,2|8|2,0:0|0:0|0:0,0:0:0:0:
188,348,88434,1,8,0:0:0:0:
276,332,88760,1,8,0:0:0:0:
220,264,89086,2,0,P|284:200|376:200,1,160,2|8,0:0|0:0,0:0:0:0:
256,192,90390,12,2,93652,0:0:0:0:
136,272,94304,38,0,L|60:320,2,80,4|0|8,0:0|0:0|0:0,0:0:0:0:
312,268,95608,2,0,L|388:220,2,80,2|0|8,0:0|0:0|0:0,0:0:0:0:
156,176,96913,6,0,L|80:224,2,80,4|0|8,0:0|0:0|0:0,0:0:0:0:
304,80,98217,2,0,P|368:60|304:192,2,320,2|4|2,0:0|0:0|0:0,0:0:0:0:
252,152,101152,1,0,0:0:0:0:
176,104,101478,1,8,0:0:0:0:
116,168,101805,1,0,0:0:0:0:
256,192,102131,12,2,104087,0:0:0:0:
336,104,104740,6,0,B|308:84|256:92|256:92|240:52|176:28,1,160,4|8,0:0|0:0,0:0:0:0:
172,124,105718,2,0,P|160:184|128:216,1,80,0|2,0:0|0:0,0:0:0:0:
84,256,106370,1,0,0:0:0:0:
140,324,106696,2,0,P|176:344|272:272,1,160,8|2,0:0|0:0,0:0:0:0:
376,148,108001,6,0,P|408:97|435:83,2,80,8|0|2,0:0|0:0|0:0,0:0:0:0:
324,220,108979,1,0,0:0:0:0:
256,276,109305,2,0,L|256:368,2,80,8|0|4,0:0|0:0|0:0,0:0:0:0:
188,220,110284,5,0,0:0:0:0:
144,144,110610,2,0,P|96:108|87:91,2,80,8|0|2,0:0|0:0|0:0,0:0:0:0:
212,84,111588,1,0,0:0:0:0:
300,84,111914,1,8,0:0:0:0:
256,192,112567,12,2,114523,0:0:0:0:
88,112,115176,6,0,P|100:56|200:72,1,160,4|8,0:0|0:0,0:0:0:0:
256,112,116154,1,0,0:0:0:0:
323,54,116480,2,0,P|411:55|420:112,1,160,2|8,0:0|0:0,0:0:0:0:
392,192,117458,1,0,0:0:0:0:
344,268,117785,6,0,P|316:316|296:344,1,80,2|0,0:0|0:0,0:0:0:0:
209,335,118437,2,0,P|196:316|168:264,1,80,8|0,0:0|0:0,0:0:0:0:
104,208,119089,2,0,P|60:240|48:348,1,160,2|8,0:0|0:0,0:0:0:0:
212,280,120394,6,0,P|272:248|356:292,1,160,2|8,0:0|0:0,0:0:0:0:
408,348,121372,1,0,0:0:0:0:
440,268,121698,2,0,P|388:192|308:164,1,160,2|8,0:0|0:0,0:0:0:0:
256,192,123003,12,0,124959,0:0:0:0:
72,220,125612,6,0,P|88:128|168:100,1,160,4|8,0:0|0:0,0:0:0:0:
156,188,126590,1,0,0:0:0:0:
212,252,126916,2,0,P|188:312|80:304,2,160,2|8|2,0:0|0:0|0:0,0:0:0:0:
264,180,128547,1,0,0:0:0:0:
316,112,128873,2,0,P|372:56|468:100,1,160,8|2,0:0|0:0,0:0:0:0:
352,220,130177,1,8,0:0:0:0:
204,328,130830,6,0,B|160:320|120:328|120:328|88:300|36:276,2,160,4|8|2,0:0|0:0|0:0,0:0:0:0:
256,256,132460,1,0,0:0:0:0:
308,328,132786,2,0,B|352:320|392:328|392:328|424:300|476:276,2,160,8|2|8,0:0|0:0|0:0,0:0:0:0:
256,256,134417,1,0,0:0:0:0:
176,224,134743,6,0,P|128:184|124:80,1,160,2|8,0:0|0:0,0:0:0:0:
192,44,135721,1,0,0:0:0:0:
256,104,136047,2,0,L|256:192,2,80,4|0|8,0:0|0:0|0:0,0:0:0:0:
320,44,137026,1,0,0:0:0:0:
393,91,137352,2,0,P|384:184|336:224,1,160,2|8,0:0|0:0,0:0:0:0:
264,276,138330,1,0,0:0:0:0:
332,332,138656,6,0,P|396:360|480:296,2,160,2|8|2,0:0|0:0|0:0,0:0:0:0:
176,252,140613,2,0,P|140:224|124:176,1,80,8|0,0:0|0:0,0:0:0:0:
120,104,141265,2,0,P|152:64|264:80,1,160,4|8,0:0|0:0,0:0:0:0:
312,136,142244,1,0,0:0:0:0:
372,200,142570,2,0,P|420:152|432:124,2,80,2|0|8,0:0|0:0|0:0,0:0:0:0:
256,192,143874,12,2,145831,0:0:0:0:
200,312,146483,6,0,P|124:312|84:228,1,160,4|8,0:0|0:0,0:0:0:0:
168,232,147462,2,0,B|200:196|220:144,1,80,0|2,0:0|0:0,0:0:0:0:
256,88,148114,1,0,0:0:0:0:
300,164,148440,2,0,P|348:196|400:200,1,80,8|0,0:0|0:0,0:0:0:0:
396,284,149092,6,0,P|456:232|432:140,1,160,2|8,0:0|0:0,0:0:0:0:
372,108,150071,1,0,0:0:0:0:
292,144,150397,2,0,P|288:80|368:20,2,160,2|8|4,0:0|0:0|0:0,0:0:0:0:
320,228,152027,1,0,0:0:0:0:
296,312,152354,6,0,B|240:304|208:320|208:320|192:300|144:280,1,160,8|2,0:0|0:0,0:0:0:0:
64,264,153332,1,0,0:0:0:0:
48,176,153658,1,8,0:0:0:0:
120,128,153984,1,0,0:0:0:0:
256,192,154310,12,4,156919,0:0:0:0:
408,288,162137,6,0,P|432:232|368:132,1,160,4|8,0:0|0:0,0:0:0:0:
320,96,163116,1,0,0:0:0:0:
256,156,163442,2,0,L|256:248,2,80,2|0|8,0:0|0:0|0:0,0:0:0:0:
192,96,164420,1,0,0:0:0:0:
119,146,164746,6,0,P|80:232|104:288,1,160,2|8,0:0|0:0,0:0:0:0:
176,340,165725,2,0,P|236:308|244:264,1,80,2|0,0:0|0:0,0:0:0:0:
416,280,166703,2,0,L|468:308,2,40,8|0|8,0:0|0:0|0:0,0:0:0:0:
348,224,167355,6,0,P|308:160|304:72,2,160,10|8|2,0:0|0:0|0:0,0:0:0:0:
432,196,168986,2,0,P|460:156|492:128,2,80,0|8|0,0:0|0:0|0:0,0:0:0:0:
416,284,170033,6,0,P|404:340|296:336,1,160,2|8,0:0|0:0,0:0:0:0:
228,216,171442,2,0,P|180:180|88:216,1,160,2|8,0:0|0:0,0:0:0:0:
52,288,172564,1,2,0:0:0:0:
256,192,172938,12,0,177336,0:0:0:0:
