osu file format v12

[General]
AudioFilename: moe.mp3
AudioLeadIn: 0
PreviewTime: 145816
Countdown: 0
SampleSet: Soft
StackLeniency: 0.7
Mode: 0
LetterboxInBreaks: 0

[Editor]
DistanceSpacing: 1
BeatDivisor: 4
GridSize: 4

[Metadata]
Title:We Are Star Dust
TitleUnicode:We Are Star Dust
Artist:Symphony of Science
ArtistUnicode:Symphony of Science
Creator:Lally
Version:Hard
Source:
Tags:Neil deGrasse Tyson Richard Feynman Lawrence Krauss Techno
BeatmapID:240523
BeatmapSetID:88197

[Difficulty]
HPDrainRate:6
CircleSize:4
OverallDifficulty:6
ApproachRate:7
SliderMultiplier:1.6
SliderTickRate:1

[Events]
//Background and Video events
0,0,"stars.jpg",0,0
//Break Periods
2,57978,67314
2,78850,82968
2,157119,161237
//Storyboard Layer 0 (Background)
//Storyboard Layer 1 (Fail)
//Storyboard Layer 2 (Pass)
//Storyboard Layer 3 (Foreground)
//Storyboard Sound Samples
//Background Colour Transformations
3,100,163,162,255

[TimingPoints]
5599,652.244809218393,4,2,1,100,1,0
16034,-100,4,2,1,30,0,0
16197,-100,4,2,1,50,0,0
26470,-100,4,2,1,60,0,1
26633,-100,4,2,1,60,0,0
36906,-100,4,2,1,70,0,0
37069,-100,4,2,1,60,0,0
57778,-100,4,2,1,30,0,0
68214,-100,4,2,1,70,0,1
68377,-100,4,2,1,60,0,0
78650,-100,4,2,1,30,0,0
83868,-100,4,2,1,60,0,0
89086,-100,4,2,1,40,0,0
89249,-100,4,2,1,60,0,0
112893,-100,4,2,1,50,0,0
115176,-100,4,2,1,70,0,1
115339,-100,4,2,1,60,0,0
125612,-83.3333333333333,4,2,1,70,0,1
125775,-83.3333333333333,4,2,1,70,0,0
145831,-83.3333333333333,4,2,1,50,0,0
146483,-83.3333333333333,4,2,1,70,0,1
146646,-83.3333333333333,4,2,1,70,0,0
156919,-83.3333333333333,4,2,1,30,0,0
162137,-100,4,2,1,60,0,0
170033,697.644809218394,4,2,1,50,1,0
171442,748.129675810474,4,2,1,40,1,0
172190,-100,4,2,1,30,0,0
172938,879.769675810474,4,2,1,30,1,0
175137,-100,4,2,1,15,0,0
177336,-100,4,2,1,5,0,0

[Colours]
Combo1 : 17,153,153
Combo2 : 16,40,97
Combo3 : 240,191,79
Combo4 : 102,6,35

[HitObjects]
64,144,16034,2,0,P|88:92|188:76,1,160,4|8,0:0|0:0,0:0:0:0:
236,132,17013,2,0,P|264:156|316:160,1,80,0|2,0:0|0:0,0:0:0:0:
384,148,17665,1,0,0:0:0:0:
406,114,17828,1,8,3:0:0:0:
444,96,17991,1,4,3:0:0:0:
480,168,18317,1,0,0:0:0:0:
480,168,18480,1,0,0:0:0:0:
480,168,18643,6,0,P|464:228|372:264,1,160,2|8,0:0|0:0,0:0:0:0:
308,300,19622,2,0,P|344:340|392:344,2,80,0|2|0,0:0|0:0|0:0,0:0:0:0:
236,264,20600,2,0,L|204:216,1,40,8|0,0:0|0:0,0:0:0:0:
176,228,20926,2,0,L|144:180,1,40,8|0,0:0|0:0,0:0:0:0:
116,188,21252,6,0,P|92:148|160:64,1,160,10|8,0:0|0:0,0:0:0:0:
228,84,22231,2,0,P|256:128|264:168,1,80,0|2,0:0|0:0,0:0:0:0:
244,232,22883,2,0,P|280:232|328:196,2,80,0|8|0,0:0|0:0|0:0,0:0:0:0:
180,188,23861,6,0,P|136:128|52:140,1,160,2|8,0:0|0:0,0:0:0:0:
12,200,24840,1,0,0:0:0:0:
40,228,25003,1,8,3:0:0:0:
68,256,25166,1,4,3:0:0:0:
130,306,25492,2,0,P|98:330|59:336,2,80,4|0|8,3:0|1:0|0:0,0:0:0:0:
208,284,26470,6,0,B|252:288|284:312|284:312|316:276|356:256,1,160,4|8,0:0|0:0,0:0:0:0:
384,192,27449,2,0,P|408:148|404:104,1,80,0|2,0:0|0:0,0:0:0:0:
356,60,28101,1,0,0:0:0:0:
324,32,28264,1,8,3:0:0:0:
284,32,28427,1,4,3:0:0:0:
216,76,28753,1,0,1:0:0:0:
140,56,29079,6,0,P|148:124|232:156,1,160,4|8,0:0|0:0,0:0:0:0:
264,152,29895,1,0,0:0:0:0:
304,144,30058,1,0,0:0:0:0:
380,120,30384,2,0,P|432:100|456:64,1,80,2|0,0:0|0:0,0:0:0:0:
380,36,31036,2,0,P|328:56|304:92,1,80,8|0,0:0|0:0,0:0:0:0:
288,104,31525,1,0,0:0:0:0:
260,136,31688,6,0,B|232:164|212:200|212:200|160:200|120:208,1,160,4|8,0:0|0:0,0:0:0:0:
52,200,32667,1,0,0:0:0:0:
100,136,32993,2,0,P|144:104|168:68,1,80,2|0,0:0|0:0,0:0:0:0:
220,32,33645,2,0,P|260:44|296:88,1,80,8|0,0:0|0:0,0:0:0:0:
280,148,34297,22,0,P|296:216|380:256,1,160,2|8,0:0|0:0,0:0:0:0:
448,236,35276,2,0,P|480:192|480:156,1,80,0|2,0:0|0:0,0:0:0:0:
444,96,35928,1,0,0:0:0:0:
416,68,36091,1,0,3:0:0:0:
384,48,36254,1,0,1:0:0:0:
348,36,36417,1,8,3:0:0:0:
308,28,36580,1,4,3:0:0:0:
268,24,36743,1,0,1:0:0:0:
228,28,36906,38,0,P|172:36|80:92,1,160,4|8,0:0|0:0,0:0:0:0:
56,116,37722,1,0,0:0:0:0:
32,148,37885,2,0,P|12:192|16:236,1,80,0|2,0:0|0:0,0:0:0:0:
36,296,38537,1,0,0:0:0:0:
104,336,38863,2,0,P|156:312|172:284,1,80,8|0,0:0|0:0,0:0:0:0:
160,216,39515,38,0,P|176:164|224:144,1,80,4|0,0:0|0:0,0:0:0:0:
228,128,40004,1,0,0:0:0:0:
264,112,40167,2,0,P|304:88|316:40,1,80,8|0,0:0|0:0,0:0:0:0:
240,36,40820,1,2,0:0:0:0:
168,72,41146,2,0,P|144:120|152:156,1,80,0|8,0:0|0:0,0:0:0:0:
168,220,41798,1,0,0:0:0:0:
144,252,41961,1,0,0:0:0:0:
120,284,42124,38,0,P|70:320|-16:288,2,160,4|8|2,0:0|0:0|0:0,0:0:0:0:
168,220,43755,2,0,P|204:152|196:132,1,80,0|8,0:0|0:0,0:0:0:0:
160,88,44407,1,0,0:0:0:0:
136,56,44570,1,0,0:0:0:0:
100,36,44733,6,0,P|60:28|12:48,2,80,2|0|8,0:0|0:0|0:0,0:0:0:0:
160,88,45712,1,0,0:0:0:0:
188,164,46038,2,0,P|204:196|196:244,1,80,2|8,0:0|0:0,0:0:0:0:
152,304,46690,2,0,P|116:340|76:336,1,80,8|0,0:0|0:0,0:0:0:0:
44,276,47342,37,0,1:0:0:0:
28,240,47505,1,8,3:0:0:0:
28,200,47668,2,0,P|40:156|80:116,1,80,0|8,1:0|0:0,0:0:0:0:
140,144,48321,2,0,P|208:116|228:96,1,80,0|2,0:0|0:0,0:0:0:0:
256,48,48973,1,0,0:0:0:0:
327,84,49299,2,0,P|332:88|400:116,1,80,8|0,0:0|0:0,0:0:0:0:
460,168,49951,38,0,P|416:200|336:284,1,160,4|8,0:0|0:0,0:0:0:0:
292,336,50930,1,0,0:0:0:0:
260,264,51256,2,0,P|186:188|142:156,1,160,2|8,0:0|0:0,0:0:0:0:
76,112,52234,1,0,0:0:0:0:
76,112,52397,1,0,0:0:0:0:
76,112,52560,38,0,P|128:68|232:68,1,160,10|8,0:0|0:0,0:0:0:0:
280,112,53538,2,0,P|352:112|384:92,1,80,0|2,0:0|0:0,0:0:0:0:
428,72,54191,2,0,P|460:104|472:136,1,80,0|8,0:0|0:0,0:0:0:0:
256,192,55169,12,4,57778,0:0:0:0:
76,132,68214,6,0,P|104:96|160:88,1,80,4|0,0:0|0:0,0:0:0:0:
152,164,68866,2,0,P|188:204|196:236,1,80,8|0,0:0|0:0,0:0:0:0:
360,164,69518,2,0,P|324:204|316:236,1,80,2|0,0:0|0:0,0:0:0:0:
296,304,70171,2,0,P|336:336|372:340,1,80,8|0,0:0|0:0,0:0:0:0:
216,304,70823,38,0,P|176:336|140:340,1,80,0|0,1:0|0:0,0:0:0:0:
108,340,71312,1,0,0:0:0:0:
72,324,71475,2,0,P|32:280|44:176,1,160,8|2,0:0|0:0,0:0:0:0:
140,60,72780,6,0,B|184:68|208:104|208:104|252:80|304:88,1,160,8|4,0:0|0:0,0:0:0:0:
336,144,73758,1,8,0:0:0:0:
336,274,74084,1,8,0:0:0:0:
259,169,74410,1,8,0:0:0:0:
383,209,74736,1,8,0:0:0:0:
259,249,75063,37,0,0:0:0:0:
259,249,75226,1,0,0:0:0:0:
259,249,75389,2,0,P|208:300|116:264,2,160,8|2|8,0:0|0:0|0:0,0:0:0:0:
184,220,77019,2,0,P|148:192|112:180,1,80,0|2,0:0|0:0,0:0:0:0:
256,192,77672,12,4,78650,0:0:0:0:
132,140,83868,38,0,P|188:72|260:84,1,160,2|8,0:0|0:0,0:0:0:0:
216,152,84846,2,0,P|196:192|164:212,1,80,0|2,0:0|0:0,0:0:0:0:
88,208,85498,1,0,0:0:0:0:
88,208,85662,1,0,0:0:0:0:
88,208,85825,2,0,P|100:252|144:280,1,80,8|0,0:0|0:0,0:0:0:0:
160,296,86314,1,0,0:0:0:0:
192,320,86477,2,0,P|268:336|340:292,2,160,2|8|2,0:0|0:0|0:0,0:0:0:0:
136,168,88434,38,0,L|172:128,1,40,8|0,0:0|0:0,0:0:0:0:
200,156,88760,2,0,L|236:116,1,40,8|0,0:0|0:0,0:0:0:0:
264,136,89086,2,0,P|328:76|400:88,1,160,4|8,0:0|0:0,0:0:0:0:
452,140,90064,1,0,0:0:0:0:
408,208,90390,2,0,P|364:236|324:232,1,80,2|0,0:0|0:0,0:0:0:0:
256,192,91043,12,8,93652,0:0:0:0:
120,112,94304,21,4,0:0:0:0:
120,112,94630,1,0,0:0:0:0:
180,164,94956,1,8,0:0:0:0:
104,188,95282,2,0,P|60:164|44:124,2,80,0|2|0,0:0|0:0|0:0,0:0:0:0:
180,164,96261,1,8,0:0:0:0:
180,164,96424,1,0,0:0:0:0:
180,164,96587,1,0,0:0:0:0:
248,120,96913,6,0,B|296:104|328:120|328:120|348:96|404:72,2,160,2|8|2,0:0|0:0|0:0,0:0:0:0:
92,84,98870,2,0,P|44:116|56:216,1,160,8|4,0:0|0:0,0:0:0:0:
104,268,99848,2,0,P|148:280|180:312,1,80,0|0,0:0|1:0,0:0:0:0:
408,268,100826,2,0,P|364:280|332:312,1,80,8|0,0:0|0:0,0:0:0:0:
276,348,101478,1,0,1:0:0:0:
219,291,101805,1,0,0:0:0:0:
190,262,101968,1,0,0:0:0:0:
161,233,102131,6,0,P|124:192|116:136,1,80,4|0,0:0|0:0,0:0:0:0:
196,164,102783,2,0,P|188:141|151:100,1,80,0|0,1:0|0:0,0:0:0:0:
72,104,103435,1,8,0:0:0:0:
72,104,103598,1,0,1:0:0:0:
72,104,103761,1,8,3:0:0:0:
44,180,104087,2,0,L|60:220,1,40,4|0,3:0|0:0,0:0:0:0:
100,220,104414,2,0,L|116:260,1,40,4|0,3:0|0:0,0:0:0:0:
152,276,104740,6,0,P|204:336|284:324,1,160,4|0,0:0|1:0,0:0:0:0:
340,276,105718,2,0,P|376:224|408:216,1,80,0|2,0:0|0:0,0:0:0:0:
468,200,106370,2,0,P|432:148|400:140,1,80,0|0,0:0|1:0,0:0:0:0:
344,172,107023,1,0,0:0:0:0:
356,92,107349,2,0,P|320:40|288:32,1,80,2|0,0:0|0:0,0:0:0:0:
280,112,108001,2,0,P|244:140|132:100,1,160,0|2,1:0|0:0,0:0:0:0:
92,48,108979,2,0,P|64:76|60:124,1,80,0|0,0:0|1:0,0:0:0:0:
84,272,109958,6,0,P|120:312|228:280,1,160,4|0,0:0|1:0,0:0:0:0:
284,256,110936,1,0,0:0:0:0:
352,216,111262,2,0,P|388:188|436:184,2,80,2|0|0,0:0|0:0|1:0,0:0:0:0:
284,256,112241,1,0,0:0:0:0:
220,308,112567,1,2,0:0:0:0:
160,256,112893,5,0,0:0:0:0:
140,224,113056,1,0,0:0:0:0:
120,192,113219,1,0,1:0:0:0:
116,152,113382,1,0,1:0:0:0:
124,112,113545,1,0,1:0:0:0:
148,80,113708,1,8,3:0:0:0:
180,56,113871,1,8,3:0:0:0:
220,44,114034,1,0,0:0:0:0:
260,40,114197,5,4,3:0:0:0:
296,52,114360,1,4,3:0:0:0:
328,76,114523,1,4,3:0:0:0:
356,104,114686,1,0,1:0:0:0:
372,140,114850,1,0,1:0:0:0:
372,180,115013,1,0,1:0:0:0:
368,220,115176,6,0,P|344:272|240:280,1,160,4|8,0:0|0:0,0:0:0:0:
180,248,116154,2,0,P|128:212|88:208,1,80,0|2,0:0|0:0,0:0:0:0:
44,168,116806,2,0,P|96:132|136:128,1,80,0|8,0:0|0:0,0:0:0:0:
188,100,117458,1,0,0:0:0:0:
224,88,117622,1,0,0:0:0:0:
264,76,117785,6,0,P|316:60|420:108,1,160,4|8,0:0|0:0,0:0:0:0:
464,156,118763,1,0,0:0:0:0:
435,184,118926,1,0,0:0:0:0:
406,212,119089,2,0,P|356:248|320:256,2,80,2|0|8,0:0|0:0|0:0,0:0:0:0:
332,68,120394,22,0,P|260:40|208:112,1,160,2|8,0:0|0:0,0:0:0:0:
188,172,121372,1,0,0:0:0:0:
116,140,121698,2,0,P|68:124|20:140,2,80,2|0|2,0:0|0:0|0:0,0:0:0:0:
256,192,123003,12,8,124959,0:0:0:0:
56,104,125612,38,0,P|68:184|168:220,1,191.999994140625,4|8,0:0|0:0,0:0:0:0:
256,196,126590,1,0,0:0:0:0:
332,140,126916,2,0,P|380:104|436:108,1,95.9999970703126,2|0,0:0|0:0,0:0:0:0:
408,196,127568,2,0,P|360:232|304:228,1,95.9999970703126,8|0,0:0|0:0,0:0:0:0:
280,216,128057,1,0,0:0:0:0:
244,184,128221,6,0,P|208:136|152:116,1,95.9999970703126,2|0,0:0|0:0,0:0:0:0:
88,80,128873,2,0,P|40:132|64:192,1,95.9999970703126,8|0,0:0|0:0,0:0:0:0:
80,240,129525,2,0,P|136:256|180:304,2,95.9999970703126,2|0|8,0:0|0:0|0:0,0:0:0:0:
432,240,130830,22,0,P|376:256|332:304,2,95.9999970703126,4|0|8,0:0|0:0|0:0,0:0:0:0:
456,148,131808,1,0,0:0:0:0:
436,104,131971,1,0,0:0:0:0:
400,72,132134,2,0,P|352:48|304:56,1,95.9999970703126,2|0,0:0|0:0,0:0:0:0:
256,132,132786,1,8,0:0:0:0:
200,52,133112,6,0,P|160:48|112:72,1,95.9999970703126,0|2,0:0|0:0,0:0:0:0:
84,164,133765,2,0,P|124:168|172:144,1,95.9999970703126,0|8,0:0|0:0,0:0:0:0:
260,104,134417,2,0,L|304:72,1,47.9999985351563
260,104,134743,2,0,P|320:120|320:240,2,191.999994140625,2|8|4,0:0|0:0|0:0,0:0:0:0:
204,288,136700,22,0,B|164:324|120:320|120:320|80:268|28:272,2,191.999994140625,8|2|8,0:0|0:0|0:0,0:0:0:0:
271,220,138330,1,0,0:0:0:0:
304,186,138493,1,0,0:0:0:0:
337,152,138656,38,0,P|388:112|436:104,2,95.9999970703126,4|0|8,0:0|0:0|0:0,0:0:0:0:
271,220,139635,1,0,0:0:0:0:
237,253,139798,1,0,0:0:0:0:
203,286,139961,2,0,P|156:322|120:326,1,95.9999970703126,2|0,0:0|0:0,0:0:0:0:
32,292,140613,2,0,P|64:230|100:227,1,95.9999970703126,8|0,0:0|0:0,0:0:0:0:
154,161,141265,6,0,P|214:125|246:141,1,95.9999970703126,4|0,0:0|0:0,0:0:0:0:
276,220,141918,1,8,0:0:0:0:
184,248,142244,2,0,P|136:236|108:240,1,47.9999985351563
184,248,142570,2,0,P|176:192|140:152,1,95.9999970703126,2|0,0:0|0:0,0:0:0:0:
328,88,143548,22,0,P|376:64|400:60,1,47.9999985351563
328,88,143874,2,0,P|372:120|392:180,1,95.9999970703126,2|0,0:0|0:0,0:0:0:0:
408,252,144527,2,0,B|356:260|356:260|312:296,1,95.9999970703126,8|0,0:0|0:0,0:0:0:0:
276,372,145179,1,2,0:0:0:0:
200,312,145505,1,0,0:0:0:0:
252,232,145831,1,8,0:0:0:0:
252,232,146483,38,0,P|236:172|108:144,1,191.999994140625,4|8,0:0|0:0,0:0:0:0:
160,224,147462,2,0,L|96:300,1,95.9999970703126,0|2,0:0|0:0,0:0:0:0:
84,204,148114,2,0,L|148:128,1,95.9999970703126,0|8,0:0|0:0,0:0:0:0:
98,297,148766,2,0,L|34:373,1,95.9999970703126,0|2,0:0|0:0,0:0:0:0:
22,277,149418,2,0,L|86:201,1,95.9999970703126,0|8,0:0|0:0,0:0:0:0:
164,152,150071,1,0,0:0:0:0:
204,124,150234,1,0,0:0:0:0:
248,104,150397,2,0,P|304:84|344:92,1,95.9999970703126,2|0,0:0|0:0,0:0:0:0:
412,152,151049,6,0,P|480:108|488:72,2,95.9999970703126,8|0|4,0:0|0:0|0:0,0:0:0:0:
368,168,151864,1,0,0:0:0:0:
320,180,152027,2,0,P|252:224|244:260,1,95.9999970703126,0|8,0:0|0:0,0:0:0:0:
264,328,152680,2,0,P|332:284|340:248,1,95.9999970703126,0|2,0:0|0:0,0:0:0:0:
416,220,153332,2,0,L|468:192,1,47.9999985351563
416,220,153658,2,0,P|408:164|356:128,1,95.9999970703126,8|0,0:0|0:0,0:0:0:0:
256,192,154310,12,4,156919,0:0:0:0:
448,240,162137,6,0,P|424:292|324:308,1,160,4|8,0:0|0:0,0:0:0:0:
276,252,163116,2,0,P|248:228|196:224,1,80,0|2,0:0|0:0,0:0:0:0:
128,236,163768,1,0,0:0:0:0:
108,272,163931,1,0,0:0:0:0:
72,288,164094,1,8,0:0:0:0:
56,208,164420,1,0,0:0:0:0:
56,208,164583,1,0,0:0:0:0:
56,208,164746,6,0,P|72:148|164:112,1,160,2|8,0:0|0:0,0:0:0:0:
228,76,165725,2,0,P|192:36|144:32,2,80,0|2|0,0:0|0:0|0:0,0:0:0:0:
288,128,166703,2,0,L|320:176,1,40,8|0,0:0|0:0,0:0:0:0:
348,164,167029,2,0,L|380:212,1,40,8|0,0:0|0:0,0:0:0:0:
408,204,167355,6,0,P|432:244|364:328,1,160,10|8,0:0|0:0,0:0:0:0:
300,300,168334,2,0,P|272:256|264:216,1,80,0|2,0:0|0:0,0:0:0:0:
284,152,168986,2,0,P|248:152|200:188,2,80,0|8|0,0:0|0:0|0:0,0:0:0:0:
348,232,170033,6,0,P|412:220|480:152,1,160,2|0,0:0|0:0,0:0:0:0:
340,84,171442,6,0,P|268:88|196:140,1,160,2|0,0:0|0:0,0:0:0:0:
176,220,172564,1,0,0:0:0:0:
256,192,172938,1,2,0:0:0:0:
256,192,173157,12,0,177336,0:0:0:0:
