osu file format v6

[General]
AudioFilename: Symphonious feat rossini - Tell.ogg
AudioLeadIn: 0
PreviewTime: 18940
Countdown: 1
SampleSet: Normal
StackLeniency: 0.7
Mode: 0
LetterboxInBreaks: 1

[Editor]
DistanceSpacing: 0.800000011920929
BeatDivisor: 4
GridSize: 8

[Metadata]
Title:Tell
Artist:Symphonious feat. Rossini
Creator:j35u5891221
Version:Normal+
Source:In The Groove
Tags:Stepmania DDR In The Groove ITG

[Difficulty]
HPDrainRate:2
CircleSize:4
OverallDifficulty:3
SliderMultiplier:1.4
SliderTickRate:1

[Events]
//Background and Video events
0,0,"Tell-bg.png"
//Break Periods
2,30558,35175
2,42888,45666
2,66447,69225
2,77858,82476
//Storyboard Layer 0 (Background)
//Storyboard Layer 1 (Fail)
//Storyboard Layer 2 (Pass)
//Storyboard Layer 3 (Foreground)
//Storyboard Sound Samples
//Background Colour Transformations
3,100,163,162,255

[TimingPoints]
2935,368.098159509202,4,1,0,60,1,0
5140,-100,4,1,0,60,0,0
6984,-100,4,1,0,60,0,0
16087,-100,4,1,0,60,0,0
16639,-100,4,1,0,60,0,0
19131,-100,4,1,0,60,0,1
19499,-100,4,1,0,60,0,0
22076,-100,4,1,0,60,0,1
22444,-100,4,1,0,60,0,0
25020,-100,4,1,0,60,0,1
25388,-100,4,1,0,60,0,0
27965,-100,4,1,0,60,0,1
28333,-100,4,1,0,60,0,0
72045,-100,4,2,0,60,0,0
73149,-100,4,2,0,0,0,0
73333,-100,4,2,0,100,0,0
74622,-100,4,2,0,0,0,0
74806,-100,4,2,0,100,0,0
76094,-100,4,2,0,0,0,0
76278,-100,4,2,0,100,0,0
77842,-100,4,1,0,60,0,0
83916,-100,4,1,0,60,0,1
95511,-100,4,1,0,60,0,0
108947,-100,4,1,0,0,0,1

[Colours]
Combo1 : 128,255,255
Combo2 : 255,188,121
Combo3 : 187,187,0
Combo4 : 248,159,137

[HitObjects]
128,120,2934,2,2,B|288:120,1,140,2|8
368,120,3670,2,2,B|368:288,1,140,2|10
272,256,4406,1,2
176,256,4774,1,10
256,192,5142,12,4,6613
288,56,7352,5,0
384,56,7720,1,8
336,144,8087,2,0,B|416:144,2,70,2|2|2
256,200,8824,5,0
192,272,9192,1,8
128,200,9560,2,0,B|58:200,2,70,2|2|2
160,112,10296,5,0
240,64,10664,1,8
336,64,11032,2,2,B|424:64,2,70
256,192,11769,12,8,12872
56,160,13241,5,0
64,208,13424,2,0,C|72:240|96:280,1,70,0|8
136,296,13792,2,0,C|176:304|216:296,1,70
232,248,14160,1,0
256,200,14345,1,2
344,40,14714,5,0
392,40,14897,2,0,C|432:40|456:80,1,70,0|8
456,112,15265,2,0,B|496:120,2,35,0|0|0
456,160,15633,1,0
456,208,15818,1,2
344,288,16186,6,0,C|304:264|297:303|250:283|218:291,1,140,0|8
152,256,16922,2,0,C|80:304,2,70,2|8|10
144,160,17658,2,2,C|176:144|224:168|264:136,1,140
352,104,18395,2,8,C|352:208,2,70,2|8|8
480,48,19131,5,4
480,144,19499,1,4
480,240,19867,1,4
400,304,20235,1,4
280,224,20603,5,0
232,192,20787,2,0,C|192:200|153:208,1,70,2|8
184,152,21155,2,0,C|152:152|112:160,1,70,2|0
144,112,21522,2,0,C|112:112|72:120,1,70,2|8
80,256,22076,5,4
176,256,22444,1,4
272,256,22812,1,4
368,256,23180,1,4
448,144,23548,5,4
448,96,23732,2,8,C|488:96,2,35,8|8|8
360,47,24284,2,2,C|272:47,2,70,2|2|2
312,176,25020,5,4
264,176,25204,2,0,C|194:176,1,70,0|10
128,48,25757,5,0
80,48,25941,2,0,C|24:48,2,35,0|0|10
72,184,26493,5,0
72,232,26676,2,0,C|72:265|72:265|88:305,1,70,2|0
176,304,27229,2,0,C|216:320|264:320|312:296,1,140,2|2
448,296,27965,5,4
496,216,28333,1,0
432,136,28701,1,4
480,56,29069,1,12
336,56,29438,5,0
288,56,29621,2,0,B|289:136,1,70,2|8
240,128,29990,1,2
192,128,30174,2,2,C|192:200,1,70,8|8
40,120,36615,6,0,C|40:168,2,35
40,72,36983,2,0,C|88:72|112:96,1,70,0|8
200,88,37536,1,0
248,88,37720,1,0
296,88,37904,1,8
392,96,38271,2,2,C|424:136|424:192|376:232,1,140,2|2
360,320,39008,1,0
272,312,39192,6,0,C|272:368,2,35,0|0|0
216,296,39560,6,0,C|240:256,2,35,0|0|0
168,272,39928,6,0,C|160:208,2,35,0|0|0
56,128,40481,6,2,C|56:80|96:40|144:40,1,140,2|2
240,40,41217,2,2,C|280:56|336:32|375:52,1,140,2|8
456,120,41952,2,0,C|415:146|434:191|392:234,1,140,0|4
296,224,42688,1,4
256,192,47106,12,0,48210
23,31,48579,6,0,C|64:36|34:77|74:81|84:102,1,140,0|2
80,184,49315,5,8
88,232,49499,1,8
120,264,49683,1,8
256,304,50051,6,0,C|230:272|281:264|255:233|263:211,1,140,0|2
208,144,50787,5,8
256,128,50971,1,8
304,144,51155,1,8
485,35,51523,6,0,C|444:41|475:82|435:86|425:108,1,140,0|2
432,184,52260,5,8
424,232,52444,1,8
392,264,52628,1,8
256,192,52996,12,8,54100
480,192,54468,5,4
256,24,55204,1,4
32,192,55941,1,4
160,264,56309,1,4
160,120,56677,6,0,B|192:96|224:80|256:80|304:80,1,140,8|8
392,80,57413,2,0,B|448:72|488:80|488:144|496:176,1,140,8|8
488,248,58149,2,0,B|480:320|384:336|368:296,1,140,8|8
360,216,58885,2,0,B|328:216|288:224|232:272,1,140,8|8
144,312,59622,2,0,C|120:288|120:240,1,70,0|2
120,200,59990,2,0,C|136:167|192:144,1,70,0|2
208,136,60358,5,4
472,32,61094,1,8
488,312,61830,1,4
344,312,62198,1,6
200,312,62566,6,0,C|110:312,1,70,0|0
80,312,62934,1,8
80,168,63303,6,0,C|45:168,2,35,0|0|0
128,168,63671,1,8
264,168,64039,6,0,C|265:79,1,70,0|0
264,48,64407,1,8
400,40,64775,6,0,C|435:40,2,35,0|0|0
400,88,65142,1,8
480,200,65511,6,2,C|480:288,1,70
480,320,65879,2,0,C|410:319,1,70,8|0
360,320,66247,1,4
256,192,70665,12,0,71769
104,72,72137,6,2,C|72:104|112:128|88:160|112:184,1,140
184,128,72873,1,8
232,128,73057,1,8
280,128,73240,1,0
440,48,73609,6,2,C|472:48|488:64|472:96|464:144,1,140
440,240,74346,1,8
416,280,74530,1,8
376,304,74713,1,8
192,296,75082,6,2,C|152:296|96:288|88:240,1,140
80,136,75818,1,8
96,80,76002,1,8
152,64,76185,1,2
336,56,76554,6,0,L|328:72|344:88|328:104|344:112|328:136|344:152|328:168|344:184|328:200|304:184|280:200|256:184,1,280,0|0
144,184,77658,5,4
264,48,83916,6,0,C|320:40|376:56|408:96,1,140,0|8
448,152,84652,2,0,C|464:200|448:256|408:288,1,140,0|8
328,304,85388,1,0
280,312,85573,2,0,C|240:320|192:320,1,70,0|8
120,288,86125,1,2
88,248,86309,1,2
80,200,86493,1,2
216,160,86861,5,0
264,160,87045,2,0,C|264:80,1,70,0|8
392,40,87597,5,0
440,40,87781,2,0,C|488:40,2,35,0|0|8
440,176,88333,6,0,C|440:232|424:264,1,70,0|0
416,288,88701,1,8
320,288,89070,2,2,C|320:216,2,70,2|2|2
168,288,89806,5,0
88,224,90174,1,8
88,128,90542,1,0
168,64,90910,1,8
240,176,91278,5,0
288,175,91461,2,0,B|317:144|330:181|353:163,1,70,0|8
448,176,92014,2,0,B|440:216|432:264,2,70,0|0|2
464,32,92751,5,0
368,32,93119,1,2
272,32,93487,1,0
176,32,93855,1,2
96,152,94223,6,0,C|96:232,1,70,0|0
144,216,94590,1,2
240,216,94959,1,0
288,216,95143,1,0
456,344,95695,6,0,C|480:304|480:240|440:192,1,140,0|8
464,72,96431,5,2
368,72,96799,1,2
224,80,97168,6,0,C|192:128|192:184|216:232,1,140,0|8
200,344,97904,5,2
104,344,98272,1,10
88,200,98640,5,0
88,200,98824,1,8
88,200,99008,1,2
192,104,99376,5,0
192,104,99560,1,8
192,104,99744,1,2
327,103,100112,6,0,B|372:135|348:159|300:175|316:191|329:225,1,140,0|0
375,143,100849,2,0,B|420:175|396:199|348:215|364:231|377:265,1,140
428,177,101585,2,0,B|473:209|449:233|401:249|417:265|433:305,1,140
476,217,102321,2,0,B|521:249|497:273|449:289|465:305|481:345,1,140
336,336,103057,5,0
240,336,103425,1,0
144,336,103793,1,8
48,336,104161,1,8
48,192,104530,5,0
144,192,104898,1,0
240,192,105266,1,8
336,192,105634,1,8
472,192,106002,6,0,B|487:170|463:154|439:130|511:114|503:90|482:63,1,140,0|0
344,56,106738,5,0
295,56,106921,2,2,C|272:31|233:55|210:34|188:46,1,140,2|2
223,104,107474,6,0,B|229:148|214:166|221:206|195:200|200:240,1,140,0|8
335,272,108211,2,2,B|355:247|401:270|471:261,1,140,2|8
256,192,108947,12,0,110418
