osu file format v6

[General]
AudioFilename: Symphonious feat rossini - Tell.ogg
AudioLeadIn: 0
PreviewTime: 18940
Countdown: 1
SampleSet: Normal
StackLeniency: 0.7
Mode: 0
LetterboxInBreaks: 1

[Editor]
Bookmarks: 48564,54176
DistanceSpacing: 1.5
BeatDivisor: 4
GridSize: 8

[Metadata]
Title:Tell
Artist:Symphonious feat. Rossini
Creator:j35u5891221
Version:Insane
Source:In The Groove
Tags:Stepmania DDR In The Groove ITG

[Difficulty]
HPDrainRate:6
CircleSize:5
OverallDifficulty:7
SliderMultiplier:1.4
SliderTickRate:1

[Events]
//Background and Video events
0,0,"Tell-bg.png"
//Break Periods
2,30557,35716
2,42889,47679
2,66447,70501
2,77858,81544
//Storyboard Layer 0 (Background)
//Storyboard Layer 1 (Fail)
//Storyboard Layer 2 (Pass)
//Storyboard Layer 3 (Foreground)
Sprite,Foreground,Centre,"warning.png",320,240 M,0,80579,,329,359 M,0,80579,,329,359 V,0,80579,,1.34816,1.13312 S,0,80579,80591,0.9385599,0.8259198 F,0,80579,80945,0,0.7247357 R,0,80579,80947,0.1023999,-0.1843201 S,0,80591,80947,0.8259198,0.9590399 F,0,80945,80947,0.7247357,1 F,0,80947,81315,1,0.5699198 S,0,80947,81315,0.9590399,0.9180799 R,0,80947,81315,-0.1843201,0.1433606 F,0,81315,81683,0.5699198,1 S,0,81315,81683,0.9180799,0.9385602 R,0,81315,81683,0.1433606,-0.1638397 F,0,81683,82051,1,0.5801601 S,0,81683,82051,0.9385602,0.9692805 R,0,81683,82051,-0.1638397,0.14336 F,0,82051,82419,0.5801601,1 S,0,82051,82419,0.9692805,0.9385602 R,0,82051,82419,0.14336,-0.1638403 F,0,82419,82787,1,0 R,0,82419,82787,-0.1638403,0.1638397
Sprite,Foreground,Centre,"normspeed.png",320,240 M,0,94931,,290,108 S,0,94931,,0.77472 R,0,94931,95115,0,-0.08192001 R,0,95115,95299,-0.08192001,0.08191986 R,0,95299,95483,0.08191986,-0.002003478 R,0,95299,95483,0.04095993,-0.002003478 F,0,94931,95667,1 F,0,95667,96403,1,0
//Storyboard Sound Samples
//Background Colour Transformations
3,100,163,162,255

[TimingPoints]
2935,368.098159509202,4,1,0,60,1,0
5143,-100,4,1,0,0,0,0
5327,-100,4,1,0,20,0,0
5511,-100,4,1,0,40,0,0
5695,-100,4,1,0,60,0,0
5879,-100,4,1,0,0,0,0
7168,-100,4,1,0,60,0,0
19131,-100,4,1,0,61,0,1
19315,-100,4,1,0,60,0,0
22076,-100,4,1,0,60,0,1
22260,-100,4,1,0,60,0,0
25020,-100,4,1,0,60,0,1
25204,-100,4,1,0,60,0,0
27965,-100,4,1,0,60,0,1
28149,-100,4,1,0,60,0,0
36615,-100,4,2,0,60,0,0
41953,-100,4,1,0,0,0,0
42137,-100,4,1,0,20,0,0
42321,-100,4,1,0,31,0,0
42505,-100,4,1,0,40,0,0
42689,-100,4,1,0,60,0,0
48579,-100,4,2,0,60,0,0
54284,-100,4,1,0,60,0,0
56677,-100,4,1,0,0,0,0
57321,-100,4,1,0,10,0,0
58057,-100,4,1,0,20,0,0
58885,-100,4,1,0,30,0,0
59622,-100,4,1,0,45,0,0
60082,-100,4,1,0,60,0,0
62566,-100,4,1,0,20,0,0
63303,-100,4,1,0,20,0,0
64039,-100,4,1,0,30,0,0
64775,-100,4,1,0,40,0,0
65511,-100,4,1,0,50,0,0
71401,-100,4,1,0,0,0,0
72137,-100,4,1,0,60,0,0
73241,-100,4,1,0,0,0,0
73517,-100,4,1,0,60,0,0
74714,-100,4,1,0,0,0,0
74990,-100,4,1,0,60,0,0
76186,-100,4,1,0,0,0,0
76462,-100,4,1,0,60,0,0
83732,-50,4,1,0,60,0,1
95327,-100,4,1,0,60,0,0
108947,-100,4,1,0,0,0,1

[Colours]
Combo1 : 128,255,255
Combo2 : 255,188,121
Combo3 : 187,187,0
Combo4 : 248,159,137

[HitObjects]
64,144,2934,1,4
136,144,3119,2,8,B|136:88,2,35
208,144,3487,1,8
280,144,3671,1,4
352,144,3855,2,8,B|352:184,2,35
424,144,4223,1,8
496,144,4407,2,2,B|496:240,1,70
496,288,4775,2,0,B|400:288,1,70,0|2
352,288,5143,5,0
328,288,5235,1,0
304,288,5327,1,0
280,288,5419,1,0
256,288,5511,1,0
232,288,5603,1,0
208,288,5695,1,0
184,288,5787,1,0
256,192,5879,12,0,6891
48,136,7168,6,0,B|48:176,2,35,0|0|0
112,112,7536,2,0,B|112:72,2,35,0|0|8
176,136,7904,2,0,B|224:136,1,35
232,160,8088,1,2
296,184,8272,1,8
360,208,8456,1,8
408,104,8640,6,0,B|449:104,2,35,0|0|0
360,56,9008,2,0,B|360:16,2,35,0|0|8
288,64,9376,2,0,B|288:120,1,35,0|0
288,136,9560,1,2
216,136,9744,1,8
144,136,9928,1,8
48,176,10112,6,0,B|48:120,2,35
48,248,10481,2,0,B|48:312,2,35,0|0|8
112,216,10849,2,0,B|152:216,1,35,0|0
184,216,11033,1,2
184,144,11217,1,8
184,72,11401,1,8
288,64,11585,6,0,B|328:64,1,35,0|0
352,88,11769,2,2,C|384:112|368:160|416:176,1,140,2|2
432,200,12229,2,0,B|488:200,2,35,0|0|0
432,232,12505,1,0
400,296,12689,1,8
328,304,12873,1,8
200,288,13057,5,0
200,288,13149,1,0
200,288,13241,1,4
144,192,13425,5,0
144,192,13517,1,0
144,192,13609,1,8
200,88,13793,5,0
200,88,13885,1,0
200,88,13977,2,2,B|256:168,2,70
304,56,14530,5,0
304,56,14622,1,0
304,56,14714,1,4
408,72,14898,5,0
408,72,14990,1,0
408,72,15082,1,8
472,152,15266,5,0
472,152,15358,1,0
472,152,15450,2,2,B|472:240,2,70
384,216,16002,6,0,B|320:216,1,35,0|0
312,216,16186,1,0
240,216,16370,2,0,B|192:216,1,35
168,216,16554,1,8
96,216,16738,1,0
96,216,16830,1,0
96,216,16922,2,0,B|72:128,2,70,0|8|8
176,128,17474,5,0
208,128,17566,1,0
232,128,17658,2,2,B|376:128,1,140
408,128,18119,5,0
440,144,18211,1,0
456,176,18303,1,0
456,208,18395,2,0,B|440:248|416:280,1,70,0|8
392,320,18763,1,2
288,320,18947,5,0
288,320,19039,1,0
288,320,19131,2,4,B|232:240,1,70
320,256,19499,2,8,B|376:176,1,70,8|0
288,192,19867,2,4,B|216:120,1,70,0|0
192,192,20235,2,8,B|136:128,1,70,8|0
136,72,20603,5,8
200,40,20787,1,0
272,40,20971,1,8
344,40,21155,1,0
416,40,21339,1,8
488,40,21523,1,0
488,112,21707,1,8
472,216,21892,5,0
456,248,21984,1,0
432,272,22076,2,4,B|408:240|352:256,1,70
344,224,22352,1,0
328,192,22444,2,8,B|289:161|259:192,1,70,8|8
232,200,22720,1,0
200,208,22812,2,4,B|184:160|176:128,1,70,0|0
160,72,23180,5,8
96,40,23364,1,0
48,88,23548,1,2
48,160,23732,1,0
48,232,23916,1,8
72,296,24100,1,0
144,296,24284,2,0,B|144:224,2,70,2|2|2
184,296,24836,5,0
216,296,24928,1,0
248,296,25020,2,0,B|320:296,1,70,4|0
352,296,25296,1,0
384,288,25388,2,0,B|384:218,1,70,8|0
384,184,25664,1,0
384,144,25756,2,0,B|386:115|362:107|338:99,1,70
232,96,26125,5,8
160,96,26309,1,0
88,96,26493,1,0
88,168,26677,1,0
88,240,26861,1,8
88,312,27045,1,0
160,312,27229,1,2
232,312,27413,1,0
304,312,27597,1,2
400,272,27781,6,0,B|400:237,2,35,0|0|2
464,240,28149,2,0,B|464:184,2,35,0|0|8
400,208,28517,2,0,B|400:173,2,35,0|0|2
296,184,28885,5,0
240,136,29069,1,8
208,200,29253,1,0
152,152,29437,1,0
128,224,29621,1,2
80,168,29805,1,8
88,96,29989,1,2
144,56,30173,2,0,B|224:56,1,70,2|2
120,176,36616,5,0
152,176,36708,1,0
184,176,36800,1,0
256,176,36984,2,0,B|296:272,1,70,0|8
328,296,37352,1,0
400,296,37536,1,0
472,296,37720,2,8,B|472:208,1,70,0|8
472,152,38088,5,0
472,80,38272,1,0
416,32,38456,2,0,B|328:32,1,70,0|8
272,32,38824,1,0
200,32,39008,1,0
128,32,39192,1,0
128,32,39284,1,0
128,32,39376,1,0
56,112,39560,5,0
56,112,39652,1,0
56,112,39744,1,4
56,216,39928,1,0
56,216,40020,1,0
56,216,40112,1,0
56,320,40296,1,0
128,320,40480,1,4
200,320,40664,2,0,B|272:320,1,70,0|8
344,320,41032,1,0
416,320,41216,1,4
488,320,41400,2,0,B|504:304|504:280|504:240,1,70,0|8
504,184,41768,1,0
432,184,41953,5,0
408,184,42045,1,0
384,184,42137,1,0
360,184,42229,1,0
336,184,42321,1,0
312,184,42413,1,0
288,184,42505,1,0
264,184,42597,1,0
240,184,42689,1,0
24,48,48579,5,2
96,48,48763,2,0,B|40:48,2,35,0|0|8
168,48,49131,2,0,B|224:48,1,35
240,48,49314,1,4
312,48,49498,1,4
384,48,49682,1,4
472,160,50051,5,2
400,160,50235,2,0,B|456:160,2,35,0|0|8
328,160,50603,2,0,B|272:160,1,35
256,160,50786,1,4
184,160,50970,1,4
112,160,51154,1,4
64,312,51523,5,0
136,312,51707,1,0
160,312,51799,1,0
184,312,51891,1,0
256,312,52076,2,0,B|312:312,2,35,0|0|4
328,312,52444,1,4
400,312,52628,1,4
256,192,52812,12,0,53547
256,136,53732,5,4
256,192,53916,1,4
256,248,54100,1,4
328,240,54284,5,0
360,256,54376,1,0
376,288,54468,1,0
320,328,54652,5,0
280,328,54744,1,0
240,328,54836,1,8
168,328,55020,1,0
96,320,55204,2,0,B|24:232|184:176|80:112,1,210,0|0
56,72,55941,1,0
128,56,56125,1,2
200,48,56309,1,8
280,48,56493,1,2
360,48,56677,6,0,B|408:48,1,35,0|0
392,48,56861,2,0,B|448:48,1,35,0|0
424,48,57045,2,0,B|472:48,1,35,0|0
456,48,57229,2,0,B|456:104,1,35,0|0
456,80,57413,6,0,B|456:136,1,35,0|0
456,112,57597,2,0,B|456:168,1,35,0|0
456,144,57781,2,0,B|456:192,1,35
456,176,57965,2,0,B|456:224,1,35
456,208,58149,6,0,B|456:256,1,35
456,240,58333,2,0,B|456:296,1,35,0|0
456,272,58517,2,0,B|408:272,1,35
424,272,58701,2,0,B|377:272,1,35
392,272,58885,6,0,B|344:272,1,35
360,272,59069,2,0,B|312:272,1,35
328,272,59253,2,0,B|264:272,1,35
296,272,59437,2,0,B|240:272,1,35
264,272,59622,6,0,B|208:272,1,35
232,272,59806,2,0,B|168:272,1,35
160,272,59990,1,0
120,272,60082,5,0
120,232,60174,1,0
120,192,60266,1,0
120,152,60358,1,2
192,128,60542,6,0,B|192:176,2,35,0|0|8
264,104,60910,1,0
344,104,61094,2,2,B|272:192|432:248|328:312,1,210,2|2
408,328,61830,1,2
464,288,62014,1,8
464,216,62198,1,2
464,144,62382,1,8
416,48,62566,5,0
400,48,62658,1,0
384,48,62750,1,0
368,48,62842,1,0
352,48,62934,1,0
336,48,63026,1,0
320,48,63118,1,0
304,48,63210,1,0
288,48,63303,5,0
272,48,63395,1,0
256,48,63487,1,0
240,48,63579,1,0
224,48,63670,1,0
208,48,63763,1,0
192,48,63855,1,0
176,48,63947,1,0
160,48,64039,5,0
144,56,64131,1,0
128,72,64223,1,0
120,88,64315,1,0
120,104,64407,1,0
120,120,64499,1,0
120,136,64591,1,0
120,152,64683,1,0
120,168,64775,5,0
120,184,64867,1,0
120,200,64959,1,0
120,216,65051,1,0
128,232,65143,1,0
136,248,65235,1,0
152,256,65327,1,0
168,256,65419,1,0
184,256,65511,5,0
200,256,65603,1,0
216,256,65695,1,0
232,256,65787,1,0
248,256,65879,1,0
264,256,65971,1,0
280,256,66063,1,0
296,256,66155,1,0
312,256,66247,1,4
256,192,71401,12,0,72137
320,192,72321,6,0,B|256:192,2,35,0|0|8
224,192,72689,2,0,B|189:192,2,35,0|0|0
152,192,73057,1,8
80,192,73241,2,0,B|80:224|80:256|88:264|104:288,1,70
176,312,73609,5,0
248,312,73793,2,0,B|304:312,1,35,0|0
320,312,73977,1,8
392,312,74161,2,0,B|432:312,1,35,0|0
464,312,74345,1,2
464,240,74529,1,8
464,168,74713,2,0,B|464:120|448:72,1,70,0|0
376,24,75082,5,2
304,24,75266,1,0
304,24,75358,1,0
304,24,75450,1,8
232,24,75634,1,0
232,24,75726,1,0
232,24,75818,1,2
160,24,76002,1,8
87,31,76186,2,0,B|63:63|53:115,1,70,0|0
256,192,76554,12,0,77290
256,192,77658,5,4
256,192,82444,12,0,83549
256,192,83732,5,0
256,192,83824,1,0
200,200,83916,2,4,C|176:232|152:168|120:200,1,140
232,136,84284,2,4,C|216:96|280:72|248:40,1,140
304,160,84652,2,4,C|328:128|352:192|384:160,1,140
288,248,85020,2,4,C|320:272|256:296|288:328,1,140
384,320,85388,5,0
472,256,85572,1,2
472,144,85756,1,8
400,56,85940,1,2
288,56,86124,1,0
176,56,86308,1,2
64,56,86492,1,8
72,208,86677,5,0
80,264,86769,1,0
128,296,86861,1,8
232,264,87045,2,0,B|232:344,2,70,0|0|8
344,248,87413,2,0,B|344:168,2,70,0|0|8
264,168,87781,5,0
152,168,87965,1,2
152,56,88149,1,8
264,56,88333,1,8
376,56,88517,1,8
488,56,88701,1,2
488,168,88885,1,8
480,280,89069,2,0,B|472:337|432:353|368:321,1,140,2|8
336,216,89437,1,2
216,312,89622,5,0
216,312,89714,1,0
216,312,89806,2,0,B|184:312|144:312|120:304|80:280,1,140,2|0
56,232,90082,1,0
40,176,90174,2,0,B|40:128|48:88|104:48,1,140,8|0
152,40,90450,1,8
208,40,90542,2,2,B|344:104,1,140,2|0
424,32,90910,5,8
488,120,91094,1,8
488,232,91278,1,2
440,336,91462,1,8
328,344,91646,1,8
224,304,91830,1,8
232,192,92014,2,0,B|391:192,2,140,0|0|2
88,248,92566,5,0
88,248,92658,1,0
88,248,92750,1,4
80,96,92935,5,0
80,96,93027,1,0
80,96,93119,1,4
224,40,93303,5,0
224,40,93395,1,0
224,40,93487,1,2
376,40,93671,6,0,B|424:24|480:48|488:104,1,140,0|8
488,208,94039,2,0,B|488:240|488:272|480:304|424:336,1,140,0|0
320,328,94407,2,0,B|296:328|272:328|248:328|224:328|208:328|176:328,1,140,0|8
80,280,94775,1,8
64,168,94959,1,4
64,168,95143,1,4
168,96,95511,5,0
168,96,95603,1,0
168,96,95695,1,0
280,96,95879,5,0
280,96,95971,1,0
280,96,96063,1,0
288,168,96247,6,0,C|232:168,1,35
224,168,96431,1,8
168,168,96615,1,8
112,168,96800,1,8
184,240,96984,5,0
184,240,97076,1,0
184,240,97168,1,0
288,240,97352,5,0
288,240,97444,1,0
288,240,97536,1,0
392,240,97720,6,0,C|392:176,1,35,0|0
392,168,97904,1,2
392,96,98088,1,2
392,24,98272,1,2
184,32,98640,5,2
112,32,98824,1,8
144,96,99008,1,8
48,280,99376,5,2
88,336,99560,1,8
112,272,99744,1,8
280,152,100112,5,2
336,112,100296,1,0
336,112,100388,1,0
336,112,100480,1,0
408,104,100664,1,8
480,104,100848,2,8,B|480:200,1,70,0|8
408,176,101216,2,0,B|408:248,1,70,0|8
336,248,101584,2,0,B|336:344,1,70,4|8
264,304,101952,2,0,B|192:272,1,70,0|8
192,208,102320,2,0,B|264:240,1,70,4|8
248,168,102688,2,0,B|160:128,1,70,8|8
96,72,103057,5,4
304,72,103425,1,4
328,280,103793,5,2
120,280,104161,1,2
184,80,104530,5,4
368,184,104898,1,4
224,336,105266,5,10
64,200,105634,1,10
224,64,106002,6,0,C|264:32|304:120,1,140
416,280,106738,5,0
344,280,106922,1,2
272,280,107106,1,8
200,280,107290,1,2
128,280,107473,2,0,C|72:272|64:168,1,140,8|8
159,87,108211,2,4,B|176:98|248:26|290:71,1,140,4|2
256,192,108947,12,0,110419
