osu file format v12

[General]
AudioFilename: DDR - Look To The Sky.mp3
AudioLeadIn: 3000
PreviewTime: 27428
Countdown: 0
SampleSet: Soft
StackLeniency: 0.7
Mode: 0
LetterboxInBreaks: 1
WidescreenStoryboard: 0

[Editor]
DistanceSpacing: 1
BeatDivisor: 4
GridSize: 4

[Metadata]
Title:Look to the Sky
TitleUnicode:Look to the Sky
Artist:SySF. feat. ANNA
ArtistUnicode:SySF. feat. ANNA
Creator:Senbon
Version:Light
Source:Dance Dance Revolution 5thMix
Tags:DDRMAX Sota Fujimori Daiguren
BeatmapID:48161
BeatmapSetID:12897

[Difficulty]
HPDrainRate:3
CircleSize:4
OverallDifficulty:3
ApproachRate:5
SliderMultiplier:1.3
SliderTickRate:1

[Events]
//Background and Video events
0,0,"rsz_nightsky.png",0,0
//Break Periods
2,61932,67389
//Storyboard Layer 0 (Background)
//Storyboard Layer 1 (Fail)
//Storyboard Layer 2 (Pass)
//Storyboard Layer 3 (Foreground)
//Storyboard Sound Samples
//Background Colour Transformations
3,100,0,0,128

[TimingPoints]
18,428.571428571429,4,2,1,100,1,0
27232,-100,4,2,1,75,0,0
32375,-100,4,2,1,70,0,0
33232,-100,4,2,1,80,0,0
33553,-100,4,2,1,90,0,0
33660,-100,4,2,1,100,0,0
34303,-100,4,1,1,80,0,1
43089,-100,4,1,1,80,0,1
44375,-100,4,1,1,45,0,1
44696,-100,4,1,1,80,0,1
45339,-100,4,1,1,45,0,1
45553,-100,4,1,1,80,0,1
46196,-100,4,1,1,45,0,1
46410,-100,4,1,1,80,0,1
46946,-100,4,1,1,45,0,1
47375,-100,4,1,1,80,0,1
49946,-100,4,1,1,80,0,1
50375,-100,4,1,1,45,0,1
50803,-100,4,1,1,80,0,1
52946,-100,4,1,1,45,0,1
53375,-100,4,1,1,80,0,1
53803,-100,4,1,1,45,0,1
54232,-100,4,1,1,80,0,1
56375,-100,4,2,2,45,0,1
56482,-100,4,1,1,45,0,1
57660,-100,4,1,1,80,0,1
58089,-100,4,2,1,80,0,1
59910,-100,4,2,1,60,0,1
60553,-100,4,2,1,70,0,1
61089,-100,4,2,1,80,0,1
61410,-100,4,2,1,60,0,1
61732,-100,4,1,1,60,0,0
61946,-100,4,2,1,80,0,0
68375,-100,4,2,1,60,0,0
68803,-100,4,2,1,80,0,0
71803,-100,4,1,1,45,0,0
72232,-100,4,1,1,80,0,0
72660,-100,4,1,1,45,0,0
73089,-100,4,1,1,80,0,0
73625,-100,4,1,1,45,0,0
73946,-100,4,1,1,80,0,0
74482,-100,4,2,1,80,0,0
85518,-100,4,2,1,70,0,0

[Colours]
Combo1 : 128,0,255
Combo2 : 0,128,255
Combo3 : 128,128,255

[HitObjects]
256,192,17,1,4,0:0:0:0:
152,272,446,1,2,0:0:0:0:
68,172,875,2,0,B|68:100|68:100|156:100,1,130,0|2,0:0|0:0,0:0:0:0:
256,192,1732,5,0,0:0:0:0:
360,272,2161,1,2,0:0:0:0:
444,172,2590,2,0,B|444:100|444:100|356:100,1,130,0|2,0:0|0:0,0:0:0:0:
321,100,3232,2,0,B|321:168,1,65,0|0,0:0|0:0,0:0:0:0:
190,165,3875,5,2,0:0:0:0:
128,52,4303,2,0,B|193:14|279:65,1,130,0|2,0:0|0:0,0:0:0:0:
382,51,5160,5,0,0:0:0:0:
382,116,5375,2,4,B|453:116,1,65,0|2,0:0|0:0,0:0:0:0:
447,246,6018,1,2,0:0:0:0:
332,304,6446,1,2,0:0:0:0:
236,216,6875,6,0,B|284:160|356:176,1,130,0|2,0:0|0:0,0:0:0:0:
468,116,7732,2,0,B|516:180|460:256,1,130,0|2,0:0|0:0,0:0:0:0:
368,312,8589,6,0,B|288:304|256:216,1,130,0|2,0:0|0:0,0:0:0:0:
266,110,9446,2,0,B|298:38|402:46,1,130,0|2,0:0|0:0,0:0:0:0:
352,176,10303,5,0,0:0:0:0:
221,176,10732,1,2,0:0:0:0:
91,176,11160,1,0,0:0:0:0:
120,116,11375,1,0,0:0:0:0:
148,56,11589,1,2,0:0:0:0:
278,56,12018,6,0,P|340:72|424:40,1,130,0|2,0:0|0:0,0:0:0:0:
336,168,12875,1,0,0:0:0:0:
352,232,13089,1,0,0:0:0:0:
336,296,13303,1,2,0:0:0:0:
205,296,13732,6,0,B|281:211|121:147|209:51,1,260,4|2,0:0|0:0,0:0:0:0:
308,136,15017,1,0,0:0:0:0:
344,260,15446,1,2,0:0:0:0:
216,240,15875,5,0,0:0:0:0:
216,240,16089,1,0,0:0:0:0:
216,240,16303,1,2,0:0:0:0:
92,296,16732,1,2,0:0:0:0:
211,336,17160,6,0,B|179:280|115:336|75:280,1,130,0|2,0:0|0:0,0:0:0:0:
116,236,17803,1,0,0:0:0:0:
92,176,18018,2,0,B|124:120|188:176|228:112,1,130,0|2,0:0|0:0,0:0:0:0:
264,168,18660,1,0,0:0:0:0:
212,208,18875,2,0,B|244:272|308:192|332:288,1,130,0|2,0:0|0:0,0:0:0:0:
376,296,19518,1,0,0:0:0:0:
432,260,19732,1,2,0:0:0:0:
376,144,20160,1,2,0:0:0:0:
256,192,20589,12,0,22732,0:0:0:0:
320,144,23160,6,0,B|252:184|168:132,2,130,2|0|2,0:0|0:0|0:0,0:0:0:0:
256,256,24446,1,0,0:0:0:0:
256,256,24875,1,2,0:0:0:0:
136,200,25303,1,0,0:0:0:0:
256,144,25732,5,2,0:0:0:0:
256,144,26160,1,0,0:0:0:0:
376,200,26589,1,2,0:0:0:0:
376,135,26803,1,0,0:0:0:0:
376,69,27018,1,2,0:0:0:0:
256,120,27446,6,0,B|256:176|304:192,2,65,4|0|2,0:0|0:0|0:0,0:0:0:0:
136,168,28303,2,0,B|136:224|184:240,2,65,0|0|2,0:0|0:0|0:0,0:0:0:0:
40,88,29160,2,0,B|96:40|192:56,1,130,0|2,0:0|0:0,0:0:0:0:
212,92,29803,1,0,0:0:0:0:
268,128,30018,2,0,B|324:72|416:104,1,130,0|2,0:0|0:0,0:0:0:0:
336,216,30875,6,0,B|296:232|280:272,2,65,0|0|2,0:0|0:0|0:0,0:0:0:0:
428,308,31732,2,0,B|419:333|379:349,2,65,0|0|2,0:0|0:0|0:0,0:0:0:0:
300,336,32589,5,4,0:0:0:0:
168,336,33018,1,4,0:0:0:0:
168,206,33446,1,4,0:0:0:0:
168,206,33660,1,0,0:0:0:0:
168,206,33875,1,4,0:0:0:0:
256,108,34303,6,2,B|304:52|392:84,1,130,4|8,0:0|0:0,0:0:0:0:
472,164,35160,2,2,B|432:220|336:204,1,130,0|8,0:0|0:0,0:0:0:0:
256,292,36018,2,2,B|192:228|96:292|16:204,1,260,0|0,0:0|0:0,0:0:0:0:
112,116,37303,6,0,B|152:164|212:112|248:176,1,130,8|4,0:0|0:0,0:0:0:0:
184,276,38160,1,8,0:0:0:0:
314,276,38589,1,0,0:0:0:0:
256,160,39018,1,8,0:0:0:0:
385,160,39446,2,0,P|449:140|457:64,1,130,4|8,0:0|0:0,0:0:0:0:
336,64,40303,1,0,0:0:0:0:
208,84,40732,1,8,0:0:0:0:
144,196,41160,6,2,P|212:212|276:192,1,130,0|8,0:0|0:0,0:0:0:0:
384,136,42018,1,0,0:0:0:0:
404,200,42232,1,0,0:0:0:0:
384,264,42446,1,8,0:0:0:0:
253,264,42875,5,4,0:0:0:0:
144,192,43303,1,8,0:0:0:0:
256,128,43732,1,0,0:0:0:0:
140,68,44160,1,8,0:0:0:0:
64,172,44589,6,0,B|96:212|144:204,2,65,2|0|8,0:0|0:0|0:0,0:0:0:0:
188,216,45446,2,0,B|220:256|268:248,2,65,2|0|8,0:0|0:0|0:0,0:0:0:0:
308,172,46303,2,0,B|340:212|388:212,2,65,2|0|8,0:0|0:0|0:0,0:0:0:0:
292,108,46946,2,2,B|328:28|400:28|436:116,1,195,2|8,0:0|0:0,0:0:0:0:
424,240,48017,5,4,0:0:0:0:
312,172,48446,2,0,B|312:324,1,130,8|0,0:0|0:0,0:0:0:0:
260,340,49089,1,0,0:0:0:0:
208,300,49303,2,0,B|208:140,1,130,8|0,0:0|0:0,0:0:0:0:
96,240,50160,1,8,0:0:0:0:
96,240,50375,1,0,0:0:0:0:
96,240,50589,1,0,0:0:0:0:
172,132,51017,1,8,0:0:0:0:
256,244,51446,5,4,0:0:0:0:
316,128,51875,1,8,0:0:0:0:
376,240,52303,2,0,B|312:288|248:236,1,130,0|8,0:0|0:0,0:0:0:0:
111,239,53160,6,0,B|39:239,2,65,2|0|8,0:0|0:0|0:0,0:0:0:0:
240,240,54017,2,0,B|160:240,2,65,2|0|8,0:0|0:0|0:0,0:0:0:0:
370,240,54875,5,4,0:0:0:0:
260,172,55303,2,0,B|308:100|396:116,1,130,8|0,0:0|0:0,0:0:0:0:
408,60,55946,1,0,0:0:0:0:
444,116,56160,1,8,0:0:0:0:
500,232,56589,6,2,B|436:360|260:320,1,260,0|2,0:0|0:0,0:0:0:0:
196,168,57875,1,8,0:0:0:0:
88,240,58303,6,0,B|88:328,2,65,4|0|8,0:0|0:0|0:0,0:0:0:0:
88,174,58946,1,0,0:0:0:0:
88,109,59160,2,0,B|176:109,2,65,4|0|8,0:0|0:0|0:0,0:0:0:0:
200,172,60017,6,0,B|200:301,1,130,4|8,0:0|0:0,0:0:0:0:
136,300,60660,1,4,0:0:0:0:
266,300,61089,1,0,0:0:0:0:
304,248,61303,1,4,0:0:0:0:
268,192,61517,1,4,0:0:0:0:
232,248,61732,1,4,0:0:0:0:
408,64,68589,6,0,B|408:216,2,130,4|8|0,0:0|0:0|0:0,0:0:0:0:
280,104,69875,1,8,0:0:0:0:
216,88,70089,1,0,0:0:0:0:
152,72,70303,1,0,0:0:0:0:
56,160,70732,1,8,0:0:0:0:
100,284,71160,1,0,0:0:0:0:
224,320,71589,1,8,0:0:0:0:
264,196,72017,5,2,0:0:0:0:
132,200,72446,2,0,B|116:120|188:96,2,130,8|2|8,0:0|0:0|0:0,0:0:0:0:
196,212,73517,1,0,0:0:0:0:
260,228,73732,2,0,B|324:168|260:84,1,130,2|8,0:0|0:0,0:0:0:0:
396,60,74589,1,2,0:0:0:0:
396,189,75017,1,2,0:0:0:0:
396,319,75446,6,0,B|324:359|252:311,2,130,4|8|0,0:0|0:0|0:0,0:0:0:0:
336,204,76732,1,8,0:0:0:0:
304,80,77160,2,0,B|216:96|216:192,2,130,0|8|0,0:0|0:0|0:0,0:0:0:0:
176,68,78446,1,8,0:0:0:0:
304,80,78875,6,0,B|400:72|432:152,1,130,0|8,0:0|0:0,0:0:0:0:
448,184,79518,1,0,0:0:0:0:
424,244,79732,2,0,B|272:244,1,130,0|8,0:0|0:0,0:0:0:0:
228,356,80589,2,0,B|76:356,1,130,0|8,0:0|0:0,0:0:0:0:
164,244,81446,1,2,0:0:0:0:
164,244,81660,1,0,0:0:0:0:
164,244,81875,1,2,0:0:0:0:
128,96,82303,6,0,B|400:96,1,260,4|0,0:0|0:0,0:0:0:0:
324,208,83589,2,0,B|164:208,1,130,8|0,0:0|0:0,0:0:0:0:
194,338,84446,1,8,0:0:0:0:
194,207,84875,1,0,0:0:0:0:
304,276,85303,1,8,0:0:0:0:
236,164,85732,6,0,B|396:164,1,130,4|8,0:0|0:0,0:0:0:0:
304,276,86589,2,0,B|152:276,1,130,4|8,0:0|0:0,0:0:0:0:
256,192,87446,12,4,89160,0:0:0:0:
