osu file format v11

[General]
AudioFilename: Katekyo Hitman Reborn OP 7 HD.mp3
AudioLeadIn: 0
PreviewTime: 55939
Countdown: 0
SampleSet: Soft
StackLeniency: 0.7
Mode: 0
LetterboxInBreaks: 1

[Editor]
DistanceSpacing: 1.1
BeatDivisor: 4
GridSize: 8

[Metadata]
Title:Funny Sunny Day (TV Size)
TitleUnicode:Funny Sunny Day (TV Size)
Artist:SxOxU
ArtistUnicode:SxOxU
Creator:Linn
Version:Normal
Source:Katekyo Hitman Reborn!
Tags:Katekyoushi Anime Opening 7 Shonen
BeatmapID:182326
BeatmapSetID:61081

[Difficulty]
HPDrainRate:2
CircleSize:3
OverallDifficulty:1
ApproachRate:2
SliderMultiplier:0.9
SliderTickRate:1

[Events]
//Background and Video events
0,0,"Katekyo.Hitman.REBORN!.full.632048.jpg"
Video,0,"Katekyo Hitman Reborn OP 7 HD [Funny Sunny Days]_(480p).flv"
//Break Periods
//Storyboard Layer 0 (Background)
//Storyboard Layer 1 (Fail)
//Storyboard Layer 2 (Pass)
//Storyboard Layer 3 (Foreground)
//Storyboard Sound Samples
//Background Colour Transformations
3,100,163,162,255

[TimingPoints]
14019.4329452414,333.363013394098,4,2,1,70,1,0
56689,-100,4,2,1,70,0,1
78025,-100,4,2,1,30,0,0

[Colours]
Combo1 : 128,255,255
Combo2 : 255,155,55
Combo3 : 170,0,0
Combo4 : 97,0,193
Combo5 : 0,0,160
Combo6 : 128,255,0

[HitObjects]
64,224,14019,2,0,B|104:240|144:232|160:208,1,90,4|8,0:0|0:0,0:0:0
216,144,14686,2,0,B|240:128|280:120|320:144,1,90,0|8,0:0|0:0,0:0:0
288,232,15352,1,0,0:0:0
384,232,15686,1,8,0:0:0
464,176,16019,5,0,0:0:0
440,80,16352,2,0,B|336:80,1,90,8|4,0:0|0:0,0:0:0
256,40,17019,2,0,B|216:56|216:120|296:144|320:200|304:256|272:288|256:288,1,270,8|0,0:0|0:0,0:0:0
200,216,18353,2,0,B|160:248|160:280|160:312|160:312|128:344,2,135,8|0|4,0:0|0:0|0:0,0:0:0
104,192,19686,5,8,0:0:0
128,96,20019,1,0,0:0:0
200,32,20353,1,8,0:0:0
280,96,20686,2,0,B|312:192,3,90,0|8|0|8,0:0|0:0|0:0|0:0,0:0:0
264,272,22020,6,0,B|320:296|376:280|400:232|400:232,2,135,4|0|8,0:0|0:0|0:0,0:0:0
184,216,23353,1,0,0:0:0
184,120,23686,1,8,0:0:0
104,176,24020,2,0,B|64:224,4,45,0|0|8|0|4,0:0|0:0|0:0|0:0|0:0,0:0:0
200,208,25020,6,0,B|240:224|288:272,1,90,8|0,0:0|0:0,0:0:0
352,200,25687,2,0,B|400:176|432:128,2,90,8|0|8,0:0|0:0|0:0,0:0:0
320,104,26687,2,0,B|296:112|272:160|272:160|208:160,2,135,0|0|8,0:0|0:0|0:0,0:0:0
232,56,28020,1,0,0:0:0
144,104,28354,2,0,B|40:104,3,90,8|0|8|0,0:0|0:0|0:0|0:0,0:0:0
96,200,29687,2,0,B|96:296,1,90,8|4,0:0|0:0,0:0:0
184,248,30354,5,8,0:0:0
256,320,30687,1,0,0:0:0
328,248,31020,1,8,0:0:0
256,184,31354,2,0,B|256:88,3,90,0|8|0|8,0:0|0:0|0:0|0:0,0:0:0
176,32,32687,2,0,B|160:48|160:48|160:128|160:128|136:160,2,135,4|0|8,0:0|0:0|0:0,0:0:0
256,96,34021,1,0,0:0:0
256,192,34354,1,8,0:0:0
256,288,34687,2,0,B|256:352,4,45,0|0|8|0|4,0:0|0:0|0:0|0:0|0:0,0:0:0
144,288,35688,6,0,B|112:240|112:200,2,90,8|0|8,0:0|0:0|0:0,0:0:0
224,216,36688,1,0,0:0:0
328,216,37021,1,8,0:0:0
408,288,37354,2,0,B|440:240|440:200,3,90,0|8|0|8,0:0|0:0|0:0|0:0,0:0:0
344,152,38688,1,0,0:0:0
280,240,39021,1,8,0:0:0
192,176,39355,2,0,B|192:248|192:272|192:272|192:272,3,90,0|8|0|8,0:0|0:0|0:0|0:0,0:0:0
96,320,40688,6,0,B|72:296|64:264|64:240|64:208|64:128,1,180,4|0,0:0|0:0,0:0:0
160,168,41688,2,0,B|256:168,2,90,8|0|8,0:0|0:0|0:0,0:0:0
216,248,42688,2,0,B|112:248,2,90,0|8|4,0:0|0:0|0:0,0:0:0
280,320,43688,1,8,0:0:0
352,248,44022,1,0,0:0:0
424,312,44355,2,0,B|448:280|448:240|432:208|424:192|424:192|424:120,1,180,8|8,0:0|0:0,0:0:0
368,56,45355,1,0,0:0:0
288,112,45688,1,8,0:0:0
208,56,46022,6,0,B|192:96|192:120|200:152,3,90,4|8|0|8,0:0|0:0|0:0|0:0,0:0:0
112,192,47355,1,0,0:0:0
184,264,47689,1,8,0:0:0
256,200,48022,6,0,B|344:200,1,90,0|8,0:0|0:0,0:0:0
424,144,48689,2,0,B|424:56,3,90,4|8|0|8,0:0|0:0|0:0|0:0,0:0:0
336,96,50022,1,0,0:0:0
256,160,50356,1,8,0:0:0
184,88,50689,1,0,0:0:0
112,160,51022,1,8,0:0:0
168,240,51356,6,0,B|216:272|272:272|304:264|344:240,1,180,4|0,0:0|0:0,0:0:0
336,144,52356,2,0,B|288:112|232:112|200:120|160:144,1,180,8|8,0:0|0:0,0:0:0
208,232,53356,2,0,B|232:208|272:208|296:240,1,90,0|8,0:0|0:0,0:0:0
256,192,54022,12,0,55689,0:0:0
120,104,56023,6,0,B|104:136|112:184|128:216|152:240|192:248,1,180,0|4,0:0|0:0,0:0:0
216,152,57023,2,0,B|256:160|272:184|280:208,2,90,8|0|8,0:0|0:0|0:0,0:0:0
216,56,58023,1,0,0:0:0
304,96,58356,2,0,B|368:96,2,45,8|8|0,0:0|0:0|0:0,0:0:0
328,192,59023,1,8,0:0:0
328,288,59356,1,0,0:0:0
240,240,59690,2,0,B|144:240,2,90,8|0|8,0:0|0:0|0:0,0:0:0
288,328,60690,2,0,B|344:304|344:256|344:232|344:232|344:152,1,180
344,72,61690,5,8,0:0:0
248,56,62023,2,0,B|160:56|160:56|120:56|96:104|112:136,1,180,4|0,0:0|0:0,0:0:0
208,144,63023,1,8,0:0:0
208,240,63357,1,0,0:0:0
296,192,63690,1,8,0:0:0
296,288,64023,1,0,0:0:0
384,248,64357,1,8,0:0:0
392,344,64690,2,0,B|432:344|464:320|496:296|488:200,1,180,4|0,0:0|0:0,0:0:0
416,152,65690,2,0,B|416:64,2,90,8|0|8,0:0|0:0|0:0,0:0:0
336,208,66690,5,0,0:0:0
272,136,67024,1,8,0:0:0
200,208,67357,1,4,0:0:0
272,280,67690,2,0,B|272:344,2,45,8|8|0,0:0|0:0|0:0,0:0:0
336,208,68357,1,8,0:0:0
432,232,68690,2,0,B|440:200|432:160|416:144,1,90,0|8,0:0|0:0,0:0:0
320,144,69357,6,0,B|272:152|232:144|216:128,1,90,0|8,0:0|0:0,0:0:0
256,40,70024,2,0,B|200:32|176:56|160:72|144:80|120:104|112:152,1,180,4|0,0:0|0:0,0:0:0
152,224,71024,1,8,0:0:0
216,296,71357,2,0,B|304:296,2,90,0|8|0,0:0|0:0|0:0,0:0:0
264,208,72357,5,8,0:0:0
320,128,72691,2,0,B|304:80|264:64|232:56|192:56|184:64|160:80,2,180,4|0|0,0:0|0:0|0:0,0:0:0
272,216,74358,1,8,0:0:0
240,312,74691,2,0,B|195:336|155:322|126:306|96:279|96:268|88:240,2,180
280,224,76358,1,8,0:0:0
352,288,76691,2,4,B|440:288,2,90
400,80,78025,6,0,B|392:120|376:152|336:184|304:200|280:208,2,180,4|8|4,0:0|0:0|0:0,0:0:0
184,80,80025,1,0,0:0:0
256,192,80692,12,4,83358,0:0:0
