osu file format v11

[General]
AudioFilename: Katekyo Hitman Reborn OP 7 HD.mp3
AudioLeadIn: 0
PreviewTime: 55939
Countdown: 0
SampleSet: Soft
StackLeniency: 0.7
Mode: 0
LetterboxInBreaks: 1

[Editor]
DistanceSpacing: 1.2
BeatDivisor: 4
GridSize: 8

[Metadata]
Title:Funny Sunny Day (TV Size)
TitleUnicode:Funny Sunny Day (TV Size)
Artist:SxOxU
ArtistUnicode:SxOxU
Creator:Linn
Version:Hard
Source:Katekyo Hitman Reborn!
Tags:Katekyoushi Anime Opening 7 Shonen
BeatmapID:182325
BeatmapSetID:61081

[Difficulty]
HPDrainRate:8
CircleSize:4
OverallDifficulty:6
ApproachRate:8
SliderMultiplier:1.4
SliderTickRate:1

[Events]
//Background and Video events
0,0,"Katekyo.Hitman.REBORN!.full.632048.jpg"
Video,0,"Katekyo Hitman Reborn OP 7 HD [Funny Sunny Days]_(480p).flv"
//Break Periods
//Storyboard Layer 0 (Background)
//Storyboard Layer 1 (Fail)
//Storyboard Layer 2 (Pass)
//Storyboard Layer 3 (Foreground)
//Storyboard Sound Samples
//Background Colour Transformations
3,100,163,162,255

[TimingPoints]
14019.4329452414,333.363013394098,4,2,1,70,1,0
56689,-100,4,2,1,70,0,1
78025,-100,4,2,1,30,0,0

[Colours]
Combo1 : 128,255,255
Combo2 : 255,155,55
Combo3 : 170,0,0
Combo4 : 97,0,193
Combo5 : 0,0,160
Combo6 : 128,255,0

[HitObjects]
256,56,14019,1,4,0:0:0
112,136,14352,2,0,B|112:232,1,70,8|0,0:0|0:0,0:0:0
48,264,14686,2,0,B|96:304|160:264|160:264|208:264,2,140,0|8|0,0:0|0:0|0:0,0:0:0
56,96,15686,1,8,0:0:0
192,192,16019,2,0,B|280:192,1,70
256,272,16352,2,0,B|352:272,1,70,8|0,0:0|0:0,0:0:0
336,192,16686,5,4,0:0:0
336,192,16853,1,0,0:0:0
336,192,17019,2,0,B|336:104|336:104|336:48|296:24|240:48,1,210,8|0,0:0|0:0,0:0:0
264,128,17686,2,0,B|264:344,1,210,8|0,0:0|0:0,0:0:0
344,304,18353,5,8,0:0:0
344,224,18519,1,0,0:0:0
448,88,18853,1,0,0:0:0
448,168,19019,1,8,0:0:0
296,104,19353,6,0,B|208:104,1,70,4|0,0:0|0:0,0:0:0
168,48,19686,2,0,B|144:96|152:136|160:160|192:184,2,140,8|0|8,0:0|0:0|0:0,0:0:0
80,48,20520,1,0,0:0:0
80,128,20686,2,0,B|80:280,1,140,0|8,0:0|0:0,0:0:0
176,128,21353,1,0,0:0:0
176,216,21520,1,0,0:0:0
176,296,21686,1,8,0:0:0
328,232,22020,2,0,B|384:232|400:232|400:232|416:232|464:224|488:192,1,140,4|8,0:0|0:0,0:0:0
400,152,22520,6,0,B|344:152|328:152|328:152|312:152|264:160|240:192,1,140
263,171,23020,1,8,0:0:0
120,264,23353,2,0,B|40:264,2,70,0|0|8,0:0|0:0|0:0,0:0:0
208,264,23853,1,0,0:0:0
256,336,24020,1,0,0:0:0
304,264,24187,1,0,0:0:0
384,264,24353,2,0,B|440:264,4,35,0|0|0|0|4,0:0|0:0|0:0|0:0|0:0,0:0:0
256,136,25020,6,0,B|176:136|176:136|144:136|128:160|128:208|120:184|120:184,2,140,8|0|8,0:0|0:0|0:0,0:0:0
216,208,25853,2,0,B|304:208,1,70
344,264,26187,1,0,0:0:0
408,216,26353,1,8,0:0:0
344,160,26520,1,0,0:0:0
416,120,26687,2,0,B|416:16,2,105
344,160,27353,5,4,0:0:0
408,216,27520,1,0,0:0:0
344,264,27687,2,0,B|304:240|256:248|240:304|184:304|128:272,1,210,8|0,0:0|0:0,0:0:0
192,208,28354,5,8,0:0:0
120,168,28520,1,0,0:0:0
192,120,28687,2,0,B|272:120,1,70
328,64,29020,1,8,0:0:0
328,64,29187,2,0,B|360:104|352:144|336:168|336:168|336:208,1,140
336,280,29687,1,8,0:0:0
168,280,30020,6,0,B|168:240|168:240|144:208,1,70,4|0,0:0|0:0,0:0:0
80,264,30354,2,0,B|48:208|72:160|112:136,2,140,0|0|8,0:0|0:0|0:0,0:0:0
112,344,31187,1,0,0:0:0
168,280,31354,2,0,B|256:280,2,70,0|0|8,0:0|0:0|0:0,0:0:0
112,120,32021,5,0,0:0:0
256,208,32354,1,8,0:0:0
400,120,32687,2,0,B|512:120,2,105,4|8|0,0:0|0:0|0:0,0:0:0
424,200,33354,1,0,0:0:0
256,192,33687,12,4,35021,0:0:0
112,80,35354,6,0,B|112:176,1,70,0|0,0:0|0:0,0:0:0
192,128,35688,2,0,B|192:224,1,70,8|0,0:0|0:0,0:0:0
272,176,36021,2,0,B|296:200|384:200|408:176,2,140,0|8|0,0:0|0:0|0:0,0:0:0
272,344,37021,2,0,B|296:320|384:320|408:344,1,140,8|0,0:0|0:0,0:0:0
408,176,37688,5,8,0:0:0
240,176,38021,1,0,0:0:0
136,48,38354,2,0,B|120:80|120:80|120:120,1,70,8|0,0:0|0:0,0:0:0
200,88,38688,2,0,B|344:88,2,140,0|8|0,0:0|0:0|0:0,0:0:0
128,240,39688,1,8,0:0:0
256,352,40021,1,0,0:0:0
384,240,40355,1,12,0:0:0
256,128,40688,6,0,B|176:128|176:128|120:160,1,140,4|8,0:0|0:0,0:0:0
192,208,41188,1,0,0:0:0
160,288,41355,2,0,B|240:288|240:288|296:256,2,140,0|8|0,0:0|0:0|0:0,0:0:0
304,344,42355,1,8,0:0:0
456,272,42688,6,0,B|456:192,1,70
376,232,43022,2,0,B|304:232,1,70,8|0,0:0|0:0,0:0:0
248,296,43355,2,0,B|208:264|208:208|232:168|256:160,2,140,4|8|0,0:0|0:0|0:0,0:0:0
392,208,44355,1,8,0:0:0
392,208,44688,1,0,0:0:0
256,104,45022,6,0,B|256:200,1,70,8|0,0:0|0:0,0:0:0
208,240,45355,1,0,0:0:0
304,240,45522,1,0,0:0:0
256,304,45688,1,8,0:0:0
168,160,46022,6,0,B|120:160|120:160|80:160|48:128|48:112,2,140,4|8|0,0:0|0:0|0:0,0:0:0
256,304,47022,1,8,0:0:0
344,160,47355,2,0,B|392:160|392:160|432:160|464:128|464:112,2,140,0|8|0,0:0|0:0|0:0,0:0:0
256,16,48355,5,8,0:0:0
176,160,48689,2,0,B|176:240,1,70
256,200,49022,2,0,B|256:280,1,70,8|0,0:0|0:0,0:0:0
192,320,49355,2,0,B|224:360|296:360|328:312,2,140,0|8|0,0:0|0:0|0:0,0:0:0
256,160,50356,1,8,0:0:0
88,160,50689,1,0,0:0:0
168,16,51022,1,8,0:0:0
168,184,51356,6,0,B|168:232|168:232|176:272|200:304|232:296,2,140,4|8|0,0:0|0:0|0:0,0:0:0
336,224,52356,2,0,B|336:176|336:176|328:136|304:104|272:112,2,140,8|0|8,0:0|0:0|0:0,0:0:0
440,96,53356,1,0,0:0:0
440,176,53522,1,0,0:0:0
440,264,53689,1,8,0:0:0
256,192,54022,12,0,55689,0:0:0
80,128,56023,5,8,0:0:0
96,128,56106,1,0,0:0:0
112,128,56189,1,0,0:0:0
128,128,56273,1,0,0:0:0
144,128,56356,2,0,B|288:128,1,140,0|4,0:0|0:0,0:0:0
336,64,56856,5,0,0:0:0
400,120,57023,1,8,0:0:0
344,176,57189,1,8,0:0:0
400,240,57356,2,0,B|480:240,2,70,0|0|8,0:0|0:0|0:0,0:0:0
344,176,57856,2,0,B|312:216|312:248|320:280|352:312,1,140
264,336,58356,1,8,0:0:0
184,304,58523,1,8,0:0:0
248,248,58690,6,0,B|248:176,1,70
168,216,59023,2,0,B|96:216,1,70,8|0,0:0|0:0,0:0:0
136,136,59356,2,0,B|88:136|88:136|48:136|16:168|16:184,1,140,0|8,0:0|0:0,0:0:0
96,216,59856,1,8,0:0:0
48,288,60023,1,0,0:0:0
144,288,60190,6,0,B|168:248|216:280|248:296|280:280|296:272,1,140
248,200,60690,1,0,0:0:0
336,200,60857,1,0,0:0:0
384,272,61023,1,8,0:0:0
472,272,61190,1,8,0:0:0
432,200,61356,6,0,B|432:160|432:160|416:136,2,70,0|0|8,0:0|0:0|0:0,0:0:0
352,176,61857,2,0,B|328:144|352:104|376:72|352:32,1,140,4|0,0:0|0:0,0:0:0
280,72,62357,1,8,0:0:0
232,136,62523,1,8,0:0:0
168,80,62690,5,0,0:0:0
128,152,62857,2,0,B|104:184|104:184|104:224,1,70,0|8,0:0|0:0,0:0:0
184,224,63190,2,0,B|232:232|280:216|304:200|320:176,1,140
368,248,63690,5,8,0:0:0
432,192,63857,1,0,0:0:0
368,136,64023,1,0,0:0:0
304,192,64190,1,0,0:0:0
288,112,64357,1,8,0:0:0
344,48,64523,2,0,B|280:16|224:48|216:80|208:120,2,175
352,216,65690,1,8,0:0:0
184,216,66024,1,0,0:0:0
256,64,66357,1,8,0:0:0
416,104,66690,5,4,0:0:0
416,120,66774,1,0,0:0:0
416,136,66857,1,0,0:0:0
416,152,66940,2,0,B|416:288,1,105
336,232,67357,2,0,B|304:200|272:232|232:248|200:224,1,140,4|8,0:0|0:0,0:0:0
240,152,67857,1,8,0:0:0
328,152,68024,5,0,0:0:0
288,80,68190,1,0,0:0:0
200,80,68357,1,8,0:0:0
160,152,68524,2,0,B|176:200|240:232|312:200|344:128,1,210,0|8,0:0|0:0,0:0:0
392,208,69191,1,8,0:0:0
464,168,69357,6,0,B|496:200|456:248,2,70,0|0|8,0:0|0:0|0:0,0:0:0
416,104,69857,2,0,B|368:104|344:136|344:136|264:136,1,140
312,56,70357,1,8,0:0:0
224,56,70524,1,8,0:0:0
176,120,70691,1,0,0:0:0
224,192,70857,1,0,0:0:0
312,192,71024,1,8,0:0:0
360,120,71191,2,0,B|392:152|392:200|392:200|392:256,2,140
312,192,72024,5,8,0:0:0
256,256,72191,1,0,0:0:0
208,192,72357,1,8,0:0:0
256,120,72524,2,0,B|224:96|200:96|168:112|168:112|112:112,1,140,4|0,0:0|0:0,0:0:0
152,40,73024,1,8,0:0:0
72,192,73358,6,0,B|72:272,2,70,0|0|8,0:0|0:0|0:0,0:0:0
144,144,73858,1,0,0:0:0
208,192,74024,1,0,0:0:0
272,144,74191,1,0,0:0:0
336,200,74358,2,8,B|336:272,1,70
416,256,74691,1,0,0:0:0
488,208,74858,1,0,0:0:0
416,160,75024,1,8,0:0:0
256,192,75191,12,4,76358,0:0:0
256,72,76691,5,4,0:0:0
256,72,77025,1,12,0:0:0
256,240,77358,2,0,B|256:168,3,70,0|0|8|0,0:0|0:0|0:0|0:0,0:0:0
184,216,78025,2,0,B|176:256|184:296|224:320|224:320|264:320,1,140,4|8,0:0|0:0,0:0:0
416,312,78691,1,0,0:0:0
416,224,78858,1,0,0:0:0
312,96,79191,5,0,0:0:0
224,96,79358,2,0,B|224:264,1,140,12|0,0:0|0:0,0:0:0
64,288,80025,1,8,0:0:0
144,288,80191,1,0,0:0:0
256,192,80692,12,4,83358,0:0:0
