osu file format v12

[General]
AudioFilename: 01 Meant to Live.mp3
AudioLeadIn: 0
PreviewTime: -1
Countdown: 1
SampleSet: None
StackLeniency: 0.7
Mode: 0
LetterboxInBreaks: 1
WidescreenStoryboard: 0

[Editor]
Bookmarks: 37634
DistanceSpacing: 1
BeatDivisor: 8
GridSize: 4
TimelineZoom: 1

[Metadata]
Title:Meant to Live
TitleUnicode:Meant to Live
Artist:Switchfoot
ArtistUnicode:Switchfoot
Creator:Teara
Version:Hard
Source:
Tags:
BeatmapID:429430
BeatmapSetID:178520

[Difficulty]
HPDrainRate:7
CircleSize:4
OverallDifficulty:8
ApproachRate:8
SliderMultiplier:3
SliderTickRate:1

[Events]
//Background and Video events
0,0,"1366x768_21-Switchfoot-Official-HD-Wallpaper.jpg",0,0
//Break Periods
2,67130,72514
2,120970,131105
//Storyboard Layer 0 (Background)
//Storyboard Layer 1 (Fail)
//Storyboard Layer 2 (Pass)
//Storyboard Layer 3 (Foreground)
//Storyboard Sound Samples
//Background Colour Transformations
3,100,163,162,255

[TimingPoints]
422,791.765637371338,4,2,0,60,1,0
5172,-133.333333333333,4,2,0,60,0,0
6756,-100,4,3,0,80,0,0
19424,-100,4,2,0,80,0,0
25758,-100,4,3,0,80,0,0
32092,-100,4,2,0,80,0,0
39218,-100,4,3,0,80,0,0
44760,-100,4,2,0,80,0,0
132250,-133.333333333333,4,2,0,80,0,0
152441,-66.6666666666667,4,2,0,80,0,1
158775,-100,4,2,0,80,0,0

[Colours]
Combo1 : 128,64,64
Combo2 : 128,128,128
Combo3 : 255,255,255

[HitObjects]
156,324,5172,6,0,P|256:164|352:328,1,450.000017166138,0|4,0:0|2:0,0:0:0:0:
292,320,6954,1,0,0:0:0:0:
256,272,7152,1,0,0:0:0:0:
192,88,7547,6,0,P|256:52|320:88,2,150,2|0|0,0:0|0:0|0:0,0:0:0:0:
156,136,8537,1,0,0:0:0:0:
168,196,8735,1,0,3:0:0:0:
320,295,9131,6,0,P|257:331|193:298,2,150,2|0|0,0:0|0:0|0:0,0:0:0:0:
356,248,10121,1,0,0:0:0:0:
344,188,10319,1,0,3:0:0:0:
176,136,10714,6,0,P|132:192|172:256,2,150,2|0|0,0:0|0:0|0:0,0:0:0:0:
232,156,11704,1,8,0:0:0:0:
264,208,11902,1,8,0:0:0:0:
268,268,12100,1,0,0:0:0:0:
232,316,12298,1,8,0:0:0:0:
176,340,12496,1,0,0:0:0:0:
116,332,12694,1,8,0:0:0:0:
72,292,12892,1,2,0:0:0:0:
44,240,13090,5,4,0:2:0:0:
88,128,13486,1,0,0:0:0:0:
184,56,13882,2,0,B|272:48|328:120,1,150,2|0,0:0|0:0,0:0:0:0:
200,136,14673,1,0,0:0:0:0:
200,136,15069,1,0,0:0:0:0:
200,136,15465,2,0,B|276:160|284:264,1,150,2|0,0:0|0:0,0:0:0:0:
412,328,16257,2,0,P|232:328|192:208,1,300
424,48,17840,5,8,0:0:0:0:
276,80,18236,1,0,0:0:0:0:
332,128,18434,1,8,0:0:0:0:
456,216,18830,1,0,0:0:0:0:
384,240,19028,1,8,0:0:0:0:
384,240,19424,6,0,P|312:256|280:192,1,150,4|0,0:0|0:0,0:0:0:0:
352,176,20018,1,2,0:0:0:0:
160,176,20414,1,2,0:0:0:0:
128,240,20612,2,0,P|200:256|232:192,1,150,0|0,0:0|0:0,0:0:0:0:
256,48,21403,1,0,0:0:0:0:
256,120,21601,2,0,L|256:280,2,150,2|2|0,0:0|0:0|0:0,0:0:0:0:
192,72,22591,6,0,P|256:40|328:80,2,150,2|0|2,0:0|0:0|0:0,0:0:0:0:
48,120,23779,1,2,0:0:0:0:
80,184,23977,1,2,0:0:0:0:
464,120,24570,1,2,0:0:0:0:
432,184,24768,1,2,0:0:0:0:
256,192,25164,1,2,0:0:0:0:
256,192,25758,5,4,0:0:0:0:
192,232,25956,1,0,0:0:0:0:
120,232,26154,1,0,0:0:0:0:
192,232,26550,1,8,0:0:0:0:
120,232,26748,1,0,0:0:0:0:
80,168,26946,1,0,0:0:0:0:
120,232,27342,1,0,0:0:0:0:
80,168,27539,1,0,0:0:0:0:
104,96,27737,1,0,0:0:0:0:
256,80,28133,5,8,0:0:0:0:
256,304,28529,1,8,0:0:0:0:
256,192,28925,5,4,0:0:0:0:
320,232,29123,1,0,0:0:0:0:
392,232,29321,1,0,0:0:0:0:
320,232,29717,1,8,0:0:0:0:
392,232,29915,1,0,0:0:0:0:
432,168,30113,1,0,0:0:0:0:
392,232,30509,1,0,0:0:0:0:
432,168,30706,1,0,0:0:0:0:
408,96,30904,1,0,0:0:0:0:
256,80,31300,5,8,0:0:0:0:
256,304,31696,1,8,0:0:0:0:
152,192,32092,6,0,P|80:152|96:80,1,150,4|2,0:0|0:0,0:0:0:0:
56,240,32884,1,2,0:0:0:0:
56,240,33082,2,0,P|94:311|208:248,1,225,2|0,0:0|0:0,0:0:0:0:
136,288,34072,1,2,0:0:0:0:
208,312,34269,2,0,P|288:296|328:240,1,150,0|2,0:0|0:0,0:0:0:0:
304,72,35259,6,0,P|224:88|184:144,1,150,2|2,0:0|0:0,0:0:0:0:
248,208,35853,1,0,0:0:0:0:
384,72,36249,2,0,P|345:142|232:96,1,225,2|2,0:0|0:0,0:0:0:0:
384,72,37239,1,0,0:0:0:0:
440,128,37437,2,0,P|424:208|200:152,1,375,2|4,0:0|0:0,0:0:0:0:
232,96,38624,1,0,0:0:0:0:
304,112,38822,1,0,0:0:0:0:
352,256,39218,5,8,0:0:0:0:
280,272,39416,1,0,0:0:0:0:
232,216,39614,1,0,0:0:0:0:
304,200,39812,1,0,0:0:0:0:
280,272,40010,1,8,0:0:0:0:
208,288,40208,1,0,0:0:0:0:
160,232,40406,1,0,0:0:0:0:
160,232,40802,5,8,0:0:0:0:
256,120,41197,1,8,0:0:0:0:
280,272,41593,5,4,0:0:0:0:
208,288,41791,1,0,0:0:0:0:
160,232,41989,1,0,0:0:0:0:
160,232,42385,5,8,0:0:0:0:
144,160,42583,1,0,0:0:0:0:
200,112,42781,1,0,0:0:0:0:
216,184,42979,1,0,0:0:0:0:
144,160,43177,1,8,0:0:0:0:
128,88,43375,1,0,0:0:0:0:
184,40,43573,1,0,0:0:0:0:
184,40,43969,5,8,0:0:0:0:
184,40,44364,1,8,0:0:0:0:
336,40,44760,6,0,P|272:152|416:192,1,300,4|2,0:0|0:0,0:0:0:0:
256,256,45948,1,2,0:0:0:0:
184,232,46146,2,0,P|272:184|336:272,1,225,2|0,0:0|0:0,0:0:0:0:
256,256,46938,2,0,P|264:328|336:344,1,150,2|2,0:0|0:0,0:0:0:0:
344,200,47729,2,0,P|216:128|200:328,1,375,2|0,0:0|0:0,0:0:0:0:
232,320,48917,5,2,0:0:0:0:
304,312,49115,1,0,0:0:0:0:
368,272,49313,1,2,0:0:0:0:
368,272,49709,1,2,0:0:0:0:
368,272,50105,2,0,P|464:216|432:112,1,225,2|0,0:0|0:0,0:0:0:0:
312,48,51095,5,0,0:0:0:0:
296,120,51292,1,2,0:0:0:0:
200,336,51688,1,0,0:0:0:0:
216,264,51885,1,8,0:0:0:0:
296,120,52282,1,0,0:0:0:0:
424,192,52678,2,0,L|160:192,1,225,2|0,0:0|0:0,0:0:0:0:
144,240,53470,1,8,0:0:0:0:
400,248,54262,5,0,0:0:0:0:
328,232,54459,1,2,0:0:0:0:
112,136,54855,1,0,0:0:0:0:
184,152,55052,1,8,0:0:0:0:
328,232,55449,1,0,0:0:0:0:
200,312,55845,2,0,L|224:216,1,75,0|8,0:0|0:0,0:0:0:0:
264,176,56241,2,0,L|336:120,2,75,8|0|8,0:0|0:0|0:0,0:0:0:0:
128,136,57033,1,8,0:0:0:0:
128,136,57429,6,0,P|144:272|232:208,1,300,4|8,0:0|0:0,0:0:0:0:
128,136,58616,1,2,0:0:0:0:
64,96,58814,2,0,P|160:64|200:168,1,225,2|0,0:0|0:0,0:0:0:0:
264,200,59606,2,0,P|200:232|136:184,1,150,2|2,0:0|0:0,0:0:0:0:
272,128,60398,2,0,P|432:152|368:320,1,375,2|8,0:0|0:0,0:0:0:0:
312,304,61585,5,2,0:0:0:0:
240,296,61783,1,0,0:0:0:0:
184,248,61981,1,2,0:0:0:0:
256,64,62377,1,2,0:0:0:0:
328,248,62773,1,2,0:0:0:0:
328,248,62971,6,0,P|400:152|464:264,1,225,4|0,0:0|0:0,0:0:0:0:
400,232,63763,2,0,P|320:176|384:80,1,225,2|0,0:0|0:0,0:0:0:0:
392,160,64555,2,0,P|336:240|240:176,1,225,4|0,0:0|0:0,0:0:0:0:
304,152,65346,5,2,0:0:0:0:
240,112,65544,1,0,0:0:0:0:
168,144,65742,1,8,0:0:0:0:
232,184,65940,1,0,0:0:0:0:
304,152,66138,1,8,0:0:0:0:
240,112,66336,1,0,0:0:0:0:
168,144,66534,1,8,0:0:0:0:
256,264,66930,1,4,0:0:0:0:
328,320,73264,6,0,P|256:336|168:312,1,150,4|2,0:0|0:0,0:0:0:0:
216,176,74056,1,2,0:0:0:0:
288,176,74254,2,0,B|440:120|416:280|528:200,2,225,2|2|2,0:0|0:0|0:0,0:0:0:0:
168,88,75837,6,0,P|112:216|168:280,1,225,2|2,0:0|0:0,0:0:0:0:
200,184,76629,1,2,0:0:0:0:
200,184,77025,6,0,P|143:141|8:192,2,225,2|2|2,0:0|0:0|0:0,0:0:0:0:
416,240,78806,2,0,P|328:288|288:256,1,150,2|12,0:0|0:0,0:0:0:0:
256,120,79598,5,4,0:0:0:0:
200,168,79796,1,0,0:0:0:0:
128,192,79994,1,0,0:0:0:0:
240,288,80390,1,8,0:0:0:0:
176,248,80588,1,0,0:0:0:0:
128,192,80786,1,0,0:0:0:0:
16,296,81182,1,0,0:0:0:0:
80,256,81379,1,0,0:0:0:0:
128,192,81577,1,0,0:0:0:0:
128,192,81973,5,8,0:0:0:0:
384,192,82369,1,8,0:0:0:0:
256,120,82765,5,4,0:0:0:0:
312,168,82963,1,0,0:0:0:0:
384,192,83161,1,0,0:0:0:0:
272,288,83557,1,8,0:0:0:0:
336,248,83755,1,0,0:0:0:0:
384,192,83953,1,0,0:0:0:0:
496,296,84349,1,0,0:0:0:0:
432,256,84546,1,0,0:0:0:0:
384,192,84744,1,0,0:0:0:0:
384,192,85140,5,8,0:0:0:0:
128,192,85536,1,4,0:0:0:0:
176,336,85932,6,0,P|280:232|248:80,1,300,2|2,0:0|0:0,0:0:0:0:
192,128,86922,1,2,0:0:0:0:
88,240,87318,1,2,0:0:0:0:
40,296,87516,2,0,P|8:224|56:168,3,150,2|0|2|0,0:0|0:0|0:0|0:0,0:0:0:0:
320,288,89495,5,2,0:0:0:0:
176,256,89891,1,0,0:0:0:0:
320,200,90287,1,2,0:0:0:0:
176,168,90683,1,0,0:0:0:0:
320,112,91079,1,2,0:0:0:0:
248,88,91277,1,0,0:0:0:0:
248,88,91376,1,0,0:0:0:0:
248,88,91475,2,0,L|248:184,1,75,4|0,0:0|0:0,0:0:0:0:
248,240,91870,1,4,0:0:0:0:
256,192,94642,5,8,0:0:0:0:
256,192,95037,1,4,0:0:0:0:
112,264,98600,6,0,P|224:328|264:184,1,300,4|8,0:0|0:0,0:0:0:0:
128,192,99788,1,2,0:0:0:0:
56,160,99986,2,0,P|144:112|208:200,1,225,2|0,0:0|0:0,0:0:0:0:
128,192,100778,2,0,P|160:256|256:256,1,150,2|2,0:0|0:0,0:0:0:0:
216,120,101569,2,0,P|88:48|72:248,1,375,2|8,0:0|0:0,0:0:0:0:
96,256,102757,5,2,0:0:0:0:
168,272,102955,1,0,0:0:0:0:
240,272,103153,1,2,0:0:0:0:
392,272,103549,1,2,0:0:0:0:
392,272,103945,2,0,P|488:216|456:112,1,225,2|0,0:0|0:0,0:0:0:0:
320,72,104935,5,0,0:0:0:0:
384,120,105133,2,0,P|328:152|240:88,1,150,2|0,0:0|0:0,0:0:0:0:
320,72,105726,2,0,P|376:40|464:104,1,150,8|0,0:0|0:0,0:0:0:0:
472,216,106518,2,0,P|392:280|296:200,1,225,2|0,0:0|0:0,0:0:0:0:
384,200,107310,1,8,0:0:0:0:
80,192,108102,5,0,0:0:0:0:
128,136,108300,2,0,P|160:192|112:256,1,150,2|0,0:0|0:0,0:0:0:0:
80,192,108892,1,8,0:0:0:0:
208,112,109289,1,0,0:0:0:0:
184,264,109685,2,0,L|208:168,1,75,0|8,0:0|0:0,0:0:0:0:
328,264,110081,2,0,L|304:176,1,75,8|0,0:0|0:0,0:0:0:0:
248,144,110477,1,8,0:0:0:0:
248,144,110873,1,8,0:0:0:0:
380,120,111269,6,0,P|256:48|128:120,1,300,4|8,0:0|0:0,0:0:0:0:
256,196,112456,1,2,0:0:0:0:
320,236,112654,2,0,P|224:268|184:164,1,225,2|0,0:0|0:0,0:0:0:0:
256,196,113446,2,0,P|239:265|161:283,1,150,2|2,0:0|0:0,0:0:0:0:
148,136,114238,2,0,P|312:136|304:316,1,375,2|8,0:0|0:0,0:0:0:0:
236,320,115425,5,2,0:0:0:0:
164,304,115623,1,0,0:0:0:0:
108,256,115821,1,2,0:0:0:0:
228,164,116217,1,2,0:0:0:0:
348,256,116613,1,2,0:0:0:0:
276,276,116811,6,0,P|348:180|420:240,1,225,12|0,0:0|0:0,0:0:0:0:
348,256,117603,2,0,P|268:200|280:140,1,150,2|0,0:0|0:0,0:0:0:0:
340,184,118197,1,0,0:0:0:0:
335,108,118395,2,0,P|402:135|413:206,1,150,12|0,0:0|0:0,0:3:0:0:
256,192,119186,12,4,120770,0:0:0:0:
184,72,131855,5,0,0:0:0:0:
272,60,132053,1,8,0:0:0:0:
364,56,132250,1,8,0:0:0:0:
456,56,132448,1,0,0:0:0:0:
456,56,132646,5,8,0:0:0:0:
372,168,133042,1,0,0:0:0:0:
264,144,133438,2,0,P|308:260|408:276,1,225.000008583069,2|2,0:0|0:0,0:0:0:0:
372,168,134626,2,0,P|336:56|232:56,1,225.000008583069,2|2,0:0|0:0,0:0:0:0:
260,160,135814,1,0,0:0:0:0:
148,164,136209,2,0,P|184:276|288:276,1,225.000008583069,2|2,0:0|0:0,0:0:0:0:
272,348,138585,5,2,0:0:0:0:
184,352,138981,1,0,0:0:0:0:
224,272,139376,1,2,0:0:0:0:
136,56,140168,1,2,0:0:0:0:
136,148,140563,1,0,0:0:0:0:
56,96,140959,1,2,0:0:0:0:
376,148,141751,1,2,0:0:0:0:
376,56,142147,1,0,0:0:0:0:
456,96,142543,1,2,0:0:0:0:
456,96,143335,1,2,0:0:0:0:
56,56,144919,5,2,0:0:0:0:
144,76,145314,1,0,0:0:0:0:
200,148,145710,2,0,P|156:264|60:260,1,225.000008583069,2|2,0:0|0:0,0:0:0:0:
124,192,146898,1,0,0:0:0:0:
200,148,147294,2,0,P|316:192|312:288,1,225.000008583069,2|2,0:0|0:0,0:0:0:0:
240,228,148482,1,0,0:0:0:0:
316,148,148877,2,0,P|431:160|468:252,1,225.000008583069,2|2,0:0|0:0,0:0:0:0:
256,300,150857,5,2,0:0:0:0:
256,256,151055,1,2,0:0:0:0:
256,164,151451,1,2,0:0:0:0:
256,72,151847,1,2,0:0:0:0:
256,72,152441,5,4,0:0:0:0:
168,48,152638,1,0,0:0:0:0:
80,60,152836,1,0,0:3:0:0:
12,120,153034,1,0,0:0:0:0:
0,216,153232,1,8,0:0:0:0:
48,292,153430,2,0,P|100:296|164:264,1,112.500004291535,8|0,0:3|0:0,0:0:0:0:
180,184,153826,1,0,0:0:0:0:
332,184,154024,5,0,0:0:0:0:
372,264,154222,1,0,0:0:0:0:
440,320,154420,1,8,0:3:0:0:
448,232,154618,2,0,P|432:164|376:112,1,112.500004291535,8|8,0:3|0:0,0:0:0:0:
324,96,155014,1,8,0:3:0:0:
256,156,155212,1,4,0:0:0:0:
188,96,155410,1,0,0:0:0:0:
8,220,155608,6,0,P|64:172|112:168,1,112.500004291535,8|0,0:3|0:0,0:0:0:0:
92,252,156003,1,8,0:3:0:0:
172,296,156201,1,0,0:0:0:0:
256,328,156399,1,8,0:0:0:0:
340,296,156597,1,0,0:0:0:0:
420,252,156795,1,0,0:0:0:0:
340,216,156993,5,0,0:0:0:0:
288,144,157191,1,0,0:0:0:0:
260,232,157389,1,0,0:0:0:0:
220,96,157587,1,0,0:0:0:0:
176,228,157785,1,0,0:0:0:0:
160,60,157983,5,8,0:0:0:0:
116,52,158082,1,0,0:0:0:0:
72,64,158181,1,0,0:0:0:0:
44,96,158280,1,0,0:0:0:0:
24,136,158379,1,0,0:0:0:0:
24,180,158478,1,0,0:0:0:0:
36,224,158577,1,0,0:0:0:0:
60,260,158676,1,0,0:0:0:0:
104,276,158775,5,4,0:0:0:0:
256,44,159171,1,2,0:0:0:0:
256,44,159368,1,2,0:0:0:0:
408,276,159963,1,2,0:0:0:0:
484,228,160161,2,0,P|404:180|320:248,1,187.5,2|0,0:0|0:0,0:0:0:0:
256,108,160953,2,0,L|256:272,1,150,2|2,0:0|0:0,0:0:0:0:
392,140,161744,2,0,P|256:32|120:140,1,375,2|0,0:0|0:0,0:0:0:0:
196,188,162932,5,2,0:0:0:0:
256,256,163130,1,0,0:0:0:0:
336,296,163328,1,2,0:0:0:0:
428,328,163724,1,2,0:0:0:0:
316,188,164120,2,0,P|276:104|144:80,1,225,2|4,0:0|0:0,0:0:0:0:
396,152,165109,6,0,P|284:88|244:232,1,300,4|8,0:0|0:0,0:0:0:0:
176,40,166297,1,2,0:0:0:0:
96,84,166495,2,0,P|196:132|264:56,1,225,2|0,0:0|0:0,0:0:0:0:
176,40,167287,2,0,P|184:112|256:128,1,150,2|2,0:0|0:0,0:0:0:0:
420,192,168078,2,0,P|256:268|84:192,1,375,2|0,0:0|0:0,0:0:0:0:
172,168,169266,5,2,0:0:0:0:
256,132,169464,1,0,0:0:0:0:
340,168,169662,1,2,0:0:0:0:
340,168,170058,1,2,0:0:0:0:
340,168,170454,2,0,P|436:112|360:48,1,225,2|0,0:0|0:0,0:0:0:0:
256,176,171443,6,0,P|368:252|404:120,1,300,4|8,0:0|0:0,0:0:0:0:
252,56,172631,1,2,0:0:0:0:
168,88,172829,2,0,P|268:136|344:60,1,225,2|0,0:0|0:0,0:0:0:0:
252,56,173621,2,0,P|260:128|332:144,1,150,2|2,0:0|0:0,0:0:0:0:
508,140,174412,2,0,P|380:68|312:252,1,375,2|0,0:0|0:0,0:0:0:0:
372,292,175600,5,2,0:0:0:0:
456,320,175798,1,0,0:0:0:0:
436,232,175996,1,2,0:0:0:0:
436,232,176392,1,2,0:0:0:0:
436,232,176788,2,0,P|380:136|276:168,1,225,2|0,0:0|0:0,0:0:0:0:
408,72,177777,6,0,P|312:128|352:320,1,300,2|0,0:0|0:0,0:0:0:0:
208,204,178965,1,2,0:0:0:0:
192,132,179163,2,0,P|104:216|272:320,1,375,0|4,0:0|0:0,0:0:0:0:
0,192,180944,6,0,P|16:120|100:68,1,150,2|0,0:0|0:0,0:0:0:0:
116,136,181538,2,0,P|200:224|304:56,1,375,2|0,0:0|0:0,0:0:0:0:
240,88,182726,5,0,0:0:0:0:
172,56,182923,1,0,0:0:0:0:
180,132,183121,1,0,0:0:0:0:
112,100,183319,1,8,0:3:0:0:
120,176,183517,1,0,0:0:0:0:
188,204,183715,1,0,0:0:0:0:
248,160,183913,1,0,0:0:0:0:
180,132,184111,1,4,0:0:0:0:
240,88,184309,5,0,0:0:0:0:
308,56,184507,1,8,0:3:0:0:
360,112,184705,1,0,0:0:0:0:
356,188,184903,1,0,0:0:0:0:
356,188,185101,1,0,0:0:0:0:
296,232,185299,1,0,0:0:0:0:
232,268,185497,1,0,0:0:0:0:
160,292,185695,5,8,0:3:0:0:
92,260,185893,1,0,0:0:0:0:
92,260,186091,1,0,0:0:0:0:
140,204,186288,1,0,0:0:0:0:
208,176,186486,2,0,P|144:84|32:200,1,300,0|4,0:0|0:0,0:0:0:0:
