osu file format v9

[General]
AudioFilename: 07 Swinging Popsicle - (a) SLOW STAR (DJ SHIMAMURA Remix).mp3
AudioLeadIn: 0
PreviewTime: -1
Countdown: 1
SampleSet: Normal
StackLeniency: 0.7
Mode: 0
LetterboxInBreaks: 1

[Editor]
DistanceSpacing: 0.8
BeatDivisor: 4
GridSize: 8

[Metadata]
Title:(a) SLOW STAR (DJ SHIMAMURA Remix)
Artist:Swinging Popsicle
Creator:Ania chan
Version:
Source:
Tags:Swinging Popsicle DJ SHIMAMURA

[Difficulty]
HPDrainRate:5
CircleSize:5
OverallDifficulty:5
ApproachRate:5
SliderMultiplier:1.4
SliderTickRate:2

[Events]
//Background and Video events
//Break Periods
2,23011,26818
2,198797,199876
//Storyboard Layer 0 (Background)
//Storyboard Layer 1 (Fail)
//Storyboard Layer 2 (Pass)
//Storyboard Layer 3 (Foreground)
//Storyboard Sound Samples
//Background Colour Transformations
3,100,163,162,255

[TimingPoints]
2,991.735537190083,3,1,2,100,1,0

[HitObjects]
176,80,1241,1,0
248,192,1737,1,0
392,160,1985,1,0
392,96,2481,1,0
336,280,2729,1,0
248,312,3225,1,0
144,224,3721,1,0
136,136,3968,1,0
168,96,4464,1,0
248,104,4960,1,0
280,160,5208,1,0
264,216,5704,1,0
152,232,6200,1,0
88,208,6448,1,0
96,136,6696,1,0
128,136,7192,1,0
192,160,7440,1,0
224,200,7935,1,0
264,232,8183,1,0
304,216,8431,1,0
312,136,8927,1,0
248,120,9175,1,0
184,128,9671,1,0
112,208,9919,1,0
72,232,10167,1,0
80,112,10663,1,0
280,88,12150,5,0
56,136,12894,1,0
344,176,13638,1,0
296,48,14382,1,0
144,224,15125,1,0
80,80,15621,1,0
368,232,16365,1,0
304,72,17109,1,0
56,208,17853,1,0
40,80,18349,1,0
344,272,19092,1,0
352,200,19836,1,0
256,192,21076,12,0,22811
128,128,28018,5,0
256,224,28266,1,0
352,120,28762,1,0
384,176,29258,1,0
344,272,29506,1,0
256,328,29754,1,0
152,256,30249,1,0
136,136,30745,1,0
168,112,30993,1,0
256,104,31489,1,0
296,184,31737,1,0
288,272,31985,1,0
344,272,32481,1,0
392,176,32729,1,0
368,128,33225,1,0
280,128,34464,5,0
240,168,34960,1,0
136,200,35208,1,0
64,192,35456,1,0
48,144,35952,1,0
88,96,36200,1,0
88,96,36448,1,0
136,168,36944,1,0
152,216,37192,1,0
216,256,37440,1,0
280,256,37687,1,0
336,224,37935,1,0
248,96,38431,1,0
168,88,38927,1,0
160,176,39175,1,0
144,224,39423,1,0
80,232,39919,1,0
64,120,40167,1,0
64,120,40663,1,0
192,88,40911,1,0
224,80,41159,1,0
272,136,41654,1,0
280,184,41902,1,0
328,184,42398,1,0
384,96,42646,1,0
256,16,42894,1,0
152,120,43142,1,0
104,160,43390,1,0
24,104,43638,1,0
128,64,43886,1,0
304,168,44630,1,0
136,160,45869,1,0
344,104,46117,1,0
408,96,46613,1,0
376,216,46861,1,0
328,240,47357,1,0
224,208,47605,1,0
176,128,48101,1,0
176,56,48349,1,0
120,40,48597,1,0
56,64,49092,1,0
64,144,49340,1,0
120,192,49588,1,0
160,192,49836,1,0
216,144,50332,1,0
216,144,50580,1,0
144,72,51820,5,0
144,72,52068,1,0
192,128,52316,1,0
272,144,52563,1,0
360,80,53059,1,0
376,48,53307,1,0
432,80,53555,1,0
400,136,54051,1,0
8,96,54547,1,0
264,128,55043,1,0
240,280,55539,1,0
128,128,56035,1,0
248,96,56282,1,0
432,72,57026,1,0
216,168,57522,1,0
128,160,57770,1,0
136,56,58018,1,0
200,112,58266,1,0
240,184,58762,1,0
344,224,59010,1,0
384,208,59258,1,0
240,104,60249,1,0
136,152,60497,1,0
56,144,60745,1,0
96,48,61241,1,0
352,208,61737,1,0
392,48,62729,1,0
288,160,63225,1,0
232,160,63473,1,0
112,32,63721,1,0
112,32,63968,1,0
344,128,64464,1,0
368,168,64712,1,0
392,200,64960,1,0
176,144,67440,6,0,B|352:176|128:200,2,210
160,112,72646,1,0
216,176,72894,1,0
272,232,73142,1,0
392,152,73390,1,0
328,88,73886,1,0
280,112,74382,1,0
128,152,74630,1,0
96,176,75125,1,0
88,128,75621,1,0
88,128,75869,1,0
296,88,76861,5,0
272,152,77357,1,0
224,192,77605,1,0
224,192,77853,1,0
144,184,78349,1,0
128,152,78597,1,0
144,112,78844,1,0
344,80,79836,5,0
304,160,80332,1,0
304,160,80580,1,0
208,160,80828,1,0
184,144,81076,1,0
240,64,81324,1,0
376,80,81820,1,0
376,80,82563,5,0
352,128,82811,1,0
304,160,83059,1,0
224,152,83307,1,0
192,104,83555,1,0
160,104,83803,1,0
136,168,84051,1,0
152,200,84299,1,0
224,200,84547,1,0
288,128,85539,5,0
288,128,85787,1,0
224,200,86035,1,0
168,160,86282,1,0
184,96,86778,1,0
288,64,87026,1,0
360,88,87274,1,0
440,48,88266,5,0
368,152,88762,1,0
160,176,89258,1,0
120,176,89754,1,0
104,48,90745,1,0
392,184,92729,1,0
56,176,93473,1,0
144,80,94960,1,0
400,208,96448,1,0
64,184,97687,1,0
368,96,99175,1,0
128,168,100663,1,0
320,48,102150,1,0
80,136,103390,1,0
424,216,104878,1,0
80,88,106117,1,0
440,80,107605,1,0
64,200,109092,1,0
440,224,110332,1,0
24,72,111820,5,0
408,88,112563,1,0
56,160,113803,1,0
128,160,115539,1,0
192,160,116778,1,0
240,160,118266,1,0
304,160,119506,1,0
368,160,120993,1,0
432,160,122233,1,0
72,96,124712,1,0
256,192,127687,12,0,129671
104,80,130415,5,0
264,112,130911,1,0
168,224,131654,1,0
320,104,132150,1,0
368,192,132894,1,0
176,104,133638,1,0
376,88,134382,1,0
272,232,134878,1,0
120,104,135621,1,0
240,48,135869,1,0
320,144,136365,1,0
128,208,136861,1,0
56,128,137357,1,0
128,72,137853,1,0
280,112,138349,1,0
328,248,138597,1,0
136,232,139092,1,0
112,152,139588,1,0
256,96,140084,1,0
256,96,140580,1,0
120,104,141076,1,0
80,96,141572,1,0
80,96,141820,1,0
80,96,142316,1,0
80,96,142563,1,0
160,104,143059,1,0
160,104,143307,1,0
160,104,143803,1,0
160,104,144051,1,0
264,104,144547,1,0
264,104,145043,1,0
264,104,145539,1,0
344,104,145787,1,0
344,104,146035,1,0
344,104,146530,1,0
400,96,146778,1,0
400,96,147274,1,0
400,96,147522,1,0
320,184,148018,1,0
112,80,148762,1,0
256,216,149506,1,0
296,104,150002,1,0
208,88,150249,1,0
384,192,151241,1,0
304,160,151489,1,0
352,144,151985,1,0
288,112,152977,5,0
248,120,153225,1,0
136,64,153968,1,0
176,64,154216,1,0
160,152,154464,1,0
200,208,154712,1,0
304,176,155456,1,0
328,112,155704,1,0
288,96,155952,1,0
304,176,156200,1,0
200,104,156448,1,0
208,152,156696,1,0
376,88,156944,1,0
96,152,157440,1,0
104,232,157687,1,0
136,96,158183,1,0
208,80,158431,1,0
256,80,158679,1,0
208,80,159175,1,0
360,120,159671,1,0
392,80,159919,1,0
312,200,160167,1,0
240,216,160415,1,0
208,208,160663,1,0
200,80,161159,1,0
144,96,161654,1,0
128,208,161902,1,0
128,208,162398,1,0
320,240,162646,1,0
368,224,163142,1,0
336,112,163390,1,0
96,64,164134,1,0
216,120,164382,1,0
208,152,164630,1,0
144,208,164878,1,0
144,208,165125,1,0
368,88,165373,1,0
192,64,165869,1,0
128,176,166117,1,0
296,224,166613,1,0
312,272,166861,1,0
416,152,167357,1,0
216,72,167605,1,0
328,128,168101,1,0
120,192,168597,1,0
304,192,169836,5,0
80,128,170084,5,0
208,56,170580,1,0
320,112,170828,1,0
360,256,171324,1,0
360,112,171820,1,0
184,88,172316,1,0
192,192,172811,1,0
264,208,173307,1,0
360,144,173803,1,0
320,112,174051,1,0
224,152,174299,1,0
320,112,174795,1,0
80,96,175787,1,0
264,240,176035,1,0
400,112,176282,1,0
144,256,176778,1,0
48,240,177274,1,0
96,120,177522,1,0
304,160,178018,1,0
368,304,178514,1,0
416,176,179010,1,0
336,112,179258,1,0
224,160,179506,1,0
184,216,180002,1,0
96,104,180249,1,0
352,128,181489,1,0
280,232,181737,1,0
136,280,182233,1,0
96,152,182481,1,0
200,104,182729,1,0
344,88,183968,5,0
264,176,184464,1,0
176,224,184712,1,0
96,128,184960,1,0
144,104,185456,1,0
288,240,185704,1,0
360,304,185952,1,0
432,176,186448,1,0
344,112,186696,1,0
200,96,188679,5,0
344,128,189919,1,0
240,128,191159,5,0
80,160,191902,1,0
384,224,192646,1,0
216,128,193390,1,0
144,200,193886,1,0
104,64,195125,5,0
352,152,195621,1,0
216,176,196117,1,0
256,192,197605,12,0,198597
152,120,201076,5,0
368,120,201820,1,0
72,240,202563,1,0
352,64,203307,1,0
416,264,204051,1,0
120,200,204795,1,0
360,80,205539,1,0
456,168,206530,1,0
120,168,207026,1,0
264,88,208514,5,0
128,208,209506,1,0
384,168,210002,1,0
376,72,210249,1,0
248,80,210497,1,0
192,192,210993,1,0
184,264,211241,1,0
304,264,211489,1,0
336,56,212977,5,0
240,160,213225,1,0
144,200,213721,1,0
120,72,213968,1,0
184,152,215456,2,0,B|272:232|352:208|-48:144|200:168,3,280
144,96,222646,2,0,B|320:152,1,175
120,112,226861,1,0
320,144,227605,1,0
80,264,228349,1,0
120,64,229092,1,0
240,272,229588,1,0
288,120,230332,1,0
40,208,231076,1,0
120,80,232068,1,0
120,80,232316,1,0
264,112,232563,1,0
296,160,233059,1,0
264,224,233307,1,0
168,224,233555,1,0
96,144,234051,1,0
192,296,234547,1,0
320,144,235043,1,0
392,168,235291,1,0
344,264,235539,1,0
136,128,236035,1,0
104,56,236282,1,0
40,232,236778,1,0
352,144,237770,1,0
224,32,238266,1,0
160,200,238514,1,0
192,224,238762,1,0
280,240,239010,1,0
384,144,239258,1,0
368,104,239754,1,0
104,120,240249,1,0
216,80,240745,1,0
256,120,240993,1,0
264,240,241489,1,0
400,208,241737,1,0
128,72,243225,5,0
248,200,243473,1,0
352,176,243721,1,0
312,48,244464,1,0
216,208,244712,1,0
160,272,244960,1,0
88,248,245208,1,0
312,56,246448,5,0
288,120,246696,1,0
160,208,247192,1,0
80,120,247687,1,0
168,64,247935,1,0
152,192,248927,1,0
224,224,249175,1,0
296,208,249671,1,0
312,72,250663,5,0
296,112,251159,1,0
280,184,251406,1,0
112,176,251654,1,0
96,88,252150,1,0
280,56,253142,5,0
304,128,253390,1,0
344,192,253886,1,0
192,64,255621,5,0
192,128,256117,1,0
256,168,256365,1,0
360,176,256861,1,0
328,104,258349,5,0
280,160,258844,1,0
208,144,259092,1,0
264,144,261572,5,0
208,192,261820,1,0
128,96,262068,1,0
192,40,262316,1,0
328,144,263307,5,0
312,224,263555,1,0
200,224,263803,1,0
160,112,264051,1,0
232,32,264299,1,0
352,48,264795,1,0
392,216,265043,1,0
400,272,265291,1,0
416,96,266282,1,0
120,88,267026,1,0
208,120,267770,1,0
320,144,268514,1,0
320,144,269010,1,0
320,144,269258,1,0
320,144,269754,1,0
320,144,270002,1,0
320,144,270497,1,0
320,144,270993,1,0
320,144,271241,1,0
320,144,271737,1,0
320,144,271985,1,0
320,144,272481,1,0
320,144,272729,1,0
320,144,272977,1,0
320,144,273473,1,0
320,144,273721,1,0
320,144,273968,1,0
320,144,274464,1,0
320,144,274712,1,0
320,144,274960,1,0
320,144,275456,1,0
320,144,275704,1,0
320,144,276200,1,0
320,144,276448,1,0
320,144,276696,1,0
320,144,277192,1,0
320,144,277440,1,0
320,144,277687,1,0
320,144,277935,1,0
320,144,278183,1,0
320,144,278679,1,0
320,144,278927,1,0
320,144,279423,1,0
320,144,279671,1,0
320,144,279919,1,0
320,144,280415,1,0
320,144,280663,1,0
320,144,280911,1,0
320,144,281406,1,0
320,144,281654,1,0
320,144,281902,1,0
320,144,282150,1,0
320,144,282646,1,0
320,144,283142,1,0
320,144,283390,1,0
320,144,283638,1,0
192,152,283886,1,0
272,104,284382,1,0
304,192,284630,1,0
376,248,284878,1,0
432,192,285125,1,0
424,112,285373,1,0
352,128,285621,1,0
88,136,286117,1,0
144,8,286613,1,0
200,144,286861,1,0
224,104,287605,1,0
