osu file format v5

[General]
AudioFilename: 105 - Secret World - Sweetune.mp3
AudioLeadIn: 0
PreviewTime: -1
Countdown: 1
SampleSet: Normal
StackLeniency: 0.7
Mode: 0
LetterboxInBreaks: 1
EditorDistanceSpacing: 0.800000011920929

[Metadata]
Title:Secret World
Artist:Sweetune
Creator:der Ubermensch
Version:Hardish
Source:DjMax Portable - Black Square
Tags:

[Difficulty]
HPDrainRate:9
CircleSize:6
OverallDifficulty:7
SliderMultiplier:1.3
SliderTickRate:1

[Events]
//Background and Video events
1,160,"video (1).wmv"
//Break Periods
2,23722,28346
2,41472,42950
2,58925,59857
//Storyboard Layer 0 (Background)
//Storyboard Layer 1 (Failing)
//Storyboard Layer 2 (Passing)
//Storyboard Layer 3 (Foreground)
//Storyboard Sound Samples
//Background Colour Transformations
3,100,0,0,0

[TimingPoints]
106,544.516245487367,4,1,0,100,1,0
114,544.514021236047,4,1,0,100,1,0
26274,545.416245487367,4,1,0,100,1,0

[Colours]
Combo1 : 128,140,77
Combo2 : 163,211,33
Combo3 : 39,176,205
Combo4 : 209,83,35
Combo5 : 202,53,172

[HitObjects]
160,160,8826,1,8
192,160,8962,1,0
256,160,9234,2,0,B|352:160|352:160,1,65
352,160,9643,1,0
416,160,9915,2,0,B|416:256|416:256,1,65
416,288,10459,1,0
352,288,11004,5,8
320,288,11140,1,0
256,288,11412,2,0,B|160:288|160:288,1,65
160,288,11821,1,0
96,288,12093,2,0,B|96:192|96:192,1,65
96,160,12637,1,0
96,96,12910,1,8
160,96,13182,6,0,B|224:96,1,32.5
256,96,13590,1,0
320,96,13862,2,0,B|384:96,1,32.5
416,96,14271,1,0
480,96,14543,1,0
480,160,14815,1,0
224,288,15360,6,0,B|224:192|224:192,3,65
224,160,16449,1,0
192,160,16585,1,0
128,160,16857,1,0
64,160,17266,1,0
64,224,17538,6,0,B|128:224,1,32.5,0|0
160,224,17946,1,0
224,224,18219,1,0
256,224,18355,1,0
320,224,18627,2,0,B|416:224|416:224,2,65
320,160,19716,5,0
288,160,19852,1,0
224,160,20124,1,0
160,160,20397,2,0,B|96:160|96:160,1,32.5
64,160,20805,1,0
64,224,21077,1,0
64,288,21350,1,0
128,288,21622,1,0
192,288,21894,5,0
224,288,22030,1,0
288,288,22302,1,0
352,288,22575,1,0
384,288,22711,1,0
448,288,22983,1,0
448,224,23255,1,0
448,160,23528,1,0
224,224,29546,5,0
288,160,29819,1,0
224,160,30091,1,0
288,224,30364,1,0
288,288,31455,5,0
224,288,31728,1,0
160,288,32000,1,0
96,288,32273,1,0
96,224,32546,1,0
96,160,32818,1,0
96,96,33091,1,0
128,96,33227,1,0
192,224,34455,6,0,B|192:320,1,81.25
288,64,35818,6,0,B|288:128,1,32.5
288,160,36091,1,0
288,224,36364,1,0
288,288,36636,1,0
352,288,36909,1,0
448,288,37455,1,0
448,224,38000,2,0,B|448:64,1,130
384,96,38818,1,0
320,96,39091,1,0
256,96,40182,6,0,B|256:192,3,65
256,224,41272,1,0
256,192,44000,5,0
320,192,44272,1,0
384,192,44545,1,0
384,160,44681,1,0
384,96,45090,2,0,B|288:96,1,65
256,96,45636,1,0
224,96,45772,1,0
256,160,47272,5,0
320,160,47545,2,0,B|416:160,1,65
320,224,48363,5,0
256,224,48636,1,0
192,224,48908,1,0
160,224,49045,1,0
96,224,49454,1,0
96,160,49726,1,0
96,96,49999,1,0
96,64,50135,1,0
160,64,50545,6,0,B|256:64,6,65
224,64,52726,5,0
224,128,52999,1,0
224,192,53272,1,0
224,224,53408,1,0
224,288,53817,1,0
288,288,54090,1,0
352,288,54362,1,0
352,224,54635,2,0,B|352:128,3,65
288,160,55999,5,0
224,160,56272,1,0
160,160,56545,1,0
160,224,57362,5,0
224,224,57635,1,0
288,224,58180,2,0,B|384:224,2,65
128,96,60907,5,0
192,96,61180,1,0
192,160,61726,1,0
128,160,61998,1,0
128,224,62544,1,0
256,96,63089,5,0
320,160,63362,1,0
256,160,63908,1,0
320,96,64180,1,0
320,224,64726,1,0
320,288,65271,5,0
256,288,65543,1,0
192,288,66089,1,0
192,224,66362,1,0
192,160,66907,2,0,B|192:64,4,65
256,160,69634,5,0
320,160,69907,1,0
320,224,70452,1,0
256,224,70724,1,0
192,224,71270,1,0
192,288,71816,5,0
256,288,72088,1,0
192,64,72634,1,0
256,64,72907,1,0
320,64,73452,1,0
288,160,73997,5,0
224,224,74270,1,0
224,160,74816,1,0
288,224,75088,1,0
352,224,75634,2,0,B|352:128,4,65
224,160,78906,5,0
288,160,79179,1,0
288,224,79452,1,0
256,224,79588,1,0
192,224,79997,1,0
192,160,80270,1,0
256,160,80542,1,0
288,160,80679,1,0
352,128,82179,5,0
352,192,82451,1,0
352,256,82724,1,0
96,256,83269,5,0
96,192,83542,1,0
96,128,83815,1,0
96,96,83951,1,0
160,96,84360,1,0
160,160,84633,1,0
160,224,84906,1,0
160,256,85042,1,0
224,256,86269,2,0,B|224:160,3,65
288,256,87633,5,0
352,256,87906,1,0
416,256,88178,1,0
416,224,88315,1,0
416,160,88724,2,0,B|320:160,2,65
416,96,89542,1,0
352,96,89814,1,0
288,96,90087,1,0
224,96,90360,1,0
224,160,90905,2,0,B|224:256,2,65
160,160,92269,5,0
96,160,92542,1,0
96,224,93087,2,0,B|192:224,2,65
256,192,96087,5,4
