osu file format v5

[General]
AudioFilename: my ass.mp3
AudioLeadIn: 0
PreviewTime: 54886
Countdown: 0
SampleSet: Normal
StackLeniency: 0.7
Mode: 0
LetterboxInBreaks: 1
EditorBookmarks: 7899,23781,52213,74290,80656
EditorDistanceSpacing: 1

[Metadata]
Title:Real Emotion
Artist:Sweetbox
Creator:JarJarJacob
Version:Easy Rikku
Source:Final Fantasy X-2
Tags:

[Difficulty]
HPDrainRate:4
CircleSize:4
OverallDifficulty:4
SliderMultiplier:1.5
SliderTickRate:2

[Events]
//Background and Video events
1,-256,"get_video.avi"
0,0,"rikku.jpg"
//Break Periods
2,22192,22681
2,47826,50085
//Storyboard Layer 0 (Background)
//Storyboard Layer 1 (Failing)
//Storyboard Layer 2 (Passing)
//Storyboard Layer 3 (Foreground)
//Storyboard Sound Samples
//Background Colour Transformations
3,100,163,162,255

[TimingPoints]
1324,472.44094488189,4,1,1,70,1,0
9764,-100,4,1,0,70,0,0
11227,-100,4,1,1,70,0,0
11409,-100,4,1,0,70,0,0
13092,-100,4,1,1,70,0,0
13417,-100,4,1,0,70,0,0
15425,-100,4,1,0,70,0,0
16809,-100,4,1,1,70,0,0
17078,-100,4,1,0,70,0,0
24686,-100,4,1,1,70,0,0
24803,-100,4,1,0,70,0,0
39799,-100,4,1,1,70,0,0
40270,-100,4,1,0,70,0,0
53166,-100,4,1,1,70,0,0
53473,-100,4,1,0,70,0,0
53764,-100,4,1,0,70,0,1
54651,-100,4,1,1,70,0,1
55039,-100,4,1,0,70,0,1
62615,-100,4,1,1,70,0,1
62851,-100,4,1,0,70,0,1
67812,-100,4,1,1,70,0,1
68048,-100,4,1,0,70,0,1

[Colours]
Combo1 : 32,255,255
Combo2 : 160,15,164
Combo3 : 123,123,253
Combo4 : 255,74,255
Combo5 : 255,53,53

[HitObjects]
256,48,9827,1,8
256,192,10300,1,0
256,336,10772,1,8
96,192,11717,5,8
256,192,12190,1,0
400,192,12662,1,8
400,192,13607,5,8
256,192,14079,1,0
112,192,14552,1,8
256,80,15497,5,2
160,192,15969,1,2
256,304,16442,1,2
352,192,16914,1,2
208,128,17386,6,0,B|208:304,2,150,0|2|0
480,32,19276,6,0,B|480:208,2,150,0|2|0
256,352,21166,6,2,B|352:224|192:224|288:96,1,262.5
256,32,24001,5,8
256,112,24237,1,0
256,272,24709,1,2
336,272,24946,5,0
464,192,25418,1,0
336,112,25890,2,0,B|256:64|160:128,2,150
336,224,27150,1,0
224,224,27544,2,0,B|80:224|80:80,1,225,0|4
256,32,28725,5,0
368,128,29198,1,0
480,224,29670,1,0
32,32,30615,5,0
144,176,31087,1,2
256,32,31560,1,0
352,176,32032,1,2
256,288,32505,5,4
256,144,32977,2,0,B|256:48,2,75
400,144,33922,1,0
400,288,34394,1,0
288,288,34749,1,0
176,288,35103,2,0,B|32:256|80:96,1,225,0|4
208,32,36284,5,0
352,32,36757,1,0
496,32,37229,1,0
496,352,38174,5,0
400,192,38646,1,2
304,352,39119,1,0
208,192,39591,1,2
112,352,40064,5,2
32,192,40536,5,0
144,192,40890,1,0
224,192,41127,1,0
304,192,41363,2,4,B|496:192,1,187.5,4|0
480,352,42426,5,0
373,352,42780,1,0
293,352,43016,1,0
213,352,43253,2,0,B|5:352,1,187.5,4|0
32,208,44316,5,0
144,208,44670,1,0
336,208,45261,1,0
480,208,45733,2,0,B|480:352,2,112.5,2|2|6
256,352,46914,5,0
256,240,47268,1,0
256,128,47623,1,4
256,192,51402,12,8,53292
256,32,53764,5,8
256,112,54001,1,2
256,272,54473,1,10
256,352,54709,1,4
112,352,55182,6,0,B|48:288|112:192,2,150,0|8|0
256,288,56599,1,4
400,352,57072,2,0,B|464:288|400:192,2,150,0|8|0
256,352,58489,1,2
256,272,58725,1,2
256,192,58961,12,0,59906
32,352,60615,5,0
32,272,60851,2,0,B|32:96,1,150,8|0
160,32,61796,1,2
272,32,62150,1,2
384,32,62505,1,2
384,112,62741,6,0,B|464:176|384:240,2,150,2|8|0
192,128,64631,1,8
112,128,64867,1,0
32,128,65103,1,8
32,272,65575,1,8
112,272,65812,1,0
192,272,66048,1,8
240,224,66284,6,0,B|242:218|250:209|257:200|267:182|264:192|296:144|322:168|329:172|335:179|342:189|360:208|400:168|379:189|390:177|395:173|404:162|456:176|424:144|468:186|488:208|496:240,1,300,4|0
432,272,67465,2,0,B|352:320|272:256,1,150,4|4
256,128,68410,6,0,B|80:128,1,150
32,256,69355,1,2
144,256,69709,1,2
256,256,70064,1,2
336,256,70300,2,0,B|512:160|336:0,1,300,4|0
32,192,71953,5,0
32,192,72190,1,0
208,192,72662,1,2
384,192,73135,1,0
304,32,73607,1,2
128,32,74079,1,4
