osu file format v14

[General]
AudioFilename: 1000w-c.mp3
AudioLeadIn: 0
PreviewTime: 106125
Countdown: 0
SampleSet: Soft
StackLeniency: 0.7
Mode: 0
LetterboxInBreaks: 0
WidescreenStoryboard: 0

[Editor]
DistanceSpacing: 1.2
BeatDivisor: 4
GridSize: 4
TimelineZoom: 1

[Metadata]
Title:1000 Words
TitleUnicode:1000 Words
Artist:Sweetbox
ArtistUnicode:Sweetbox
Creator:Nekomata
Version:Hard
Source:Final Fantasy X-2
Tags:jpop jade yuna tidus lenne adagio 倖田 來未 koda kumi 1000の言葉 no kotoba kazushige nojima takahito eguchi noriko matsueda cut short version ver ファイナルファンタジー ffx ff10-2 ffx-2
BeatmapID:689915
BeatmapSetID:308519

[Difficulty]
HPDrainRate:6
CircleSize:3.8
OverallDifficulty:5.5
ApproachRate:6.8
SliderMultiplier:1.5
SliderTickRate:1

[Events]
//Background and Video events
0,0,"bg.jpg",0,0
//Break Periods
//Storyboard Layer 0 (Background)
//Storyboard Layer 1 (Fail)
//Storyboard Layer 2 (Pass)
//Storyboard Layer 3 (Foreground)
//Storyboard Sound Samples

[TimingPoints]
537,588.235294117647,4,2,2,25,1,0
35831,-100,4,2,1,30,0,0
64066,-90.9090909090909,4,2,1,40,0,0
97007,-86.9565217391304,4,2,1,50,0,0
106419,-83.3333333333333,4,2,1,65,0,1
144066,-100,4,2,1,60,0,0

[Colours]
Combo1 : 224,176,255
Combo2 : 1,96,201
Combo3 : 3,175,211
Combo4 : 84,10,239

[HitObjects]
152,192,7595,6,0,P|176:160|212:140,2,75,6|2|2,0:0|0:0|0:0,0:0:0:0:
108,272,8478,1,2,0:0:0:0:
108,272,8772,2,0,P|180:276|236:228,1,150,0|0,0:0|0:0,0:0:0:0:
292,156,9654,1,0,0:0:0:0:
360,216,9948,6,0,P|400:220|436:216,2,75,2|2|2,0:0|0:0|0:0,0:0:0:0:
292,156,10831,2,0,P|224:128|156:156,1,150,2|0,0:0|0:0,0:0:0:0:
96,224,11713,1,0,0:0:0:0:
156,292,12007,1,0,0:0:0:0:
244,308,12301,6,0,P|320:292|392:300,1,150,6|2,0:0|0:0,0:0:0:0:
476,332,13184,1,0,0:0:0:0:
460,244,13478,2,0,P|396:208|320:196,1,150,2|2,0:0|0:0,0:0:0:0:
236,224,14360,1,0,0:0:0:0:
152,256,14654,6,0,P|112:260|76:256,2,75,2|2|2,0:0|0:0|0:0,0:0:0:0:
236,224,15536,2,0,P|308:204|384:208,1,150,2|0,0:0|0:0,0:0:0:0:
468,232,16419,1,2,0:0:0:0:
324,336,17007,5,6,0:0:0:0:
240,304,17301,1,2,0:0:0:0:
188,232,17595,1,2,0:0:0:0:
132,304,17889,2,0,B|92:308|73:338|73:338|68:256|32:188,1,225,2|0,0:0|0:0,0:0:0:0:
27,100,19066,1,0,0:0:0:0:
108,140,19360,6,0,P|184:156|256:144,1,150,2|0,0:0|0:0,0:0:0:0:
340,108,20242,2,0,P|347:136|338:184,1,75,2|2,0:0|0:0,0:0:0:0:
264,232,20831,1,0,0:0:0:0:
172,232,21125,2,0,P|136:228|96:232,1,75,2|0,0:0|0:0,0:0:0:0:
20,276,21713,5,6,0:0:0:0:
100,320,22007,1,2,0:0:0:0:
97,231,22301,1,2,0:0:0:0:
180,268,22595,2,0,P|256:288|328:280,1,150,2|0,0:0|0:0,0:0:0:0:
416,264,23478,2,0,P|404:232|372:200,1,75,0|0,0:0|0:0,0:0:0:0:
288,212,24066,5,2,0:0:0:0:
200,192,24360,1,2,0:0:0:0:
116,164,24654,2,0,P|96:128|88:88,1,75,2|0,0:0|0:0,0:0:0:0:
180,104,25242,1,2,0:0:0:0:
264,132,25536,1,2,0:0:0:0:
352,120,25831,2,0,B|388:100|388:100|408:68,1,75,2|0,0:0|0:0,0:0:0:0:
468,136,26419,5,6,0:0:0:0:
396,192,26713,1,2,0:0:0:0:
304,192,27007,1,2,0:0:0:0:
232,136,27301,2,0,P|168:120|88:140,1,150,2|0,0:0|0:0,0:0:0:0:
16,196,28184,1,2,0:0:0:0:
136,332,28772,5,2,0:0:0:0:
224,308,29066,1,2,0:0:0:0:
292,248,29360,2,0,P|312:208|320:176,2,75,2|2|2,0:0|0:0|0:0,0:0:0:0:
224,308,30242,2,0,P|152:300|88:256,1,150,0|0,0:0|0:0,0:0:0:0:
84,168,31125,5,6,0:0:0:0:
164,208,31419,1,2,0:0:0:0:
251,187,31713,1,2,0:0:0:0:
320,128,32007,2,0,P|388:96|464:96,1,150,2|0,0:0|0:0,0:0:0:0:
461,95,32889,1,2,0:0:0:0:
256,192,33478,12,2,35242,0:0:0:0:
340,224,35831,5,4,0:0:0:0:
256,260,36125,1,0,0:0:0:0:
172,224,36419,1,0,0:0:0:0:
117,152,36713,1,0,0:0:0:0:
106,108,36860,1,0,0:0:0:0:
119,65,37007,2,0,P|155:73|193:71,1,75,0|0,0:0|0:0,0:0:0:0:
275,35,37595,2,0,P|312:32|348:41,1,75,8|0,0:0|0:0,0:0:0:0:
306,120,38184,6,0,P|297:156|303:194,1,75
342,273,38772,1,0,0:0:0:0:
403,338,39066,2,0,P|329:361|269:326,1,150
227,247,39948,1,8,0:0:0:0:
139,270,40242,1,0,0:0:0:0:
186,168,40536,6,0,B|243:144|289:184|289:184|324:163,1,150,4|0,0:0|0:0,0:0:0:0:
390,223,41419,1,0,0:0:0:0:
320,282,41713,2,0,P|248:274|172:282,1,150,0|8,0:0|0:0,0:0:0:0:
87,314,42595,1,0,0:0:0:0:
103,225,42889,6,0,P|135:203|173:193,1,75,0|0,0:0|0:0,0:0:0:0:
259,196,43478,2,0,P|294:185|325:164,1,75,0|0,0:0|0:0,0:0:0:0:
370,86,44066,2,0,P|399:112|413:150,1,75,0|0,0:0|0:0,0:0:0:0:
409,189,44507,1,0,0:0:0:0:
393,231,44654,1,8,0:0:0:0:
215,261,45242,5,4,0:0:0:0:
147,202,45536,1,0,0:0:0:0:
207,135,45831,1,0,0:0:0:0:
289,173,46125,2,0,L|319:146,2,37.5,0|0|0,0:0|0:0|0:0,0:0:0:0:
216,226,46713,2,0,P|176:221|143:198,1,75,0|8,0:0|0:0,0:0:0:0:
88,134,47301,1,0,0:0:0:0:
35,207,47595,6,0,P|-1:145|26:69,1,150,0|0,0:0|0:0,0:0:0:0:
107,47,48478,1,0,0:0:0:0:
173,107,48772,2,0,B|214:119|246:103|246:103|276:122|318:117,1,150,0|8,0:0|0:0,0:0:0:0:
425,261,49948,6,0,P|361:305|293:293,1,150,4|0,0:0|0:0,0:0:0:0:
204,278,50831,2,0,L|175:302,2,37.5,0|0|0,0:0|0:0|0:0,0:0:0:0:
262,209,51419,1,0,0:0:0:0:
303,129,51713,1,8,0:0:0:0:
281,41,52007,1,0,0:0:0:0:
383,88,52301,6,0,P|387:161|335:213,1,150,0|0,0:0|0:0,0:0:0:0:
378,292,53184,1,0,0:0:0:0:
378,292,53478,2,0,B|337:306|297:294|297:294|265:282|229:290,1,150,0|8,0:0|0:0,0:0:0:0:
146,323,54360,1,0,0:0:0:0:
64,285,54654,6,0,B|83:248|120:237|120:237|134:198|172:185,1,150,4|0,0:0|0:0,0:0:0:0:
252,222,55536,2,0,P|248:142|192:98,1,150,0|0,0:0|0:0,0:0:0:0:
166,15,56419,2,0,L|246:23,1,75,8|0,0:0|0:0,0:0:0:0:
306,83,57007,5,0,0:0:0:0:
342,165,57301,1,0,0:0:0:0:
413,219,57595,1,0,0:0:0:0:
495,256,57889,1,0,0:0:0:0:
484,299,58036,1,0,0:0:0:0:
454,333,58184,2,0,P|382:345|306:341,1,150,0|8,0:0|0:0,0:0:0:0:
165,227,59360,6,0,P|239:222|313:234,2,150,4|0|0,0:0|0:0|0:0,0:0:0:0:
76,244,60831,1,0,0:0:0:0:
26,169,61125,1,8,0:0:0:0:
114,153,61419,1,0,0:0:0:0:
165,227,61713,5,2,0:0:0:0:
256,192,61860,12,8,63478,0:0:0:0:
160,216,64066,6,0,P|228:256|312:264,1,165.000005035401,4|0,0:0|0:0,0:0:0:0:
404,224,64948,2,0,P|412:264|404:304,2,82.5000025177003,0|0|0,0:0|3:0|0:0,0:0:0:0:
328,164,65831,1,8,0:0:0:0:
232,188,66125,1,0,0:0:0:0:
136,168,66419,6,0,B|96:164|72:136|72:136|80:188|52:228,1,165.000005035401,0|0,0:0|0:0,0:0:0:0:
24,316,67301,1,0,0:0:0:0:
120,288,67595,1,0,0:0:0:0:
208,332,67889,2,0,P|252:340|292:336,2,82.5000025177003,0|8|0,0:0|0:0|0:0,0:0:0:0:
120,288,68772,5,4,0:0:0:0:
100,192,69066,1,0,0:0:0:0:
120,96,69360,1,0,0:0:0:0:
196,160,69654,2,0,P|236:176|276:176,2,82.5000025177003,0|0|0,0:0|3:0|0:0,0:0:0:0:
120,96,70536,1,8,0:0:0:0:
100,192,70831,5,0,0:0:0:0:
196,160,71125,2,0,P|231:133|268:122,1,82.5000025177003,4|0,0:0|0:0,0:0:0:0:
354,169,71713,1,0,0:0:0:0:
412,89,72007,2,0,P|385:58|348:40,1,82.5000025177003
256,76,72595,2,0,B|252:116|252:116|260:120|260:120|256:160,2,82.5000025177003,0|10|0,0:0|0:2|0:0,0:0:0:0:
192,192,73478,6,0,P|256:236|320:192,1,165.000005035401,4|0,0:0|0:0,0:0:0:0:
400,132,74360,1,0,0:0:0:0:
448,220,74654,2,0,P|416:292|344:356,1,165.000005035401,0|8,3:0|0:0,0:0:0:0:
264,312,75536,1,0,0:0:0:0:
165,322,75831,6,0,P|125:334|85:338,2,82.5000025177003,0|0|0,0:0|0:0|0:0,0:0:0:0:
212,236,76713,2,0,P|269:179|345:143,1,165.000005035401,0|0,0:0|0:0,0:0:0:0:
428,196,77595,1,8,0:0:0:0:
344,143,77889,1,0,0:0:0:0:
356,263,78184,6,0,P|268:280|208:228,1,165.000005035401,4|0,0:0|0:0,0:0:0:0:
209,137,79066,2,0,P|168:145|135:172,2,82.5000025177003,0|0|0,0:0|3:0|0:0,0:0:0:0:
296,184,79948,1,8,0:0:0:0:
392,152,80242,1,0,0:0:0:0:
480,196,80536,5,4,0:0:0:0:
388,232,80831,2,0,L|348:244,2,41.2500012588501,0|0|0,0:0|0:0|0:0,0:0:0:0:
480,196,81419,2,0,L|480:152,2,41.2500012588501,0|0|0,0:0|0:0|3:0,0:0:0:0:
468,296,82007,2,0,L|468:340,2,41.2500012588501,0|0|10,0:0|0:0|0:0,0:0:0:0:
480,196,82595,1,0,0:0:0:0:
392,312,82889,6,0,P|356:328|312:332,2,82.5000025177003,4|0|0,0:0|0:0|0:0,0:0:0:0:
392,312,83772,1,0,0:0:0:0:
332,232,84066,2,0,P|368:216|412:212,2,82.5000025177003,0|0|8,3:0|0:0|0:0,0:0:0:0:
332,232,84948,1,0,0:0:0:0:
248,288,85242,5,0,0:0:0:0:
160,240,85536,1,0,0:0:0:0:
160,240,85684,1,0,0:0:0:0:
160,240,85831,2,0,P|128:212|100:180,2,82.5000025177003,0|0|0,0:0|0:0|3:0,0:0:0:0:
98,317,86713,2,0,P|65:291|35:256,2,82.5000025177003,0|8|0,0:0|0:0|0:0,0:0:0:0:
196,304,87595,6,0,P|272:280|356:296,1,165.000005035401,4|0,0:0|0:0,0:0:0:0:
450,314,88478,1,0,0:0:0:0:
420,220,88772,2,0,P|380:200|340:196,2,82.5000025177003,0|0|8,3:0|0:0|0:0,0:0:0:0:
353,295,89654,5,0,0:0:0:0:
259,328,89948,2,0,P|220:313|180:309,1,82.5000025177003,4|0,0:0|0:0,0:0:0:0:
82,329,90536,1,0,0:0:0:0:
118,236,90831,2,0,P|161:212|185:185,1,82.5000025177003
256,120,91419,2,0,B|259:86|259:86|251:82|251:82|255:42,2,82.5000025177003,0|10|0,0:0|0:0|0:0,0:0:0:0:
184,188,92301,6,0,P|256:224|328:188,1,165.000005035401,4|0,0:0|0:0,0:0:0:0:
326,90,93184,1,0,0:0:0:0:
326,90,93478,2,0,P|254:54|182:90,1,165.000005035401,0|8,3:0|0:0,0:0:0:0:
116,160,94360,1,0,0:0:0:0:
76,252,94654,5,0,0:0:0:0:
76,252,94948,1,0,0:0:0:0:
174,239,95242,1,0,0:0:0:0:
252,300,95536,2,0,P|336:308|412:280,1,165.000005035401,0|0,0:0|0:0,0:0:0:0:
448,188,96419,1,8,0:0:0:0:
512,264,96713,1,0,0:0:0:0:
410,280,97007,6,0,P|326:273|280:204,1,172.500003290176,4|0,0:0|0:0,0:0:0:0:
176,204,97889,2,0,P|129:273|46:279,1,172.500003290176,0|0,0:0|0:0,0:0:0:0:
16,180,98772,1,0,0:0:0:0:
108,128,99066,1,0,0:0:0:0:
208,108,99360,5,0,0:0:0:0:
296,160,99654,1,0,0:0:0:0:
388,114,99948,1,0,0:0:0:0:
382,217,100242,2,0,P|349:249|308:263,1,86.2500016450882,0|0,0:0|3:0,0:0:0:0:
296,160,100831,1,0,0:0:0:0:
388,114,101125,1,10,0:0:0:0:
382,217,101419,1,0,0:0:0:0:
289,263,101713,5,4,0:0:0:0:
189,291,102007,1,0,0:0:0:0:
121,215,102301,1,0,0:0:0:0:
289,263,102595,1,0,0:0:0:0:
167,372,102889,1,0,3:0:0:0:
121,215,103184,1,0,0:0:0:0:
101,315,103478,1,8,0:0:0:0:
25,247,103772,1,0,0:0:0:0:
49,147,104066,5,2,0:0:0:0:
256,192,104213,12,8,105831,0:0:0:0:
116,176,106419,6,0,P|152:148|196:136,1,89.9999972534181,4|0,0:0|0:0,0:0:0:0:
188,220,106860,2,0,P|152:248|108:260,1,89.9999972534181,0|0,0:0|0:0,0:0:0:0:
44,312,107301,2,0,P|84:336|128:340,1,89.9999972534181,0|0,0:0|3:0,0:0:0:0:
232,316,107889,1,0,0:0:0:0:
296,232,108184,1,2,0:0:0:0:
372,308,108478,1,0,0:0:0:0:
480,324,108772,5,0,0:0:0:0:
480,324,109066,1,0,0:0:0:0:
436,224,109360,1,0,0:0:0:0:
372,308,109654,2,0,P|292:332|208:292,1,179.999994506836,0|0,0:0|0:0,0:0:0:0:
116,236,110536,2,0,L|130:182,1,44.999998626709,0|0,0:0|0:0,0:0:0:0:
173,163,110831,2,0,L|158:109,1,44.999998626709,0|0,0:0|0:0,0:0:0:0:
213,104,111125,6,0,P|284:112|348:104,2,134.999995880127,4|0|0,0:0|0:0|0:0,0:0:0:0:
108,84,112301,2,0,P|80:120|80:164,1,89.9999972534181,0|0,3:0|0:0,0:0:0:0:
184,196,112889,1,2,0:0:0:0:
113,278,113184,1,0,0:0:0:0:
152,315,113331,1,0,0:0:0:0:
204,328,113478,6,0,P|288:352|376:332,1,179.999994506836,0|0,0:0|0:0,0:0:0:0:
428,236,114360,1,0,0:0:0:0:
392,136,114654,1,0,3:0:0:0:
324,220,114948,2,0,P|280:236|236:232,1,89.9999972534181,0|0,0:0|0:0,0:0:0:0:
237,232,115536,1,0,0:0:0:0:
189,136,115831,6,0,P|125:136|57:152,2,134.999995880127,4|0|0,0:0|0:0|0:0,0:0:0:0:
237,232,117007,2,0,P|277:200|293:164,2,89.9999972534181,0|0|2,3:0|0:0|0:0,0:0:0:0:
140,280,117889,1,0,0:0:0:0:
36,248,118184,6,0,B|36:196|36:196|64:168,1,89.9999972534181,0|0,0:0|0:0,0:0:0:0:
113,187,118625,2,0,P|179:198|246:185,1,134.999995880127
311,100,119360,2,0,P|244:89|178:101,2,134.999995880127,0|0|0,3:0|0:0|0:0,0:0:0:0:
332,224,120536,6,0,P|396:248|464:252,2,134.999995880127,4|0|0,0:0|0:0|0:0,0:0:0:0:
296,120,121713,2,0,P|235:171|231:268,1,179.999994506836,0|2,3:0|0:0,0:0:0:0:
230,266,122595,1,0,0:0:0:0:
332,224,122889,6,0,P|384:184|404:116,2,134.999995880127,0|0|0,0:0|0:0|0:0,0:0:0:0:
230,266,124066,2,0,L|192:236,1,44.999998626709,0|0,3:0|0:0,0:0:0:0:
146,262,124360,2,0,L|124:216,1,44.999998626709,0|0,0:0|0:0,0:0:0:0:
72,220,124654,2,0,L|74:175,1,44.999998626709,0|0,0:0|0:0,0:0:0:0:
21,163,124948,2,0,L|32:116,1,44.999998626709,0|0,0:0|0:0,0:0:0:0:
69,80,125242,6,0,P|105:108|149:120,1,89.9999972534181,4|0,0:0|0:0,0:0:0:0:
192,191,125684,2,0,P|235:178|270:151,1,89.9999972534181,0|0,0:0|0:0,0:0:0:0:
245,71,126125,2,0,P|285:47|329:43,1,89.9999972534181,0|0,0:0|3:0,0:0:0:0:
416,104,126713,1,0,0:0:0:0:
318,151,127007,1,2,0:0:0:0:
406,213,127301,1,0,0:0:0:0:
416,104,127595,5,0,0:0:0:0:
416,104,127889,1,0,0:0:0:0:
503,166,128184,1,0,0:0:0:0:
406,213,128478,2,0,P|322:181|250:125,1,179.999994506836,0|0,0:0|0:0,0:0:0:0:
147,155,129360,1,0,0:0:0:0:
142,263,129654,1,0,0:0:0:0:
245,296,129948,6,0,P|316:288|380:296,2,134.999995880127,4|0|0,0:0|0:0|0:0,0:0:0:0:
140,316,131125,2,0,P|112:280|112:236,1,89.9999972534181,0|0,3:0|0:0,0:0:0:0:
128,132,131713,1,0,0:0:0:0:
228,88,132007,1,0,0:0:0:0:
275,114,132154,1,0,0:0:0:0:
328,108,132301,6,0,P|412:84|500:104,1,179.999994506836,0|0,0:0|0:0,0:0:0:0:
500,212,133184,1,0,0:0:0:0:
428,292,133478,1,0,3:0:0:0:
320,292,133772,1,0,0:0:0:0:
248,212,134066,2,0,P|204:212|160:200,1,89.9999972534181,0|0,0:0|0:0,0:0:0:0:
136,96,134654,6,0,P|70:80|3:79,2,134.999995880127,4|0|0,0:0|0:0|0:0,0:0:0:0:
159,199,135831,2,0,P|178:238|214:265,2,89.9999972534181,0|0|2,3:0|0:0|0:0,0:0:0:0:
136,96,136713,1,0,0:0:0:0:
56,168,137007,6,0,B|56:220|56:220|84:248,1,89.9999972534181
136,243,137448,2,0,B|172:228|203:241|203:241|236:255|270:243,1,134.999995880127
337,326,138184,2,0,P|371:269|365:200,2,134.999995880127,0|0|0,3:0|0:0|0:0,0:0:0:0:
256,192,139360,12,4,144066,0:0:0:0:
