osu file format v14

[General]
AudioFilename: Sweet Trip - DSCO.mp3
AudioLeadIn: 0
PreviewTime: 75529
Countdown: 0
SampleSet: None
StackLeniency: 1
Mode: 0
LetterboxInBreaks: 0
WidescreenStoryboard: 1

[Editor]
Bookmarks: 978,4533,15206,25872,54311,54325,75640,104103,132547,160991,175214,189436
DistanceSpacing: 0.8
BeatDivisor: 4
GridSize: 8
TimelineZoom: 1

[Metadata]
Title:DSCO
TitleUnicode:DSCO
Artist:Sweet Trip
ArtistUnicode:Sweet Trip
Creator:YunoWhoItIs
Version:Hard
Source:
Tags:sweet trip dsco shoegaze velocity design comfort
BeatmapID:664359
BeatmapSetID:293551

[Difficulty]
HPDrainRate:5
CircleSize:4
OverallDifficulty:5.5
ApproachRate:7.8
SliderMultiplier:1.5
SliderTickRate:2

[Events]
//Background and Video events
0,0,"bg.jpg",0,0
//Break Periods
//Storyboard Layer 0 (Background)
//Storyboard Layer 1 (Fail)
//Storyboard Layer 2 (Pass)
//Storyboard Layer 3 (Foreground)
//Storyboard Sound Samples

[TimingPoints]
978,444.444444444444,4,1,0,60,1,0
25872,-76.9230769230769,4,1,0,60,0,0
54317,-100,4,1,0,60,0,0
75529,-76.9230769230769,4,1,0,60,0,0
104095,-71.4285714285714,4,1,0,60,0,1
160983,-100,4,1,0,60,0,0

[HitObjects]
160,192,978,5,0,0:0:0:0:
352,192,1422,1,0,0:0:0:0:
160,192,1866,1,0,0:0:0:0:
352,192,2311,1,0,0:0:0:0:
352,192,2755,5,0,0:0:0:0:
256,192,2977,1,0,0:0:0:0:
352,192,3200,1,0,0:0:0:0:
160,192,3644,1,0,0:0:0:0:
192,112,3866,1,0,0:0:0:0:
272,96,4089,1,0,0:0:0:0:
464,96,4533,5,0,0:0:0:0:
416,160,4755,1,0,0:0:0:0:
464,224,4977,1,0,0:0:0:0:
416,288,5200,1,0,0:0:0:0:
336,304,5422,1,0,0:0:0:0:
176,304,5866,1,0,0:0:0:0:
73,131,6089,2,0,P|153:179|169:243,1,150
176,304,6755,5,0,0:0:0:0:
80,176,7200,1,0,0:0:0:0:
64,96,7422,1,0,0:0:0:0:
112,32,7644,1,0,0:0:0:0:
320,80,7866,2,0,P|240:96|160:64,1,150
384,32,8533,5,0,0:0:0:0:
320,192,8977,1,0,0:0:0:0:
304,272,9200,1,0,0:0:0:0:
352,336,9422,1,0,0:0:0:0:
240,192,9866,5,0,0:0:0:0:
256,112,10088,1,0,0:0:0:0:
208,48,10310,1,0,0:0:0:0:
128,32,10533,1,0,0:0:0:0:
64,80,10755,1,0,0:0:0:0:
64,240,11199,1,0,0:0:0:0:
272,288,11422,2,0,P|192:304|112:272,1,150
64,240,12088,5,0,0:0:0:0:
184,96,12533,1,0,0:0:0:0:
256,64,12755,1,0,0:0:0:0:
328,96,12977,1,0,0:0:0:0:
296,288,13199,2,0,P|340:244|345:153,1,150
232,312,13866,5,0,0:0:0:0:
112,200,14310,1,0,0:0:0:0:
80,128,14533,1,0,0:0:0:0:
112,56,14755,1,0,0:0:0:0:
288,48,15200,5,0,0:0:0:0:
208,80,15422,1,0,0:0:0:0:
192,160,15644,1,0,0:0:0:0:
272,144,15866,1,0,0:0:0:0:
304,216,16089,1,0,0:0:0:0:
448,128,16532,1,0,0:0:0:0:
320,288,16755,2,0,P|391:257|433:187,1,150
448,128,17421,5,0,0:0:0:0:
384,272,17866,1,0,0:0:0:0:
312,304,18089,1,0,0:0:0:0:
232,304,18311,1,0,0:0:0:0:
96,144,18533,2,0,P|111:216|162:270,1,150
104,72,19200,5,0,0:0:0:0:
64,224,19644,1,0,0:0:0:0:
32,296,19867,1,0,0:0:0:0:
104,288,20089,1,0,0:0:0:0:
264,256,20533,5,0,0:0:0:0:
344,248,20755,1,0,0:0:0:0:
312,320,20977,1,0,0:0:0:0:
232,328,21200,1,0,0:0:0:0:
192,264,21422,1,0,0:0:0:0:
152,112,21866,1,0,0:0:0:0:
352,80,22089,2,0,P|293:128|217:131,1,150
152,112,22755,5,0,0:0:0:0:
40,248,23200,1,0,0:0:0:0:
96,304,23422,1,0,0:0:0:0:
176,304,23644,1,0,0:0:0:0:
280,120,23866,2,0,P|276:195|235:257,1,150
264,56,24533,5,0,0:0:0:0:
432,104,24977,1,0,0:0:0:0:
472,176,25200,1,0,0:0:0:0:
456,256,25422,1,0,0:0:0:0:
344,128,25866,5,0,0:0:0:0:
208,240,26311,1,0,0:0:0:0:
88,104,26755,2,0,L|16:24,2,97.4999955368044
320,208,27422,2,0,P|220:207|136:152,1,194.999991073609
128,72,28089,5,0,0:0:0:0:
208,32,28311,1,0,0:0:0:0:
400,40,28755,1,0,0:0:0:0:
352,112,28977,1,0,0:0:0:0:
416,168,29200,1,0,0:0:0:0:
440,288,29422,5,0,0:0:0:0:
280,208,29867,1,0,0:0:0:0:
136,280,30311,2,0,L|40:328,2,97.4999955368044
272,80,30978,2,0,P|256:177|190:245,1,194.999991073609
112,256,31645,5,0,0:0:0:0:
72,184,31867,1,0,0:0:0:0:
272,232,32311,1,0,0:0:0:0:
360,232,32533,1,0,0:0:0:0:
431,177,32756,1,0,0:0:0:0:
352,56,32977,5,0,0:0:0:0:
278,215,33422,1,0,0:0:0:0:
408,96,33866,2,0,L|488:24,2,97.4999955368044
176,128,34533,2,0,P|256:168|360:131,1,194.999991073609
320,232,35200,5,0,0:0:0:0:
187,98,35422,2,0,P|269:149|319:231,1,194.999991073609
328,320,36089,1,0,0:0:0:0:
248,352,36311,1,0,0:0:0:0:
152,248,36533,5,0,0:0:0:0:
320,320,36978,1,0,0:0:0:0:
192,192,37422,2,0,L|104:120,2,97.4999955368044
424,240,38089,2,0,P|334:269|244:231,1,194.999991073609
248,320,38756,5,0,0:0:0:0:
299,141,38977,2,0,P|295:236|244:323,1,194.999991073609
168,344,39644,1,0,0:0:0:0:
96,304,39867,1,0,0:0:0:0:
136,176,40089,5,0,0:0:0:0:
224,312,40534,1,0,0:0:0:0:
384,248,40978,2,0,L|488:200,2,97.4999955368044
144,216,41645,2,0,P|231:272|320:272,1,194.999991073609
384,216,42312,5,0,0:0:0:0:
392,128,42534,1,0,0:0:0:0:
240,40,42978,1,0,0:0:0:0:
176,96,43200,1,0,0:0:0:0:
96,72,43423,1,0,0:0:0:0:
80,208,43645,5,0,0:0:0:0:
176,56,44090,1,0,0:0:0:0:
336,112,44534,2,0,L|440:152,2,97.4999955368044
96,136,45201,2,0,P|192:88|288:96,1,194.999991073609
344,152,45868,5,0,0:0:0:0:
336,240,46090,1,0,0:0:0:0:
168,280,46534,1,0,0:0:0:0:
240,336,46756,1,0,0:0:0:0:
328,320,46979,1,0,0:0:0:0:
408,208,47200,5,0,0:0:0:0:
224,208,47645,1,0,0:0:0:0:
368,120,48089,2,0,L|459:67,2,97.4999955368044
128,128,48756,2,0,P|210:167|312:152,1,194.999991073609
280,240,49423,5,0,0:0:0:0:
280,57,49645,2,0,P|250:142|281:241,1,194.999991073609
352,288,50312,1,0,0:0:0:0:
424,240,50534,1,0,0:0:0:0:
424,104,50756,5,0,0:0:0:0:
256,168,51201,1,0,0:0:0:0:
104,240,51645,2,0,L|0:288,2,97.4999955368044
224,24,52312,2,0,P|221:119|161:197,1,194.999991073609
248,216,52979,5,0,0:0:0:0:
70,185,53200,2,0,P|158:167|247:215,1,194.999991073609
280,296,53867,1,0,0:0:0:0:
264,48,54311,5,0,0:0:0:0:
208,112,54533,1,0,0:0:0:0:
288,128,54755,1,0,0:0:0:0:
232,192,54978,1,0,0:0:0:0:
312,208,55200,1,0,0:0:0:0:
176,320,55644,1,0,0:0:0:0:
56,168,55867,2,0,P|65:243|117:298,1,150
176,320,56533,5,0,0:0:0:0:
352,280,56978,1,0,0:0:0:0:
280,320,57200,1,0,0:0:0:0:
200,312,57422,1,0,0:0:0:0:
112,120,57644,2,0,P|106:194|139:261,1,150
136,56,58311,5,0,0:0:0:0:
208,200,58755,1,0,0:0:0:0:
272,248,58978,1,0,0:0:0:0:
352,240,59200,1,0,0:0:0:0:
280,64,59644,5,0,0:0:0:0:
208,80,59866,1,0,0:0:0:0:
152,128,60088,1,0,0:0:0:0:
128,200,60311,1,0,0:0:0:0:
144,272,60533,1,0,0:0:0:0:
64,136,60977,1,0,0:0:0:0:
184,304,61200,2,0,P|116:268|84:199,1,150
64,136,61866,5,0,0:0:0:0:
232,48,62311,1,0,0:0:0:0:
280,112,62533,1,0,0:0:0:0:
352,128,62755,1,0,0:0:0:0:
272,320,62977,2,0,P|326:268|348:197,1,150
208,344,63644,5,0,0:0:0:0:
152,176,64088,1,0,0:0:0:0:
112,248,64311,1,0,0:0:0:0:
128,320,64533,1,0,0:0:0:0:
232,160,64977,5,0,0:0:0:0:
184,96,65199,1,0,0:0:0:0:
104,112,65421,1,0,0:0:0:0:
184,96,65644,1,0,0:0:0:0:
232,160,65866,1,0,0:0:0:0:
208,296,66310,1,0,0:0:0:0:
384,208,66533,2,0,P|342:271|271:298,1,150
208,296,67199,5,0,0:0:0:0:
64,168,67644,1,0,0:0:0:0:
128,208,67866,1,0,0:0:0:0:
200,200,68088,1,0,0:0:0:0:
400,240,68310,2,0,P|339:194|266:186,1,150
440,296,68977,5,0,0:0:0:0:
240,336,69421,1,0,0:0:0:0:
160,336,69644,1,0,0:0:0:0:
88,304,69866,1,0,0:0:0:0:
272,264,70311,5,0,0:0:0:0:
192,240,70533,1,0,0:0:0:0:
144,176,70755,1,0,0:0:0:0:
152,104,70978,1,0,0:0:0:0:
208,56,71200,1,0,0:0:0:0:
80,128,71644,1,0,0:0:0:0:
56,328,71867,2,0,P|27:257|46:183,1,150
80,128,72533,5,0,0:0:0:0:
224,40,72978,1,0,0:0:0:0:
304,48,73200,1,0,0:0:0:0:
368,96,73422,1,0,0:0:0:0:
192,216,73644,2,0,P|228:150|292:112,1,150
184,288,74311,5,0,0:0:0:0:
376,240,74755,1,0,0:0:0:0:
320,304,74978,1,0,0:0:0:0:
240,304,75200,1,0,0:0:0:0:
104,208,75644,5,0,0:0:0:0:
264,144,76089,1,0,0:0:0:0:
112,72,76533,2,0,L|8:32,2,97.4999955368044
88,272,77200,2,0,P|101:171|168:106,1,194.999991073609
256,112,77867,5,0,0:0:0:0:
280,200,78089,1,0,0:0:0:0:
64,192,78533,1,0,0:0:0:0:
72,280,78755,1,0,0:0:0:0:
152,328,78978,1,0,0:0:0:0:
280,280,79200,5,0,0:0:0:0:
128,192,79645,1,0,0:0:0:0:
296,248,80089,2,0,L|392:280,2,97.4999955368044
272,48,80756,2,0,P|289:137|230:225,1,194.999991073609
152,256,81423,5,0,0:0:0:0:
64,240,81645,1,0,0:0:0:0:
184,80,82089,1,0,0:0:0:0:
112,144,82311,1,0,0:0:0:0:
184,88,82534,1,0,0:0:0:0:
320,120,82755,5,0,0:0:0:0:
184,232,83200,1,0,0:0:0:0:
352,192,83644,2,0,L|464:168,2,97.4999955368044
200,352,84311,2,0,P|277:302|289:205,1,194.999991073609
368,264,84978,5,0,0:0:0:0:
215,178,85200,2,0,P|276:253|377:261,1,194.999991073609
312,200,85867,1,0,0:0:0:0:
226,180,86089,1,0,0:0:0:0:
96,232,86311,5,0,0:0:0:0:
104,80,86756,1,0,0:0:0:0:
48,232,87200,2,0,L|16:344,2,97.4999955368044
264,216,87867,2,0,P|170:222|79:163,1,194.999991073609
88,264,88534,5,0,0:0:0:0:
210,137,88755,2,0,P|116:183|87:268,1,194.999991073609
144,336,89422,1,0,0:0:0:0:
232,312,89645,1,0,0:0:0:0:
288,192,89867,5,0,0:0:0:0:
136,112,90312,1,0,0:0:0:0:
296,96,90756,2,0,L|403:83,2,97.4999955368044
208,288,91423,2,0,P|257:212|231:114,1,194.999991073609
152,72,92090,5,0,0:0:0:0:
80,128,92312,1,0,0:0:0:0:
288,120,92756,1,0,0:0:0:0:
200,152,92978,1,0,0:0:0:0:
144,224,93201,1,0,0:0:0:0:
120,96,93423,5,0,0:0:0:0:
80,264,93868,1,0,0:0:0:0:
240,208,94312,2,0,L|336:176,2,97.4999955368044
88,80,94979,2,0,P|163:136|175:232,1,194.999991073609
112,296,95646,5,0,0:0:0:0:
24,288,95868,1,0,0:0:0:0:
184,336,96312,1,0,0:0:0:0:
272,344,96534,1,0,0:0:0:0:
352,312,96757,1,0,0:0:0:0:
400,200,96978,5,0,0:0:0:0:
248,256,97423,1,0,0:0:0:0:
144,136,97867,2,0,L|72:56,2,97.4999955368044
336,96,98534,2,0,P|231:111|184:192,1,194.999991073609
144,104,99201,5,0,0:0:0:0:
191,269,99423,2,0,P|204:174|134:99,1,194.999991073609
56,120,100090,1,0,0:0:0:0:
24,200,100312,1,0,0:0:0:0:
64,320,100534,5,0,0:0:0:0:
152,184,100979,1,0,0:0:0:0:
296,264,101423,2,0,L|392:320,2,97.4999955368044
88,312,102090,2,0,P|181:307|240:221,1,194.999991073609
279,315,102757,5,0,0:0:0:0:
144,208,102978,2,0,P|189:295|289:312,1,194.999991073609
351,267,103645,1,0,0:0:0:0:
