osu file format v5

[General]
AudioFilename: 01 VLG.mp3
AudioLeadIn: 0
PreviewTime: -1
Countdown: 1
SampleSet: Normal
StackLeniency: 0.7
Mode: 0
LetterboxInBreaks: 1

[Metadata]
Title:VLG
Artist:Sweet Pool
Creator:WailfulDevil
Version:Easy
Source:
Tags:

[Difficulty]
HPDrainRate:5
CircleSize:5
OverallDifficulty:5
SliderMultiplier:1.4
SliderTickRate:1

[Events]
//Background and Video events
0,0,"ev9991_コングラチュレーションL.jpg"
//Break Periods
//Storyboard Layer 0 (Background)
//Storyboard Layer 1 (Failing)
//Storyboard Layer 2 (Passing)
//Storyboard Layer 3 (Foreground)
//Storyboard Sound Samples
//Background Colour Transformations
3,100,163,162,255

[TimingPoints]
100,600,4,1,0,100,1,0

[HitObjects]
224,256,1300,5,2
256,192,1750,1,0
224,288,2200,1,0
256,224,2650,1,0
192,288,3100,1,0
256,224,3475,1,0
192,288,3925,1,0
256,224,4375,1,0
192,288,4825,1,0
256,224,5275,1,0
192,288,5725,1,0
256,224,6175,1,0
192,288,6625,1,0
256,224,7075,1,0
192,288,7525,1,0
256,224,7900,1,0
160,352,8350,1,0
256,288,8725,2,0,B|288:320|-32:224,2,297.5
204,159,11875,1,0
160,256,12625,2,0,B|416:352,2,262.5
0,64,15325,5,0
64,96,15775,2,0,B|512:352,1,507.5
224,192,18775,1,0
256,256,19225,1,0
288,160,19750,1,0
320,224,20200,1,0
224,224,20650,1,0
128,224,21100,1,0
192,288,21550,1,0
256,256,21925,1,0
288,192,22375,1,0
64,192,23200,6,4,B|416:288,1,350
41,86,25975,1,0
96,128,26575,6,4,B|416:320,1,367.5
43,49,29500,1,0
96,96,30100,6,0,B|480:352,1,455
192,160,32950,1,12
192,160,33400,1,0
192,160,33850,1,0
192,160,34300,1,0
192,160,34750,1,0
192,160,35200,1,0
192,160,35650,1,0
192,160,36175,1,0
25,27,36625,1,0
32,64,37075,2,0,B|512:352,1,542.5
0,21,40000,1,0
32,64,40525,2,0,B|512:384,1,560
0,32,43525,1,0
32,64,44125,2,0,B|480:352,1,525
256,224,47050,1,0
256,224,47500,1,0
256,224,48025,1,0
256,224,48475,1,0
256,224,48925,1,0
256,224,49375,1,0
256,224,49750,1,0
256,224,50200,1,0
256,224,50650,1,0
192,160,51100,2,0,B|-32:160,1,210
32,160,52450,1,12
96,192,52825,1,12
160,224,53275,1,12
256,224,53725,1,12
320,224,54175,1,12
320,128,54625,1,12
224,160,55075,1,12
160,224,55525,1,12
224,256,55900,1,12
320,256,56350,1,12
352,192,56800,1,12
288,160,57250,1,12
224,128,57700,1,12
160,192,58150,1,12
160,256,58600,1,12
224,288,58975,1,12
288,224,59425,1,12
288,128,59875,1,12
192,128,60325,1,12
96,160,60775,1,12
96,224,61225,1,12
160,256,61675,1,12
256,256,62125,1,12
320,224,62500,1,12
384,160,62950,1,12
320,96,63475,1,12
256,96,63850,1,12
192,128,64150,1,12
128,192,64600,1,12
147,81,65050,1,12
192,128,65800,2,12,B|256:192,7,87.5
128,224,69475,2,12,B|192:256,9,70
116,176,73075,6,14,B|146:207,18,35
67,133,76150,5,14
164,117,76675,1,14
251,219,77125,1,14
251,219,77575,1,14
163,166,78025,1,14
200,166,78400,1,14
314,151,78775,1,14
145,224,79825,1,14
219,131,80200,1,14
334,161,80650,1,14
312,271,81100,1,14
219,207,81550,1,14
219,207,81700,1,14
126,195,82300,1,14
70,137,82750,1,14
28,23,83125,1,14
32,64,83650,2,14,B|512:352,1,542.5
0,27,86800,5,14
32,64,87400,2,14,B|512:352,1,542.5
15,140,90325,1,10
32,192,91075,2,14,B|288:256,2,245
256,192,93925,5,0
128,224,94300,1,0
96,128,94750,1,0
224,64,95275,1,0
320,96,95650,1,0
320,192,96100,1,0
256,288,96550,1,0
160,256,96925,1,0
128,160,97375,1,0
96,96,98200,2,14,B|480:352,1,455
25,45,100975,2,10,B|489:359,1,542.5
129,176,104350,2,10,B|253:246,3,140
117,138,107725,2,10,B|146:164,26,35,10|10|2|2|10|10|10|10|10|10|10|10|10|10|10|10|10|10|10|10|10|10|10|10|10|10|10
155,171,112225,2,10,B|214:206,5,52.5
74,146,115000,6,10,B|198:234,2,140
104,149,118300,2,10,B|231:244,2,140
122,139,121900,2,10,B|172:173,9,52.5
256,192,124375,12,10,125725
128,160,126100,5,10
224,192,126550,1,10
320,256,127000,1,10
256,320,127450,1,10
160,320,127900,1,10
96,256,128350,1,10
128,160,128725,1,10
192,64,129175,1,10
320,96,129625,1,10
384,192,130000,1,10
352,288,130450,1,10
192,320,130975,1,10
96,256,131350,1,10
128,128,131800,1,10
224,96,132175,1,10
384,128,132625,1,10
352,224,133075,1,10
288,288,133525,1,10
192,288,133975,1,10
128,192,134425,1,10
128,96,134875,1,10
288,96,135325,1,10
320,192,135700,1,10
32,192,136300,2,10,B|320:288,2,297.5
64,160,140650,1,10
256,224,141100,1,10
256,288,141550,1,10
288,192,142000,1,10
160,192,142375,1,10
128,288,142825,1,10
352,128,143275,1,10
384,256,143725,1,10
288,160,144100,1,10
128,160,144550,1,10
192,288,145000,1,10
320,192,145450,1,10
256,96,145825,1,10
96,128,146350,1,10
96,256,146875,1,10
224,288,147250,1,10
352,256,147625,1,10
352,160,148075,1,10
256,96,148525,1,10
128,128,148975,1,10
128,192,149425,1,10
192,256,149800,1,10
320,160,150325,5,14
320,192,150850,1,14
256,192,151225,1,14
224,224,151675,1,14
192,256,152125,1,14
128,224,152425,1,14
192,160,152800,1,14
320,160,153850,1,14
288,256,154375,1,14
192,256,154750,1,14
128,160,155200,1,14
224,128,155650,1,14
288,128,155875,1,14
384,256,156250,1,14
224,256,156775,1,14
96,192,157225,2,14,B|448:320,1,367.5
256,192,160225,12,4,189175
224,192,191425,5,4
288,192,191800,1,4
352,256,192250,1,4
320,288,192700,1,4
224,320,193150,1,4
160,288,193525,1,4
128,192,193975,1,4
192,128,194425,1,4
320,128,194950,1,4
352,192,195325,1,4
352,288,195700,1,4
224,320,196225,1,4
128,256,196675,1,4
128,192,197125,1,4
160,128,197575,1,4
288,96,198025,1,4
384,160,198400,1,4
384,224,198850,1,4
320,288,199300,1,4
192,288,199750,1,4
128,224,200200,1,4
192,224,200575,1,4
320,160,201025,1,4
320,128,201475,1,4
192,64,202000,1,4
96,128,202375,1,4
128,160,202750,1,4
224,160,203200,1,4
320,160,203575,1,4
352,256,204025,1,4
288,288,204400,1,4
160,224,205525,1,4
224,192,205900,1,4
320,128,206425,1,4
384,192,206800,1,4
352,288,207250,1,4
224,320,207625,1,4
128,224,208075,1,4
128,128,208600,1,4
256,96,209050,1,4
352,96,209575,1,4
416,224,209950,1,4
384,256,210400,1,4
288,192,210700,1,4
160,192,211225,1,4
128,256,211600,1,4
192,288,212125,1,4
320,288,212575,1,4
384,224,212950,1,4
352,160,213400,1,4
192,192,213850,1,4
96,160,214150,1,4
128,64,214600,1,4
192,32,215050,1,4
352,96,215650,1,4
384,192,216100,1,4
320,256,216475,1,4
224,224,216925,1,4
192,160,217375,1,4
256,96,217600,1,4
352,96,218125,1,4
384,224,219175,1,4
256,256,219625,1,4
192,192,220000,1,4
128,256,220450,1,4
96,160,220900,1,4
224,96,221275,1,4
352,128,221575,1,4
352,224,222025,1,4
30,62,222775,6,8,B|506:363,1,542.5
168,149,226300,5,4
199,184,226750,1,4
247,240,227125,1,4
316,267,227500,1,4
369,196,227950,1,4
336,157,228250,1,4
262,128,228700,1,4
0,32,229150,1,4
32,72,229825,2,4,B|513:372,1,560
126,138,233275,1,4
165,181,234025,1,4
90,111,236875,1,8
207,171,237625,1,8
256,192,240400,12,8,243925
