osu file format v14

[General]
AudioFilename: Sweet Girl - Hello.mp3
AudioLeadIn: 0
PreviewTime: 38984
Countdown: 0
SampleSet: None
StackLeniency: 0.7
Mode: 0
LetterboxInBreaks: 0
WidescreenStoryboard: 1

[Editor]
DistanceSpacing: 1.6
BeatDivisor: 4
GridSize: 4
TimelineZoom: 1

[Metadata]
Title:Hello
TitleUnicode:안녕하세요
Artist:Sweet Girl
ArtistUnicode:스위트걸
Creator:- BiDulGi -
Version:Insane
Source:
Tags:kakaostory sns
BeatmapID:699922
BeatmapSetID:313545

[Difficulty]
HPDrainRate:7
CircleSize:4
OverallDifficulty:7
ApproachRate:9
SliderMultiplier:1.8
SliderTickRate:1

[Events]
//Background and Video events
//Break Periods
//Storyboard Layer 0 (Background)
//Storyboard Layer 1 (Fail)
//Storyboard Layer 2 (Pass)
//Storyboard Layer 3 (Foreground)
//Storyboard Sound Samples

[TimingPoints]
965,594.059405940594,4,2,0,100,1,0
8093,-83.3333333333333,4,1,1,100,0,0
10469,-100,4,2,0,100,0,0
29479,-50,4,1,2,60,0,0
36905,-50,4,2,0,60,0,0
37054,-50,4,1,2,60,0,0
37202,-50,4,2,0,60,0,0
37499,-50,4,1,2,60,0,0
37796,-50,4,2,0,60,0,0
37945,-50,4,1,2,60,0,0
38984,-66.6666666666667,4,2,1,100,0,1
57994,-66.6666666666667,4,2,0,80,0,0
58291,-66.6666666666667,4,2,0,75,0,0
58885,-66.6666666666667,4,2,0,65,0,0
59479,-66.6666666666667,4,2,0,55,0,0
60073,-66.6666666666667,4,2,0,45,0,0
60667,-66.6666666666667,4,2,0,35,0,0
61262,-66.6666666666667,4,2,0,25,0,0
61856,-66.6666666666667,4,2,0,15,0,0
62450,-66.6666666666667,4,2,0,5,0,0

[HitObjects]
72,224,965,6,0,P|144:256|224:200,1,180,8|8,0:0|0:0,0:0:0:0:
308,332,1856,1,0,0:0:0:0:
336,128,2153,2,0,L|352:8,1,90,8|0,0:0|0:0,0:0:0:0:
416,248,2747,2,0,L|400:368,1,90,8|0,0:0|0:0,0:0:0:0:
288,208,3341,6,0,L|320:-32,1,180,8|8,0:0|0:0,0:0:0:0:
368,304,4232,1,0,0:0:0:0:
208,128,4529,2,0,L|96:176,1,90,8|0,0:0|0:0,0:0:0:0:
456,216,5123,2,0,L|364:135,1,90,8|0,0:0|0:0,0:0:0:0:
232,304,5717,6,0,P|140:300|92:364,1,180,8|8,0:0|0:0,0:0:0:0:
188,204,6608,1,0,0:0:0:0:
332,328,6905,1,8,0:0:0:0:
292,56,7202,1,0,0:0:0:0:
148,220,7499,1,8,0:0:0:0:
392,124,7796,1,0,0:0:0:0:
392,124,7945,1,0,0:0:0:0:
392,124,8093,6,0,L|308:152,1,53.9999983520508
120,104,8539,1,0,0:0:0:0:
256,328,8836,2,0,P|239:269|156:240,1,107.999996704102
300,100,9430,1,0,0:0:0:0:
300,100,9504,1,0,0:0:0:0:
300,100,9578,1,0,0:0:0:0:
284,184,9727,1,0,0:0:0:0:
381,72,9875,1,4,0:0:0:0:
136,316,10469,6,0,P|108:292|28:296,1,90,4|0,0:0|0:0,0:0:0:0:
208,264,11064,1,8,0:0:0:0:
324,348,11361,1,0,0:0:0:0:
440,260,11658,2,0,B|456:197|456:197|440:149|440:149|456:86,2,180,0|8|0,0:0|0:0|0:0,0:0:0:0:
344,368,13143,5,0,0:0:0:0:
244,264,13440,2,0,L|157:238,1,90,8|0,0:0|0:0,0:0:0:0:
88,252,13885,2,0,P|105:188|168:167,1,135
292,232,14628,1,8,0:0:0:0:
304,248,14776,2,0,L|288:104,1,135
204,0,15519,5,0,0:0:0:0:
176,140,15816,2,0,P|171:191|202:234,1,90,8|0,0:0|0:0,0:0:0:0:
260,208,16262,2,0,L|108:284,1,135
8,144,17004,1,8,0:0:0:0:
152,160,17301,1,0,0:0:0:0:
272,284,17598,6,0,P|342:337|430:339,1,180,0|8,0:0|0:0,0:0:0:0:
390,199,18489,1,0,0:0:0:0:
509,115,18786,2,0,P|438:61|350:59,1,180,0|8,0:0|0:0,0:0:0:0:
48,52,19974,6,0,B|86:74|86:74|132:72,1,90,2|0,0:0|0:0,0:0:0:0:
148,64,20420,2,0,L|132:140,1,45,2|8,0:0|0:0,0:0:0:0:
204,284,20865,1,2,0:0:0:0:
280,156,21163,2,0,P|372:132|460:200,1,180,0|10,0:0|0:0,0:0:0:0:
452,244,21905,2,0,L|456:328,2,45
508,200,22351,5,2,0:0:0:0:
372,32,22796,1,2,0:0:0:0:
372,32,22945,1,8,0:0:0:0:
436,160,23242,1,2,0:0:0:0:
448,176,23390,2,0,L|300:136,1,135
148,36,24133,2,0,L|160:104,1,45,10|0,0:0|0:0,0:0:0:0:
68,276,24727,5,2,0:0:0:0:
176,372,25024,1,0,0:0:0:0:
316,340,25321,1,8,0:0:0:0:
208,244,25618,1,2,0:0:0:0:
208,244,25766,2,0,P|198:263|200:296,1,45
172,144,26212,2,0,P|180:100|148:32,1,90,0|10,0:0|0:0,0:0:0:0:
160,48,26658,1,0,0:0:0:0:
150,38,26806,1,0,0:0:0:0:
139,30,26955,1,0,0:0:0:0:
127,24,27103,6,0,L|16:24,1,90,2|0,0:0|0:0,0:0:0:0:
4,88,27549,1,2,0:0:0:0:
4,88,27697,2,0,P|16:136|72:164,1,90,8|0,0:0|0:0,0:0:0:0:
344,152,28291,1,2,0:0:0:0:
412,175,28440,1,0,0:0:0:0:
480,200,28588,1,2,0:0:0:0:
314,340,28885,1,8,0:0:0:0:
276,129,29182,1,0,0:0:0:0:
424,344,29479,6,0,P|408:248|256:240,1,270
88,40,30370,2,0,P|104:136|256:144,1,270
488,296,31262,2,0,L|280:244,1,180
180,328,31856,6,0,P|56:316|44:192,1,270
467,191,32747,2,0,P|456:315|332:328,1,270
256,52,33638,1,0,0:0:0:0:
256,97,33786,1,0,0:0:0:0:
256,142,33935,1,0,0:0:0:0:
256,187,34083,1,0,0:0:0:0:
256,232,34232,6,0,B|192:256|192:256|172:316|172:316|100:336|48:276,1,270
256,232,35123,2,0,B|320:256|320:256|340:316|340:316|412:336|464:276,1,270
380,56,36014,1,0,0:0:0:0:
132,56,36311,1,0,0:0:0:0:
68,276,36608,2,0,P|108:312|256:292,1,180
304,364,37054,1,0,0:0:0:0:
300,272,37202,2,0,P|312:208|416:160,1,180
156,16,37796,2,0,L|196:112,1,90
48,256,38093,2,0,L|88:160,1,90
200,228,38390,1,0,0:0:0:0:
227,213,38464,1,0,0:0:0:0:
259,211,38538,1,0,0:0:0:0:
289,220,38612,1,0,0:0:0:0:
313,239,38687,1,0,0:0:0:0:
328,266,38761,1,0,0:0:0:0:
332,297,38835,1,0,0:0:0:0:
324,328,38909,1,0,0:0:0:0:
306,353,38984,5,4,0:0:0:0:
404,160,39281,1,0,0:0:0:0:
244,16,39578,2,0,P|209:68|244:152,1,135.000005149842,10|0,0:2|0:0,0:0:0:0:
136,76,40024,2,0,P|104:60|40:76,1,67.5000025749208
227,213,40469,2,0,L|395:189,2,135.000005149842,0|10|0,0:0|0:0|0:0,0:0:0:0:
64,356,41361,6,0,P|36:288|108:220,1,135.000005149842
216,300,41955,2,0,L|368:344,1,135.000005149842,10|0,0:0|0:0,0:0:0:0:
440,284,42400,2,0,P|480:276|512:236,1,67.5000025749208
412,60,42846,2,0,P|420:168|460:208,2,135.000005149842,0|10|0,0:0|0:0|0:0,0:0:0:0:
200,24,43737,6,0,P|64:160|200:296,1,270.000010299683,0|10,0:0|0:0,0:0:0:0:
216,376,44628,1,0,0:0:0:0:
200,160,44925,2,0,L|468:136,1,270.000010299683,0|10,0:0|0:0,0:0:0:0:
468,352,45816,1,0,0:0:0:0:
260,292,46113,6,0,P|192:284|136:328,1,135.000005149842
64,100,46707,1,10,0:0:0:0:
256,200,47004,1,0,0:0:0:0:
256,200,47153,2,0,L|396:136,1,135.000005149842,0|2,0:0|0:0,0:0:0:0:
480,180,47598,2,0,P|480:104|448:58,1,135.000005149842,0|10,0:0|0:0,0:0:0:0:
420,272,48192,1,0,0:0:0:0:
468,368,48341,1,0,0:0:0:0:
328,328,48489,6,0,L|168:320,1,135.000005149842,4|0,0:0|0:0,0:0:0:0:
0,224,49083,2,0,P|56:160|156:188,1,135.000005149842,10|0,0:0|0:0,0:0:0:0:
40,68,49529,2,0,L|56:-48,1,67.5000025749208
192,164,49974,2,0,L|160:396,2,135.000005149842,0|10|0,0:0|0:0|0:0,0:0:0:0:
372,44,50865,5,0,0:0:0:0:
448,248,51163,1,0,0:0:0:0:
236,216,51460,2,0,P|176:216|128:276,1,135.000005149842,10|0,0:0|0:0,0:0:0:0:
248,128,51905,2,0,P|284:112|312:72,1,67.5000025749208
92,40,52351,2,0,B|112:216,2,135.000005149842,0|10|0,0:0|0:0|0:0,0:0:0:0:
328,208,53242,6,0,P|164:284|240:448,1,270.000010299683,0|10,0:0|0:0,0:0:0:0:
100,144,54133,1,0,0:0:0:0:
284,328,54430,2,0,L|308:52,1,270.000010299683,0|10,0:0|0:0,0:0:0:0:
44,120,55618,6,0,P|116:156|188:104,1,135.000005149842
364,56,56212,1,10,0:0:0:0:
408,268,56509,1,0,0:0:0:0:
328,196,56658,2,0,L|316:360,1,135.000005149842,0|2,0:0|0:0,0:0:0:0:
248,180,57103,2,0,L|260:16,1,135.000005149842,0|10,0:0|0:0,0:0:0:0:
484,280,57846,5,2,0:0:0:0:
256,192,57994,12,0,62450,0:0:0:0:
