osu file format v14

[General]
AudioFilename: audio.mp3
AudioLeadIn: 0
PreviewTime: 67769
Countdown: 0
SampleSet: None
StackLeniency: 0.7
Mode: 0
LetterboxInBreaks: 0
WidescreenStoryboard: 1

[Editor]
DistanceSpacing: 1
BeatDivisor: 4
GridSize: 8
TimelineZoom: 2.899999

[Metadata]
Title:Trust In You (TV Size)
TitleUnicode:Trust In You (TV Size)
Artist:Sweet ARMS
ArtistUnicode:Sweet ARMS
Creator:aonidn1
Version:Normal
Source:デート・ア・ライブ Ⅱ
Tags:Date A Live 2 Opening
BeatmapID:1117712
BeatmapSetID:526746

[Difficulty]
HPDrainRate:2
CircleSize:2
OverallDifficulty:3
ApproachRate:4
SliderMultiplier:1.8
SliderTickRate:1

[Events]
//Background and Video events
0,0,"BG.jpg",0,0
//Break Periods
//Storyboard Layer 0 (Background)
//Storyboard Layer 1 (Fail)
//Storyboard Layer 2 (Pass)
//Storyboard Layer 3 (Foreground)
//Storyboard Sound Samples

[TimingPoints]
507,315.789473684211,4,2,1,75,1,0
507,-200,4,2,1,75,0,0
15585,-200,4,2,3,85,0,0
15743,-200,4,2,1,75,0,0
16691,-200,4,2,2,25,0,0
16849,-200,4,2,1,75,0,0
18112,-200,4,2,2,25,0,0
18270,-200,4,2,1,75,0,0
19375,-200,4,2,2,25,0,0
19533,-200,4,2,1,75,0,0
19849,-200,4,2,2,75,0,0
20007,-200,4,2,1,75,0,0
20164,-200,4,2,2,75,0,0
20638,-200,4,2,2,25,0,0
20796,-200,4,2,1,75,0,0
21428,-200,4,2,2,75,0,0
21743,-200,4,2,2,25,0,0
21901,-200,4,2,1,75,0,0
22691,-200,4,2,2,75,0,0
23164,-200,4,2,2,25,0,0
23322,-200,4,2,1,75,0,0
23480,-200,4,2,2,75,0,0
23796,-200,4,2,2,25,0,0
23954,-200,4,2,1,75,0,0
24428,-200,4,2,2,25,0,0
24585,-200,4,2,1,75,0,0
24743,-200,4,2,2,25,0,0
24901,-200,4,2,1,75,0,0
25059,-200,4,2,2,25,0,0
25217,-200,4,2,4,25,0,0
25730,-200,4,2,2,25,0,0
25809,-200,4,2,1,75,0,0
26322,-200,4,2,0,75,0,0
26480,-200,4,2,1,75,0,0
26796,-200,4,2,2,25,0,0
26954,-200,4,2,1,75,0,0
27585,-200,4,2,0,75,0,0
27743,-200,4,2,1,75,0,0
29480,-200,4,2,0,75,0,0
29638,-200,4,2,1,75,0,0
30743,-200,4,2,2,25,0,0
30901,-200,4,2,1,75,0,0
31375,-200,4,2,0,75,0,0
31533,-200,4,2,1,75,0,0
31849,-200,4,2,2,25,0,0
32007,-200,4,2,1,75,0,0
32638,-200,4,2,0,75,0,0
32796,-200,4,2,1,75,0,0
33901,-200,4,2,0,75,0,0
34059,-200,4,2,1,75,0,0
34849,-200,4,2,0,75,0,0
35007,-200,4,2,1,75,0,0
35243,-200,4,2,4,25,0,0
35835,-200,4,2,2,75,0,0
36901,-200,4,2,2,25,0,0
37059,-200,4,2,2,75,0,0
37375,-200,4,2,2,25,0,0
37533,-200,4,2,1,75,0,0
37770,1276.59574468085,4,2,1,15,1,0
38401,315.789473684211,4,2,1,75,1,0
38401,-200,4,2,2,25,0,0
38479,-200,4,2,1,75,0,0
38953,-200,4,2,0,75,0,0
39111,-200,4,2,1,75,0,0
40216,-200,4,2,0,75,0,0
40374,-200,4,2,1,75,0,0
41479,-200,4,2,0,75,0,0
41637,-200,4,2,1,75,0,0
42111,-200,4,2,0,75,0,0
42269,-200,4,2,1,75,0,0
44637,-200,4,2,0,75,0,0
44795,-200,4,2,1,75,0,0
45269,-200,4,2,0,75,0,0
45427,-200,4,2,1,75,0,0
48427,-200,4,2,2,45,0,0
48585,-200,4,2,1,75,0,0
50322,-200,4,2,0,75,0,0
50479,-200,4,2,1,75,0,0
50953,-200,4,2,0,75,0,0
51111,-200,4,2,1,75,0,0
52216,-200,4,2,0,75,0,0
52374,-200,4,2,1,75,0,0
53479,-200,4,2,0,75,0,0
53637,-200,4,2,1,75,0,0
54111,-200,4,2,0,75,0,0
54269,-200,4,2,1,75,0,0
56006,-200,4,2,0,75,0,0
56164,-200,4,2,1,75,0,0
57901,-200,4,2,2,75,0,0
58058,-200,4,2,1,75,0,0
58532,-200,4,2,2,75,0,0
59637,-200,4,2,2,25,0,0
59795,-200,4,2,1,75,0,0
61058,-200,4,2,2,75,0,0
62164,-200,4,2,2,25,0,0
62322,-200,4,2,2,75,0,0
63585,-200,4,2,2,25,0,0
63743,-200,4,2,0,75,0,0
64058,-200,4,2,1,75,0,0
64690,-200,4,2,2,25,0,0
64848,-200,4,2,1,75,0,0
65795,-200,4,2,0,75,0,0
66111,-200,4,2,2,25,0,0
66269,-200,4,2,1,75,0,0
66585,-200,4,2,2,25,0,0
66743,-200,4,2,2,75,0,0
67216,-200,4,2,2,25,0,0
67374,-200,4,2,2,75,0,0
67848,-200,4,2,4,75,0,0
68558,-200,4,2,30,100,0,1
68578,-200,4,2,1,75,0,1
69269,-200,4,2,0,75,0,1
69427,-200,4,2,1,75,0,1
69743,-200,4,2,2,25,0,1
69901,-200,4,2,1,75,0,1
70532,-200,4,2,0,75,0,1
70690,-200,4,2,1,75,0,1
71006,-200,4,2,2,25,0,1
71164,-200,4,2,1,75,0,1
71795,-200,4,2,0,75,0,1
71953,-200,4,2,1,75,0,1
72269,-200,4,2,2,25,0,1
72427,-200,4,2,1,75,0,1
73058,-200,4,2,0,75,0,1
73216,-200,4,2,1,75,0,1
73532,-200,4,2,2,25,0,1
73690,-200,4,2,1,75,0,1
74322,-200,4,2,0,75,0,1
74479,-200,4,2,1,75,0,1
74795,-200,4,2,2,25,0,1
74953,-200,4,2,1,75,0,1
75585,-200,4,2,3,75,0,1
75743,-200,4,2,1,75,0,1
76216,-200,4,2,2,25,0,1
76374,-200,4,2,1,75,0,1
76848,-200,4,2,0,75,0,1
77006,-200,4,2,1,75,0,1
77322,-200,4,2,2,25,0,1
77479,-200,4,2,1,75,0,1
77558,-200,4,2,4,25,0,1
78585,-200,4,2,30,100,0,1
78743,-200,4,2,1,75,0,1
78901,-200,4,2,0,75,0,1
79058,-200,4,2,1,75,0,1
79848,-200,4,2,2,25,0,1
80006,-200,4,2,1,75,0,1
80637,-200,4,2,0,75,0,1
80795,-200,4,2,1,75,0,1
81111,-200,4,2,2,25,0,1
81269,-200,4,2,1,75,0,1
81901,-200,4,2,0,75,0,1
82058,-200,4,2,1,75,0,1
82374,-200,4,2,2,25,0,1
82532,-200,4,2,1,75,0,1
83164,-200,4,2,0,75,0,1
83322,-200,4,2,1,75,0,1
83637,-200,4,2,2,25,0,1
83795,-200,4,2,1,75,0,1
84427,-200,4,2,0,75,0,1
84585,-200,4,2,1,75,0,1
84901,-200,4,2,2,25,0,1
85058,-200,4,2,1,75,0,1
85690,-200,4,2,0,75,0,1
85848,-200,4,2,1,75,0,1
86322,-200,4,2,2,25,0,1
86479,-200,4,2,1,75,0,1
86634,-200,4,2,0,75,0,1
86795,-200,4,2,2,25,0,1
86953,-200,4,2,1,75,0,1
87585,-200,4,2,0,75,0,1
87743,-200,4,2,2,25,0,1
87901,-200,4,2,1,75,0,1
88532,-200,4,2,4,25,0,1
88887,-200,4,2,2,35,0,1
89006,-200,4,2,0,75,0,1
90190,-200,4,2,1,75,0,1
91374,-200,4,2,30,100,0,1
91532,-200,4,2,1,75,0,1
92006,-200,4,2,0,75,0,1
92164,-200,4,2,1,75,0,1
92479,-200,4,2,2,25,0,1
92637,-200,4,2,1,75,0,1
93269,-200,4,2,0,75,0,1
93427,-200,4,2,1,75,0,1
93901,-200,4,2,2,25,0,1
94058,-200,4,2,1,75,0,1
95164,-200,4,2,0,75,0,1
95322,-200,4,2,1,75,0,1
95835,-200,4,2,2,25,0,1
95953,-200,4,2,1,75,0,1
96111,-200,4,2,0,75,0,1
96269,-200,4,2,1,75,0,1
96427,-200,4,2,2,25,0,1
96585,-200,4,2,1,75,0,1
97058,-200,4,2,2,25,0,1
97216,-200,4,2,0,75,0,1
97532,-200,4,2,2,25,0,1
97690,-200,4,2,1,75,0,1
100295,-200,4,2,1,15,0,0

[Colours]
Combo1 : 255,191,191
Combo2 : 218,218,182
Combo3 : 255,255,179
Combo4 : 179,255,255
Combo5 : 166,255,166

[HitObjects]
256,192,15664,5,4,0:0:0:0:
464,48,16770,1,8,0:0:0:0:
256,344,18191,1,8,0:0:0:0:
40,192,19454,1,8,0:0:0:0:
256,40,20717,5,8,0:0:0:0:
464,192,21822,1,8,0:0:0:0:
256,192,23243,1,8,0:0:0:0:
32,40,23875,1,8,0:0:0:0:
256,192,24507,2,0,P|320:192|344:168,1,90,8|8,0:0|0:0,0:0:0:0:
160,72,25138,2,0,P|104:152|168:192,1,180,8|8,0:0|0:0,0:0:0:0:
256,344,26085,2,0,P|256:248|312:192,1,180,8|8,0:0|0:0,0:0:0:0:
456,104,26875,1,8,0:0:0:0:
256,56,27349,6,0,P|160:88|160:168,1,180,8|8,0:0|0:0,0:0:0:0:
256,344,28612,1,8,0:0:0:0:
400,256,29243,2,0,L|400:72,1,180,8|8,0:0|0:0,0:0:0:0:
104,72,30507,2,0,L|48:152,1,90,8|8,0:0|0:0,0:0:0:0:
384,320,31138,6,0,P|288:320|256:240,1,180,8|8,0:0|0:0,0:0:0:0:
256,72,31928,1,0,0:0:0:0:
24,192,32401,2,0,P|72:288|152:288,1,180,8|8,0:0|0:0,0:0:0:0:
256,192,33664,2,0,P|296:104|384:72,1,180,8|8,0:0|0:0,0:0:0:0:
416,328,34612,2,0,L|272:328,1,135,2|8,0:0|0:0,0:0:0:0:
80,272,35559,1,8,0:0:0:0:
256,192,35875,2,0,P|256:144|232:104,2,90
256,344,36980,1,8,0:0:0:0:
472,192,37454,1,8,0:0:0:0:
376,80,37770,6,0,L|256:80,1,90,0|8,0:0|0:0,0:0:0:0:
64,168,38716,2,0,P|160:168|200:240,1,180,8|8,0:0|0:0,0:0:0:0:
328,320,39979,2,0,P|416:264|416:184,1,180,8|8,0:0|0:0,0:0:0:0:
344,96,41243,2,0,P|240:96|184:48,2,180,8|8|8,0:0|0:0|0:0,0:0:0:0:
472,192,43137,1,8,0:0:0:0:
256,344,43769,1,8,0:0:0:0:
40,192,44401,2,0,P|112:112|192:104,2,180,8|8|8,0:0|0:0|0:0,0:0:0:0:
432,328,46295,5,8,0:0:0:0:
336,56,46927,1,8,0:0:0:0:
256,344,47558,1,8,0:0:0:0:
472,192,48190,1,8,0:0:0:0:
472,192,48348,1,8,0:0:0:0:
472,192,48506,2,0,L|368:192,1,90,8|8,0:0|0:0,0:0:0:0:
256,192,49453,1,8,0:0:0:0:
136,64,50085,2,0,P|40:128|40:200,2,180,8|8|8,0:0|0:0|0:0,0:0:0:0:
256,336,51979,2,0,P|160:336|128:256,1,180,8|8,0:0|0:0,0:0:0:0:
256,192,53243,6,0,P|352:192|416:136,2,180,8|8|8,0:0|0:0|0:0,0:0:0:0:
152,96,55137,1,8,0:0:0:0:
80,248,55769,2,0,P|160:304|256:304,1,180,8|8,0:0|0:0,0:0:0:0:
368,240,57032,1,8,0:0:0:0:
368,112,57664,2,0,P|368:56|392:24,1,90,8|2,0:0|0:0,0:0:0:0:
472,192,58611,2,0,P|408:264|320:264,1,180,2|2,0:0|0:0,0:0:0:0:
256,336,59716,1,8,0:0:0:0:
256,192,61137,2,0,P|192:128|96:128,1,180,2|2,0:0|0:0,0:0:0:0:
256,344,62243,1,8,0:0:0:0:
256,192,63664,6,0,P|320:112|400:112,1,180,8|8,0:0|0:0,0:0:0:0:
464,192,64769,1,8,0:0:0:0:
360,296,65558,2,0,P|256:296|192:240,1,180,8|8,0:0|0:0,0:0:0:0:
144,112,66664,1,8,0:0:0:0:
256,40,67295,1,8,0:0:0:0:
256,192,67769,2,0,P|304:160|344:160,2,90,2|8|8,0:0|0:0|0:0,0:0:0:0:
256,336,68558,1,4,0:0:0:0:
72,272,69032,6,0,P|72:168|128:104,1,180,8|8,0:0|0:0,0:0:0:0:
256,48,69822,1,8,0:0:0:0:
464,344,70295,2,0,L|304:232,1,180,8|8,0:0|0:0,0:0:0:0:
312,80,71085,1,8,0:0:0:0:
168,264,71558,2,0,P|64:264|32:200,1,180,8|8,0:0|0:0,0:0:0:0:
120,64,72348,1,8,0:0:0:0:
256,40,72822,6,0,P|336:80|336:168,1,180,8|8,0:0|0:0,0:0:0:0:
168,264,73611,1,8,0:0:0:0:
397,311,74085,2,0,P|397:215|333:159,1,180,8|8,0:0|0:0,0:0:0:0:
192,40,74874,1,8,0:0:0:0:
56,136,75348,2,0,P|56:200|80:232,2,90,8|2|8,0:0|0:0|0:0,0:0:0:0:
256,40,76295,1,8,0:0:0:0:
384,120,76611,6,0,P|384:224|312:248,1,180,8|8,0:0|0:0,0:0:0:0:
64,328,77401,1,8,0:0:0:0:
128,192,77716,2,0,L|128:160,2,22.5,8|8|8,0:0|0:0|0:0,0:0:0:0:
472,328,78032,2,0,L|416:328,1,45,8|8,0:0|0:0,0:0:0:0:
308,128,78348,2,0,L|372:128,1,45,8|8,0:0|0:0,0:0:0:0:
256,248,78664,2,0,P|256:184|304:128,1,135,4|8,0:0|0:0,0:0:0:0:
464,48,79769,1,8,0:0:0:0:
400,192,79927,1,8,0:0:0:0:
256,288,80401,2,0,P|152:288|80:336,1,180,8|8,0:0|0:0,0:0:0:0:
32,192,81190,1,8,0:0:0:0:
400,80,81664,6,0,P|400:176|344:248,1,180,8|8,0:0|0:0,0:0:0:0:
256,344,82453,1,8,0:0:0:0:
64,192,82927,2,0,P|128:104|192:88,1,180,8|8,0:0|0:0,0:0:0:0:
368,56,83716,1,8,0:0:0:0:
256,192,84190,2,0,P|256:272|352:320,1,180,8|8,0:0|0:0,0:0:0:0:
472,192,84979,1,8,0:0:0:0:
256,64,85453,6,0,P|152:64|104:120,1,180,8|8,0:0|0:0,0:0:0:0:
104,320,86401,2,0,P|184:320|224:288,1,135,8|8,0:0|0:0,0:0:0:0:
400,112,87348,2,0,P|304:112|272:152,1,135,2|8,0:0|0:0,0:0:0:0:
320,328,88295,2,0,P|376:328|400:304,1,90,2|8,0:0|0:0,0:0:0:0:
192,201,88769,1,8,0:0:0:0:
192,201,88927,2,0,P|280:80|376:208,1,360,8|0,0:0|0:0,0:0:0:0:
256,192,90229,12,4,91453,0:0:0:0:
128,328,91769,6,0,P|40:264|40:192,1,180,8|8,0:0|0:0,0:0:0:0:
40,56,92558,1,8,0:0:0:0:
256,192,93032,2,0,P|296:112|384:64,1,180,8|8,0:0|0:0,0:0:0:0:
472,184,93979,1,8,0:0:0:0:
256,344,94295,1,8,0:0:0:0:
40,192,94927,2,0,P|128:136|176:192,1,180,8|8,0:0|0:0,0:0:0:0:
320,320,95874,2,0,P|416:320|456:256,1,180,8|8,0:0|0:0,0:0:0:0:
312,112,97137,2,0,P|216:112|184:144,1,135,8|8,0:0|0:0,0:0:0:0:
256,192,97690,12,0,100295,0:0:0:0:
