osu file format v9

[General]
AudioFilename: Sweet - Hell raiser.mp3
AudioLeadIn: 0
PreviewTime: 47117
Countdown: 1
SampleSet: Normal
StackLeniency: 0.7
Mode: 0
LetterboxInBreaks: 0

[Editor]
DistanceSpacing: 0.7
BeatDivisor: 4
GridSize: 8

[Metadata]
Title:Hell Raiser
Artist:Sweet
Creator:m980
Version:Hard ROCK!
Source:
Tags:

[Difficulty]
HPDrainRate:8
CircleSize:4
OverallDifficulty:6
ApproachRate:8
SliderMultiplier:2.4
SliderTickRate:2

[Events]
//Background and Video events
0,0,"hell.jpg"
//Break Periods
2,35205,45973
2,65409,78772
2,131770,145826
//Storyboard Layer 0 (Background)
//Storyboard Layer 1 (Fail)
//Storyboard Layer 2 (Pass)
//Storyboard Layer 3 (Foreground)
//Storyboard Sound Samples
//Background Colour Transformations
3,100,163,162,255

[TimingPoints]
4705.37285644292,379.266750948167,4,1,0,100,1,0
10773,387.096774193548,4,1,0,100,1,0
13869,377.358490566038,4,1,0,100,1,0
16887,372.670807453416,4,1,0,100,1,0
25835,379.746835443038,4,1,0,100,1,0
31910,375,4,1,0,100,1,0
34160,422.535211267606,4,1,0,100,1,0
35005,379.746835443038,4,1,0,100,1,0
41080,368.098159509202,4,1,0,100,1,0
44057,380.952380952381,4,1,0,100,1,0
53199,375,4,1,0,100,1,0
56172,379.746835443038,4,1,0,100,1,0
62247,370.37037037037,4,1,0,100,1,0
68172,376.175548589342,4,1,0,100,1,0
72686,370.37037037037,4,1,0,100,1,0
77130,368.098159509202,4,1,0,100,1,0
80074,377.833753148615,4,1,0,100,1,0
86119,434.782608695652,4,1,0,100,1,0
89409,383.386581469649,4,1,0,100,1,0
95527,368.098159509202,4,1,0,100,1,0
98471,379.746835443038,4,1,0,100,1,0
101508,382.165605095541,4,1,0,100,1,0
106093,375,4,1,0,100,1,0
107593,361.44578313253,4,1,0,100,1,0
110484,380.952380952381,4,1,0,100,1,0
115055,370.37037037037,4,1,0,100,1,0
116536,366.97247706422,4,1,0,100,1,0
119471,380.952380952381,4,1,0,100,1,0
125566,377.358490566038,4,1,0,100,1,0
128584,373.366521468575,4,1,0,100,1,0
134557,371.517027863777,4,1,0,100,1,0
137529,369.230769230769,4,1,0,100,1,0
140482,368.098159509202,4,1,0,100,1,0
143457,382.165605095541,4,1,0,100,1,0
145749,413.793103448276,4,1,0,100,1,0
146576,379.746835443038,4,1,0,100,1,0
151132,372.670807453416,4,1,0,100,1,0
155604,377.358490566038,4,1,0,100,1,0
158622,382.165605095541,4,1,0,100,1,1
163207,372.670807453416,4,1,0,100,1,1
164697,365.853658536585,4,1,0,100,1,1
167623,377.358490566038,4,1,0,100,1,1
172151,365.853658536585,4,1,0,100,1,1
173614,359.281437125748,4,1,0,100,1,1
176501,377.358490566038,4,1,0,100,1,1

[HitObjects]
320,112,25835,1,4
384,64,26024,1,0
320,16,26214,1,8
256,64,26404,1,0
192,16,26594,2,0,B|-18:172,1,240,4|8
0,240,27164,1,0
76,207,27353,2,0,B|452:207,1,360,4|4
320,336,28303,37,0
256,384,28493,1,8
192,336,28683,1,0
192,112,29062,21,0
128,64,29252,1,4
192,16,29442,1,0
256,64,29632,1,0
320,16,29822,1,0
384,64,30012,1,4
320,112,30202,1,0
256,280,30581,5,0
328,240,30771,1,4
360,312,30961,2,0,B|305:381|198:384|141:297,1,240,0|0
184,240,31531,1,4
0,16,31910,5,4
64,64,32097,1,0
128,16,32285,1,0
152,96,32472,2,0,B|207:165|314:168|371:81,1,240
392,176,33035,1,0
416,256,33222,2,2,B|337:352|194:345|136:303|89:246,1,360,2|0
80,176,33972,1,0
136,112,34160,1,0
216,88,34371,1,4
296,88,34582,1,8
376,112,34793,1,0
432,176,35005,1,4
304,368,46723,5,8
384,368,46914,1,0
464,368,47104,2,6,B|560:336|554:217|460:191,1,240,6|8
448,280,47676,2,4,B|192:280,1,240,6|0
126,280,48247,1,8
126,280,48437,1,0
48,280,48628,2,6,B|-48:248|-42:129|52:103,1,240,6|8
64,192,49199,2,4,B|320:192,1,240,6|0
382,192,49771,1,8
382,192,49961,1,0
464,192,50152,2,6,B|560:160|554:41|460:15,1,240,6|8
448,104,50723,2,4,B|192:104,1,240,6|8
128,104,51295,1,8
216,272,51676,5,4
296,272,51866,1,0
360,320,52056,2,8,B|305:389|198:392|141:305,2,240
512,16,53009,5,6
400,152,53386,1,0
400,152,53480,1,0
400,152,53574,1,0
400,232,53761,1,6
256,312,54136,1,0
256,232,54324,1,6
256,152,54511,1,0
256,152,54605,1,0
256,152,54699,1,0
256,64,54886,1,6
112,152,55261,1,0
112,232,55449,1,6
208,368,55824,21,8
128,368,56011,1,0
48,368,56172,2,6,B|-48:336|-42:217|52:191,1,240,6|8
64,280,56741,2,4,B|320:280,1,240,6|0
383,282,57311,1,8
383,282,57501,1,0
464,280,57690,2,6,B|560:248|554:129|460:103,1,240,6|8
448,192,58260,2,4,B|192:192,1,240,6|0
127,194,58830,1,8
127,194,59020,1,0
48,192,59209,2,6,B|-48:160|-42:41|52:15,1,240,6|8
64,104,59779,2,4,B|320:104,1,240,6|8
384,104,60349,1,8
296,272,60728,5,4
216,272,60918,1,0
152,320,61108,2,8,B|207:389|314:392|371:305,2,240,8|12|8
0,16,62058,21,6
112,152,62432,1,0
112,152,62524,1,0
112,152,62617,1,0
112,232,62802,1,6
256,320,63172,1,0
256,240,63358,1,6
328,200,63543,1,0
328,200,63635,1,0
328,200,63728,1,0
328,280,63913,1,4
408,280,64098,1,0
488,280,64284,2,4,B|472:80|320:-8|160:8|40:120,1,600
192,0,79522,5,0
128,48,79706,1,8
192,96,79890,1,0
256,48,80074,2,0,B|466:204,1,240,4|8
376,368,80829,2,0,B|120:368,1,240,4|8
128,288,81396,5,0
192,240,81585,1,4
256,288,81774,1,0
320,240,81963,1,8
384,288,82152,1,4
320,128,82529,1,0
256,176,82718,1,8
192,128,82907,1,0
192,48,83096,5,4
256,0,83285,1,0
320,48,83474,1,8
488,16,83852,2,0,B|560:176|504:312|376:368|248:320,1,480,4|4
216,280,84796,1,0
152,328,84985,1,8
48,192,85363,1,4
0,128,85552,1,0
48,64,85741,1,8
256,192,86119,12,4,89409
480,104,89792,21,8
408,64,89984,1,0
336,24,90175,1,4
176,24,90559,1,8
104,64,90750,1,0
32,104,90942,2,0,B|16:264|152:384|304:368|384:320,1,480,4|4
256,176,92092,1,8
256,176,92284,1,0
192,120,92476,5,4
128,72,92667,1,0
192,24,92859,1,8
256,72,93051,1,0
320,120,93242,1,4
384,72,93434,1,0
320,24,93626,1,8
416,192,94201,2,2,B|337:288|194:281|136:239|89:182,1,360,2|0
136,24,95159,5,8
216,24,95351,1,0
296,24,95527,1,4
376,24,95711,1,0
432,80,95895,1,8
432,160,96079,1,4
272,168,96447,1,0
216,224,96631,1,8
160,280,96815,1,0
216,360,96999,5,4
136,360,97183,1,0
80,304,97367,1,8
80,224,97551,1,4
256,192,98471,12,4,100559
208,368,101129,5,8
128,368,101319,1,0
48,368,101508,2,14,B|-48:336|-42:217|52:191,1,240,6|8
64,280,102081,2,4,B|320:280,1,240,6|0
383,282,102654,1,8
383,282,102845,1,0
464,280,103036,2,6,B|560:248|554:129|460:103,1,240,6|8
448,192,103609,2,4,B|192:192,1,240,6|0
127,194,104183,1,8
127,194,104374,1,0
48,192,104565,2,6,B|-48:160|-42:41|52:15,1,240,6|8
64,104,105138,2,4,B|320:104,1,240,6|8
384,104,105711,1,8
512,120,106093,5,4
512,200,106280,1,0
448,248,106468,2,8,B|404:363|256:416|95:360|60:235,1,480
0,16,107405,5,6
112,152,107773,1,0
112,152,107864,1,0
112,152,107954,1,0
112,232,108135,1,6
256,312,108496,1,0
256,232,108677,1,6
256,152,108858,1,0
256,152,108948,1,0
256,152,109038,1,0
256,64,109219,1,6
400,152,109580,1,0
400,232,109761,1,6
304,368,110123,21,8
384,368,110303,1,0
464,368,110484,2,6,B|560:336|554:217|460:191,1,240,6|8
448,280,111055,2,4,B|192:280,1,240,6|0
126,280,111626,1,8
126,280,111817,1,0
48,280,112007,2,6,B|-48:248|-42:129|52:103,1,240,6|8
64,192,112579,2,4,B|320:192,1,240,6|0
382,192,113150,1,8
382,192,113341,1,0
464,192,113531,2,6,B|560:160|554:41|460:15,1,240,6|8
448,104,114103,2,4,B|192:104,1,240,6|8
128,104,114674,1,8
0,120,115055,5,4
0,200,115240,1,0
64,248,115425,2,8,B|108:363|256:416|417:360|452:235,1,480
512,16,116351,21,6
400,152,116719,1,0
400,152,116811,1,0
400,152,116902,1,0
400,232,117086,1,6
256,312,117453,1,0
256,232,117636,1,6
256,152,117820,1,0
256,152,117912,1,0
256,152,118003,1,0
208,80,118187,1,4
128,80,118370,1,0
96,160,118554,2,0,B|175:256|318:249|376:207|423:150,1,360,0|4
16,112,119471,5,4
56,40,119661,1,0
136,40,119851,1,8
296,40,120232,1,8
256,112,120423,1,0
216,40,120613,1,8
376,40,120994,1,4
456,40,121185,1,0
496,112,121375,1,8
496,192,121566,2,4,B|0:192,1,480,4|0
16,272,122518,5,4
56,344,122709,1,0
136,344,122899,1,8
296,344,123280,1,8
256,272,123470,1,0
216,344,123661,1,8
376,344,124042,1,4
456,344,124232,1,0
496,272,124423,1,8
344,24,124994,6,0,B|312:120|193:114|167:20,1,240,4|0
256,0,125566,1,0
16,192,125943,1,4
16,192,126037,1,0
16,192,126132,1,0
176,192,126509,1,0
176,192,126603,1,0
176,192,126698,1,0
336,192,127075,1,0
336,192,127169,1,0
336,192,127264,1,0
496,112,127641,1,0
496,272,127830,1,4
344,368,128018,6,0,B|312:272|193:278|167:372,1,240,0|0
256,384,128584,1,4
16,192,128957,21,4
176,192,129330,1,0
496,192,129890,5,4
416,336,130264,1,0
336,192,130637,1,0
336,192,130824,1,0
344,16,131010,22,4,B|312:112|193:106|167:12,1,240,0|0
256,0,131570,1,0
416,120,146576,53,4
480,72,146765,1,0
416,24,146955,1,8
352,72,147145,1,0
288,24,147335,1,4
224,72,147525,1,8
288,120,147715,1,8
224,168,147905,1,0
160,120,148094,1,4
96,72,148284,1,0
32,120,148474,1,8
96,168,148664,1,0
400,352,149044,37,0
464,304,149234,1,8
400,256,149424,1,0
336,304,149613,1,4
272,352,149803,1,0
208,304,149993,1,8
272,256,150183,1,4
256,160,150943,21,0
320,112,151132,1,4
256,64,151318,1,0
192,112,151504,1,8
80,224,151877,1,4
136,360,152250,5,8
216,360,152436,1,0
296,360,152622,1,4
376,360,152809,1,0
432,304,152995,1,8
432,224,153181,1,4
288,232,153554,1,0
232,176,153740,1,8
176,120,153927,1,0
216,24,154113,5,4
136,24,154299,1,0
80,80,154486,1,8
80,160,154672,1,4
256,192,155604,12,4,157679
48,280,158245,5,8
128,280,158434,1,0
208,280,158622,2,6,B|448:280,1,240,6|8
464,368,159195,2,4,B|560:336|554:217|460:191,1,240,6|8
382,192,159768,1,8
382,192,159959,1,0
304,192,160150,2,6,B|64:192,1,240,6|8
48,280,160723,2,4,B|-48:248|-42:129|52:103,1,240,6|8
126,104,161297,1,8
126,104,161488,1,0
208,104,161679,2,6,B|448:104,1,240,6|8
464,192,162252,2,4,B|560:160|554:41|460:15,1,240,6|8
384,16,162825,1,8
216,272,163207,5,4
296,272,163393,1,0
360,320,163579,2,0,B|305:389|198:392|141:305,2,240,8|4|8
512,16,164511,5,6
400,152,164879,1,0
400,152,164971,1,0
400,152,165062,1,0
400,232,165245,1,6
256,312,165611,1,0
256,232,165794,1,6
256,152,165977,1,0
256,152,166068,1,0
256,152,166160,1,0
256,64,166343,1,6
112,152,166709,1,0
112,232,166892,1,6
464,280,167257,21,8
384,280,167440,1,0
304,280,167623,2,6,B|64:280,1,240,6|8
48,368,168189,2,4,B|-48:336|-42:217|52:191,1,240,6|8
127,194,168755,1,8
127,194,168943,1,0
208,192,169132,2,6,B|448:192,1,240,6|8
464,280,169698,2,4,B|560:248|554:129|460:103,1,240,6|8
384,104,170264,1,8
384,104,170453,1,0
304,104,170641,2,6,B|64:104,1,240,6|8
48,192,171207,2,4,B|-48:160|-42:41|52:15,1,240,6|8
128,16,171773,1,8
512,120,172151,5,4
512,200,172333,1,0
448,248,172516,2,8,B|404:363|256:416|95:360|60:235,1,480
0,16,173431,21,6
112,152,173793,1,0
112,152,173883,1,0
112,152,173973,1,0
112,232,174152,1,6
256,312,174512,1,0
256,232,174691,1,6
256,152,174871,1,0
256,152,174961,1,0
256,152,175051,1,0
256,64,175230,1,6
400,152,175590,1,0
400,232,175769,1,6
176,280,176501,6,4,B|416:280,1,240,4|8
432,368,177067,2,4,B|528:336|522:217|428:191,1,240,4|0
352,192,177633,1,8
352,192,178010,2,4,B|112:192,1,240,4|8
96,280,178576,2,4,B|0:248|6:129|100:103,1,240,4|0
176,104,179142,1,8
176,104,179519,2,4,B|416:104,1,240,4|8
432,16,180085,2,4,B|528:48|522:167|428:193,1,240,4|0
352,192,180651,1,8
352,192,181029,2,4,B|112:192,1,240,4|8
96,104,181595,2,4,B|0:136|6:255|100:281,1,240,4|0
176,280,182161,1,8
512,96,182538,5,4
456,152,182727,1,0
400,96,182916,1,8
456,40,183104,1,4
256,192,183482,1,4
256,192,183576,1,0
256,192,183670,1,8
0,288,184048,5,4
56,232,184236,1,0
112,288,184425,1,8
56,344,184614,1,4
256,192,184991,1,4
256,192,185085,1,0
256,192,185179,1,8
256,192,185746,12,4,189897
