osu file format v5

[General]
AudioFilename: sweeney.mp3
AudioLeadIn: 0
PreviewTime: -1
Countdown: 1
SampleSet: Soft
StackLeniency: 0.7
Mode: 0
LetterboxInBreaks: 1
SkinPreference:Default
EditorBookmarks: 27004,85974

[Metadata]
Title:How About a Shave?
Artist:Sweeney Todd
Creator:Skyripper
Version:Easy
Source:
Tags:sweeney todd johnny alan rickman depp shave how

[Difficulty]
HPDrainRate:3
CircleSize:3
OverallDifficulty:3
SliderMultiplier:2
SliderTickRate:3

[Events]
//Background and Video events
0,0,"sweeneyTodd-setC-1600x1200-05.jpg"
//Break Periods
2,35192,37237
2,45701,45835
2,50491,51566
2,71766,73129
2,86914,87596
//Storyboard Layer 0 (Background)
//Storyboard Layer 1 (Failing)
//Storyboard Layer 2 (Passing)
//Storyboard Layer 3 (Foreground)
//Storyboard Sound Samples
//Background Colour Transformations
3,100,163,162,255

[TimingPoints]
11519,545.454545454545,4,2,0,51,1
48640,1090.90909090909,4,2,0,51,1
49731,545.454545454545,4,2,0,51,1
59147,530.973451327434,4,2,0,51,1
60921,545.454545454545,4,2,0,51,1

[Colours]
Combo1 : 64,0,0
Combo2 : 0,0,145
Combo3 : 255,128,0
Combo4 : 0,64,0

[HitObjects]
416,96,15064,6,0,B|288:160,1,100
128,128,16428,6,0,B|192:192,1,50
224,224,16837,6,0,B|288:288,1,50
320,96,17928,2,0,B|448:96,1,100
416,160,18337,2,0,B|416:224,2,50
160,320,19973,1,0
256,320,20246,1,0
256,32,21064,1,0
192,32,22700,6,0,B|128:64|192:128,1,100
288,128,23246,2,0,B|320:96|288:32,2,100
416,160,24200,1,0
384,256,24473,1,0
320,320,24746,1,0
224,320,25018,1,0
32,256,25564,2,0,B|32:64|160:64|448:64,1,500
480,64,27882,5,0
480,224,28291,1,0
384,256,28564,1,0
256,288,29655,6,0,B|128:288,2,100
64,224,30746,5,0
128,160,31018,1,0
256,192,32041,6,0,B|256:64,1,100
256,64,32586,1,4
384,64,33200,2,4,B|512:64,3,100,4|4|4|4
480,224,34428,6,0,B|480:96,1,100
384,128,34973,1,4
256,192,38655,12,4,40155
288,96,41246,2,0,B|416:96|416:288|288:288,1,300
192,288,42609,5,0
128,288,42882,1,0
128,288,43155,1,0
64,288,43428,2,0,B|64:160,2,100
64,192,44246,2,0,B|480:196|480:68,1,450
64,96,47246,6,0,B|192:96,4,100
128,160,48776,1,0
160,224,49185,6,0,B|384:224,1,200
96,64,53003,5,0
192,64,53276,1,0
384,64,53821,1,0
480,64,54094,1,0
480,160,55049,6,0,B|384:256,1,100
320,256,55594,6,0,B|192:256,1,100
128,224,56276,6,0,B|64:128,3,100
128,288,58185,5,0
192,288,58458,1,0
320,256,59279,1,0
384,256,59545,1,0
384,192,59810,6,0,B|288:96,3,100
224,128,61057,5,0
288,192,61807,5,0
224,256,62284,6,0,B|128:160,3,100
192,160,63375,5,0
224,128,63648,6,0,C|288:64,1,50
352,96,64875,6,0,C|448:224|320:352,1,300
256,64,67466,6,0,C|320:96,1,50
352,128,68011,6,0,C|288:192,1,50
64,160,68830,6,2,C|192:160,1,100
192,96,70875,6,2,C|288:32,1,100
288,64,71420,2,0,C|384:160,1,100
192,128,74557,6,0,C|320:128,4,100
96,288,76193,2,2,C|160:224,2,50
256,224,77420,6,0,C|384:224,4,100
256,64,79739,6,0,C|384:64,3,100
256,192,81375,6,2,C|320:192,2,50
256,320,82602,6,2,C|320:256,2,50
416,256,83966,6,6,C|416:320,2,50
224,64,84989,5,6
352,224,86420,2,2,C|416:224,2,50
320,32,89011,6,0,C|128:64|160:160|352:192|320:288|128:320,1,800
