osu file format v4

[General]
AudioFilename: Sweater - No7.mp3
AudioLeadIn: 3000
AudioHash: 66f18270645f30713eff5075bfdc20ca
PreviewTime: -1
Countdown: 1
SampleSet: Normal
EditorBookmarks: 36856

[Metadata]
Title:No. 7
Artist:Sweater
Creator:James
Version:Normal

[Difficulty]
HPDrainRate:0
CircleSize:4
OverallDifficulty:3
SliderMultiplier: 1.5
SliderTickRate: 2

[Events]
//Background and Video events
//Break Periods
2,51627,54059
2,58913,60916
2,65770,68202
2,82913,95416
2,107127,109344
//Storyboard Layer 0 (Background)
//Storyboard Layer 1 (Failing)
//Storyboard Layer 2 (Passing)
//Storyboard Layer 3 (Foreground)
//Storyboard Sound Samples
//Background Colour Transformations
3,100,29,227,250

[TimingPoints]
214,428.568655581478,4,1,0,100

[Colours]
Combo1 : 22,222,233
Combo2 : 5,240,5
Combo3 : 5,250,183
Combo4 : 29,201,192

[HitObjects]
72,40,7499,1,0
208,40,7928,1,0
344,40,8356,1,2
344,40,8571,1,2
480,40,8999,2,2,B|480:40|466:121|432:178|324:199|232:168,1,300
128,136,10285,1,2
0,88,10713,2,2,B|0:88|16:203|89:237|196:268|305:280|384:271|472:232,1,525
448,112,12642,1,0
336,32,13071,1,2
224,104,13499,1,2
104,32,13928,1,2
32,352,14356,5,2
32,232,14785,2,2,B|32:232|32:128,3,75
32,32,15856,2,2,B|32:32|192:32,1,150
304,32,16713,2,2,B|304:32|464:32,1,150
456,96,17356,2,2,B|456:96|368:96,2,75
456,216,18213,2,0,B|456:216|296:216,1,150
240,216,18856,2,0,B|240:216|80:216,1,150
96,80,19713,2,0,B|96:80|272:80,1,150
368,80,20571,1,0
168,64,20999,5,0
168,64,21213,1,2
32,64,21642,2,2,B|32:64|32:160,3,75
32,272,22713,2,2,B|32:272|208:272,1,150
320,272,23570,2,2,B|320:272|488:272,1,150
472,200,24213,2,2,B|472:200|384:200,2,75
472,64,25070,2,2,B|472:64|392:64,3,75
264,64,26142,2,0,B|264:64|16:64,2,225
472,40,28070,5,0
336,40,28499,1,0
200,40,28928,2,2,B|200:40|88:35|120:144,1,150
248,136,29785,2,0,B|248:136|253:248|144:216,1,150
24,216,30642,1,0
24,352,31070,1,2
24,352,31285,1,2
24,352,31499,1,2
160,352,31928,1,0
296,352,32356,2,2,B|296:352|408:357|376:248,1,150
248,256,33213,2,2,B|248:256|243:144|352:176,1,150
472,176,34070,1,0
472,40,34499,1,2
472,40,34713,1,2
472,40,34928,1,2
336,40,35356,1,0
200,40,35785,2,2,B|200:40|32:40,1,150
48,176,36642,2,2,B|48:176|224:176,1,150
336,176,37499,2,2,B|336:176|416:176,4,75
136,176,38999,2,0,B|136:176|384:176,1,225
456,320,41785,6,0,B|456:320|379:357|304:312,1,150
192,248,42642,1,2
192,248,42856,1,2
72,184,43285,2,0,B|72:184|144:144,3,75
256,88,44356,1,2
256,88,44570,1,2
456,64,45213,2,0,B|456:64|379:27|304:72,1,150
192,136,46070,1,2
192,136,46284,1,2
72,200,46713,2,0,B|72:200|144:240,3,75
256,296,47784,1,2
256,296,47998,1,2
432,328,48642,6,0,B|432:328|530:255|416:216,1,150
312,152,49499,1,2
312,152,49713,1,2
184,96,50142,2,0,B|184:96|125:97|144:176,3,75
136,280,51213,1,2
136,280,51427,1,2
56,112,55499,5,2
56,112,55927,1,2
88,240,56356,2,2,B|88:240|231:340|366:342|351:278|285:211|213:153|146:98|124:40|250:45|309:52|424:136,1,675
432,248,58713,1,2
416,80,62356,1,2
416,80,62785,1,2
280,80,63213,2,2,B|280:80|168:80|136:88|64:136|88:200|168:192|322:181|472:184|488:248|389:300|232:320,1,675
104,328,65570,1,2
256,192,69642,12,0,70713
112,56,71570,6,0,B|112:56|73:25|24:72,2,75
112,192,72427,2,0,B|112:192|222:228|352:192,1,225
336,128,73284,2,0,B|336:128|262:89|168:144,2,150
336,264,74570,2,0,B|336:264|262:303|168:248,2,150
296,208,75642,2,0,B|296:208|257:187|216:216,2,75
48,48,77784,1,0
176,80,78213,1,0
296,144,78642,1,0
296,144,78856,1,0
416,80,79284,1,0
464,336,81213,1,2
336,304,81642,1,2
216,240,82071,1,2
216,240,82285,1,2
96,304,82713,1,2
256,192,96856,12,0,99641
256,192,100070,12,0,103499
256,192,105427,12,0,106927
248,112,110784,2,0,B|248:112|212:85|168:120,1,75
208,160,111213,2,0,B|208:160|181:196|216:240,1,75
256,192,111641,2,0,B|256:192|292:219|336:184,1,75
400,328,112712,6,0,B|400:328|439:359|488:312,2,75
400,192,113569,2,0,B|400:192|290:156|160:192,1,225
176,256,114426,2,0,B|176:256|250:295|344:240,2,150
176,120,115712,2,0,B|176:120|250:81|344:136,2,150
216,176,116784,2,0,B|216:176|255:197|296:168,2,75
464,192,118926,1,0
328,192,119355,1,0
192,192,119784,1,0
192,192,119998,1,0
56,192,120426,1,0
56,192,120641,5,0
56,56,121070,2,2,B|56:56|136:56,3,75
264,64,122141,2,2,B|264:64|364:60|408:144,1,150
280,184,122998,2,2,B|280:184|180:188|136:104,1,150
400,224,124498,1,0
400,224,124713,2,0,B|400:224|232:224,1,150
112,224,125570,2,0,B|112:224|16:224,2,75
248,224,126427,2,0,B|248:224|416:224,2,150
248,224,127498,5,2
248,88,127927,1,2
384,88,128356,1,2
384,224,128784,1,2
384,360,129213,1,2
248,360,129641,1,2
112,360,130070,1,2
112,224,130498,1,2
112,88,130927,1,2
416,48,132641,6,0,B|416:48|309:34|280:128,1,150
224,224,133498,1,0
224,224,133713,2,0,B|224:224|196:313|112:320,1,150
119,319,134355,1,0
32,208,134784,2,2,B|32:208|68:235|112:200,3,75
224,152,135855,2,2,B|224:152|296:115|376:152,1,150
480,216,136713,2,2,B|480:216|440:264|332:296|248:272,1,225
272,280,137570,1,2
272,280,137784,1,2
136,280,138213,5,0
272,280,138641,1,0
408,280,139070,1,0
472,160,139498,1,0
336,160,139927,1,0
200,160,140355,1,0
64,160,140784,1,0
136,48,141213,5,0
272,48,141642,2,2,B|272:48|352:48,3,75
480,48,142713,2,2,B|480:48|480:200,1,150
344,200,143571,2,2,B|344:200|112:200,1,225
120,200,144428,1,2
120,200,144642,1,2
256,192,146355,12,0,148070
