osu file format v5

[General]
AudioFilename: Sweater - No7.mp3
AudioLeadIn: 3000
AudioHash: 66f18270645f30713eff5075bfdc20ca
PreviewTime: -1
Countdown: 1
SampleSet: Normal
EditorBookmarks: 36856

[Metadata]
Title:No. 7
Artist:Sweater
Creator:James
Version:Hard

[Difficulty]
HPDrainRate:7
CircleSize:5
OverallDifficulty:4
SliderMultiplier:1.5
SliderTickRate:2

[Events]
//Background and Video events
//Break Periods
//Storyboard Layer 0 (Background)
//Storyboard Layer 1 (Failing)
//Storyboard Layer 2 (Passing)
//Storyboard Layer 3 (Foreground)
//Storyboard Sound Samples
//Background Colour Transformations
3,148,29,227,250

[TimingPoints]
238,428.568655581478,4,1,0,100

[Colours]
Combo1 : 22,222,233
Combo2 : 5,240,5
Combo3 : 5,250,183
Combo4 : 29,201,192

[HitObjects]
56,288,238,2,0,B|56:288|217:169|266:140|388:68|452:45|498:53|456:152,1,525
424,280,2166,2,0,B|424:280|231:264|144:120,1,300
96,16,3452,1,0
248,32,3880,2,0,B|248:32|332:44|379:119|358:199|313:236|242:268|178:236|144:160,1,412.5
296,304,5595,1,0
256,192,6023,12,2,7523
112,56,7952,5,0
112,176,8380,1,0
112,232,8595,1,0
184,328,9023,2,0,B|184:328|372:298|368:104,1,300
368,8,10309,1,0
256,56,10737,2,0,B|256:56|128:106|104:240,1,225
88,272,11595,1,0
192,336,12023,1,0
312,352,12452,2,0,B|312:352|376:360|476:361|503:296|497:220|448:154|410:116|240:64,1,525
152,32,14380,1,6
80,112,14809,6,0,B|80:112|25:112|32:56,2,75
136,128,15452,2,0,B|136:128|209:154|304:128,2,150
480,40,17595,1,0
472,96,17809,1,0
408,200,18237,1,0
304,256,18666,1,0
248,264,18880,1,0
128,264,19309,1,0
72,88,21237,6,0,B|72:88|117:62|159:68|180:106|112:160,1,150
64,248,22095,1,0
120,248,22309,1,0
240,248,22737,2,0,B|240:248|408:248,2,150
64,64,24666,2,0,B|64:64|219:66|320:216,1,300
424,344,26166,1,0
288,144,27023,6,2,B|288:144|255:106|208:144,1,75
248,192,27452,2,2,B|248:192|210:225|248:272,1,75
296,232,27880,2,2,B|296:232|329:270|376:232,1,75
472,192,28523,5,2
384,112,28952,1,0
272,64,29380,1,2
160,112,29809,1,0
64,192,30237,1,2
40,312,30666,1,0
160,312,31094,1,0
216,312,31309,1,0
272,312,31523,1,0
392,312,31952,1,0
456,208,32380,1,2
440,88,32809,1,0
336,24,33237,1,2
280,24,33452,1,2
224,24,33666,1,2
176,56,33880,6,0,B|176:56|128:83|176:136,1,75
216,96,34309,2,2,B|216:96|258:69|288:112,1,75
240,152,34737,2,2,B|240:152|264:194|208:216,1,75
96,216,35380,5,0
176,304,35809,1,2
256,216,36237,1,0
336,304,36666,1,2
416,216,37094,1,2
360,112,37523,6,2,B|360:112|280:112,1,75
232,112,37952,2,2,B|232:112|136:112,1,75
104,112,38380,1,2
104,288,39023,1,2
280,288,39666,1,2
432,192,40309,5,0
432,72,40737,5,0
376,72,40952,1,0
320,72,41166,1,2
320,72,41273,1,2
320,72,41380,1,2
264,72,41594,1,0
208,72,41809,1,6
112,144,42237,5,0
232,144,42666,1,0
288,144,42880,1,2
408,144,43309,1,0
456,176,43523,1,0
456,232,43737,1,0
408,264,43952,1,2
288,264,44380,1,0
232,264,44594,1,2
48,264,45237,1,0
48,144,45666,1,2
136,64,46094,6,0,B|136:64|144:12|216:32,2,75
112,120,46737,2,0,B|112:120|66:191|112:280,1,150
416,328,48023,1,0
456,288,48237,1,0
472,232,48451,1,0
448,184,48666,2,0,B|448:184|392:112|336:112|272:112|232:112|96:224,1,375
120,88,50166,5,0
176,88,50380,1,0
232,88,50594,1,0
288,88,50809,1,2
408,88,51237,1,0
464,88,51451,1,2
472,312,52094,6,0,B|472:312|352:312|268:266|221:225|176:177|160:120,1,375
112,24,53594,1,0
232,24,54023,1,0
352,24,54451,1,0
472,24,54880,1,0
472,80,55094,5,2
472,80,55201,1,2
472,80,55309,1,2
472,136,55523,5,4
352,136,55951,1,0
232,136,56380,1,0
176,136,56594,1,0
56,136,57023,1,0
56,256,57451,1,0
176,256,57880,1,0
296,256,58309,1,0
288,136,58737,2,0,B|288:136|285:56|223:20|156:66|152:168,1,225
152,256,59809,6,2,B|152:256|144:311|216:296,1,75
256,296,60237,2,2,B|256:296|336:296,2,75
376,296,61094,1,2
456,208,61523,1,2
368,120,61951,1,2
456,32,62380,5,4
336,48,62809,1,0
232,112,63237,1,0
192,152,63451,1,0
152,264,63880,1,0
272,248,64309,1,0
352,160,64737,1,0
376,40,65166,1,0
256,40,65594,2,0,B|256:40|201:39|145:44|90:68|114:129|160:184,1,225
160,208,66451,5,0
184,256,66666,1,0
216,296,66880,1,0
296,208,67308,1,0
440,216,67737,1,0
408,256,67952,1,0
376,296,68166,1,0
336,256,68380,5,0
296,216,68594,1,0
216,120,69023,2,0,B|216:120|194:80|140:45|103:79|68:110|64:176,1,225
48,224,69880,6,0,B|48:224|77:266|144:224,1,75
168,224,70308,2,0,B|168:224|212:205|256:248,2,75
456,344,71594,5,0
400,336,71808,1,0
352,304,72023,1,0
272,216,72451,1,0
232,40,73094,1,0
288,48,73308,1,0
384,112,73737,1,2
408,232,74166,1,2
360,344,74594,1,2
240,368,75023,1,2
120,368,75451,1,0
64,368,75666,1,2
64,368,75773,1,2
64,368,75880,1,2
8,368,76094,1,4
24,248,76523,6,2,B|24:248|36:196|96:232,3,75
192,264,77594,2,0,B|192:264|261:298|356:296|417:269|436:176|394:87|264:40,1,450
344,48,79094,1,0
392,72,79308,1,0
416,120,79523,5,0
432,248,79951,1,0
424,296,80166,1,0
392,336,80380,1,0
344,352,80594,1,0
224,360,81023,1,0
168,360,81237,6,0,B|168:360|117:295|240:240,1,150
336,200,82094,1,0
312,152,82308,1,0
200,104,82737,1,0
256,96,82951,6,0,B|256:96|320:88|352:92|376:160,1,150
408,272,83808,1,0
392,320,84023,1,0
344,344,84237,1,0
296,344,84451,1,0
184,296,84880,1,0
152,256,85094,1,0
136,136,85523,1,0
160,88,85737,1,0
272,40,86166,1,0
384,72,86594,1,0
408,120,86808,1,0
288,120,87237,1,0
240,88,87451,1,0
192,120,87666,1,0
160,168,87880,2,0,B|160:168|288:168|352:280,1,225
368,320,88737,2,0,B|368:320|281:332|224:376,1,150
72,288,89808,6,0,B|72:288|132:340|176:312|176:232,1,150
208,136,90665,1,0
224,88,90880,1,0
272,64,91094,1,0
312,96,91308,1,0
336,216,91737,1,0
392,216,91951,1,0
272,216,92380,1,0
216,216,92594,1,0
96,216,93023,1,0
96,96,93451,1,0
96,152,93665,1,0
96,32,94094,1,0
152,32,94308,1,0
208,32,94523,1,0
264,32,94737,2,0,B|264:32|496:45|504:89|431:195|352:234|200:272,1,525
32,296,96880,5,0
64,296,96987,1,0
96,296,97094,1,0
152,288,97308,1,0
200,256,97523,1,0
232,208,97737,1,0
216,152,97951,1,0
184,112,98165,1,0
136,88,98380,1,0
88,72,98594,1,0
56,64,98701,1,0
24,64,98808,1,0
24,120,99023,1,0
64,160,99237,1,0
120,176,99451,1,0
152,176,99558,1,0
184,168,99665,1,0
232,136,99880,1,0
280,104,100094,5,0
336,96,100308,1,0
360,104,100415,1,0
376,128,100523,1,0
392,184,100737,1,0
384,208,100844,1,0
360,224,100951,1,0
312,248,101165,1,0
280,256,101273,1,0
248,256,101380,1,0
224,240,101487,1,0
200,216,101594,1,0
216,160,101808,1,0
264,128,102023,1,0
320,112,102237,1,0
376,104,102451,1,0
408,104,102558,1,0
440,104,102665,1,0
440,40,102880,1,0
384,40,103094,5,0
384,40,103201,1,0
384,40,103308,1,0
328,48,103523,2,0,B|328:48|226:56|147:81|144:132|168:202|304:272,1,375
392,312,105023,1,0
464,192,105451,5,0
440,168,105558,1,0
416,152,105665,1,2
384,136,105773,1,0
352,128,105880,1,0
320,120,105987,1,2
288,120,106094,1,0
256,120,106201,1,0
224,128,106308,1,2
192,136,106415,1,0
160,144,106523,1,0
128,160,106630,1,2
96,168,106737,1,0
72,184,106844,1,0
48,200,106951,1,2
48,320,107380,5,0
168,304,107808,1,0
208,272,108023,1,0
256,160,108451,1,0
312,56,108880,1,2
360,32,109094,1,2
416,48,109308,1,2
448,96,109523,5,2
424,144,109737,1,2
320,208,110166,2,0,B|320:208|274:247|212:217|164:192|96:240,1,225
56,272,111022,6,0,B|56:272|77:311|152:288,1,75
176,280,111451,2,0,B|176:280|223:282|264:296,2,75
416,280,112737,5,0
400,224,112951,1,0
344,208,113166,1,0
224,208,113594,1,0
40,216,114237,1,0
96,200,114451,1,0
176,112,114880,1,0
272,40,115309,1,0
360,112,115737,1,0
272,192,116166,1,0
152,192,116594,1,0
96,192,116809,1,2
96,192,116916,1,2
96,192,117023,1,2
40,192,117237,1,6
40,72,117666,6,0,B|40:72|73:51|128:64,1,75
168,72,118094,2,0,B|168:72|206:92|256:64,1,75
360,40,118737,1,0
408,72,118951,5,2
448,184,119380,1,2
408,296,119808,1,2
368,336,120023,5,0
320,320,120237,1,0
296,272,120451,1,0
320,224,120666,5,2
320,104,121094,1,0
320,48,121309,1,0
264,48,121523,1,0
264,104,121737,1,0
264,224,122165,2,0,B|264:224|432:224,1,150
416,344,123022,1,0
296,344,123451,5,2
296,344,123558,1,2
296,344,123665,1,2
240,344,123880,1,0
184,344,124094,1,4
64,344,124522,6,0,B|64:344|64:304|104:272,1,75
176,192,125165,2,0,B|176:192|206:152|262:126|312:120,1,150
424,96,126022,1,2
304,96,126451,1,2
184,96,126880,1,2
64,96,127308,2,0,B|64:96|110:174|175:196|264:184,1,225
376,184,128380,1,0
432,184,128594,1,0
488,184,128808,2,0,B|488:184|488:230|424:248,1,75
392,240,129237,2,0,B|392:240|312:240,1,75
264,240,129665,2,0,B|264:240|168:240,2,75
320,240,130308,5,2
320,240,130415,1,2
320,240,130522,1,2
320,184,130737,1,0
320,128,130951,1,0
200,128,131380,6,0,B|200:128|144:128|168:176,1,75
264,240,132022,1,0
144,240,132451,1,0
192,216,132665,6,0,B|192:216|266:177|352:224,1,150
448,264,133522,1,0
496,296,133737,1,0
496,176,134165,6,0,B|496:176|496:128|448:112,1,75
360,48,134808,2,0,B|360:48|296:24|250:32|200:56,1,150
160,72,135451,1,0
64,144,135879,1,0
152,224,136308,1,0
264,272,136737,1,0
376,240,137165,1,2
376,240,137272,1,2
376,240,137379,1,2
424,216,137594,1,0
464,184,137808,1,2
464,64,138237,6,0,B|464:64|376:64,1,75
272,64,138879,1,0
152,64,139308,1,0
88,64,139522,6,0,B|88:64|86:116|144:128,1,75
240,152,140165,1,0
144,224,140594,1,0
248,280,141022,2,0,B|248:280|296:306|359:327|420:308|480:272,1,225
456,160,142094,1,0
400,160,142308,1,0
280,160,142737,1,0
160,160,143165,1,0
40,160,143594,1,0
160,160,144022,1,2
160,160,144129,1,2
160,160,144237,1,2
216,160,144451,1,0
272,160,144665,1,4
392,160,145094,6,0,B|392:160|352:160|312:160,1,75
192,160,145737,1,0
312,160,146165,1,0
256,192,146379,12,0,148094
