osu file format v12

[General]
AudioFilename: Jalur Gemilang MV.mp3
AudioLeadIn: 2007
PreviewTime: 42884
Countdown: 1
SampleSet: Normal
StackLeniency: 0.7
Mode: 0
LetterboxInBreaks: 0
EpilepsyWarning: 1
WidescreenStoryboard: 1

[Editor]
Bookmarks: 12669,21685,29239,43858,50925,54580,67250,98439,110135,141324,148391,152046,164716,180311,187377,191032,195418,201022
DistanceSpacing: 1.3
BeatDivisor: 4
GridSize: 4

[Metadata]
Title:Jalur Gemilang
TitleUnicode:Jalur Gemilang
Artist:Swara
ArtistUnicode:Swara
Creator:HeatKai
Version:Patriotik Z666ful
Source:
Tags:patriotic malaysia malay indian chinese lagu patriotik bahasa melayu merdeka 1Malaysia z666ful DragonSparta Taiko_maniac1811
BeatmapID:285403
BeatmapSetID:47349

[Difficulty]
HPDrainRate:8
CircleSize:4
OverallDifficulty:6
ApproachRate:8
SliderMultiplier:2
SliderTickRate:1

[Events]
//Background and Video events
0,0,"1187.jpg",0,0
//Break Periods
2,44058,50025
//Storyboard Layer 0 (Background)
Sprite,Background,Centre,"SB\1.jpg",320,240 S,0,12669,43858,0.8
Sprite,Background,Centre,"SB\Malaysian-Flag1.jpg",320,240 S,0,51656,67250,1
Sprite,Background,Centre,"SB\3.jpg",320,240 S,0,67250,98439,0.8
Sprite,Background,Centre,"SB\jalurgemilang.jpg",320,240 M,0,67250,75048,380,276,240,189 S,0,67250,75048,1.8
Sprite,Background,Centre,"SB\jalurgemilang.jpg",320,240 M,0,82845,89911,380,276,240,189 S,0,82845,89911,1.8
Sprite,Background,Centre,"SB\Malaysian-Flag1.jpg",320,240 S,0,149122,164716,1
Sprite,Background,Centre,"SB\4.jpg",320,240 S,0,164716,195905,0.8
Sprite,Background,Centre,"SB\jalurgemilang.jpg",320,240 M,0,164716,172513,380,276,240,189 S,0,164716,172513,1.8
Sprite,Background,Centre,"SB\jalurgemilang.jpg",320,240 M,0,180311,187377,380,276,240,189 S,0,180311,187377,1.8
Sprite,Background,Centre,"SB\jalur gemilang.jpg",320,240 S,0,195905,197855,1
Sprite,Background,Centre,"SB\KLCC_Park.jpg",320,240 S,0,197855,199804,1
Sprite,Background,Centre,"SB\KLCC.jpg",320,240 S,0,199804,209954,1
//Storyboard Layer 1 (Fail)
//Storyboard Layer 2 (Pass)
//Storyboard Layer 3 (Foreground)
Sprite,Foreground,Centre,"SB\2.jpg",320,240 S,0,110135,141324,0.8
Sprite,Foreground,Centre,"SB\malaysia-flag-01.jpg",320,240 M,0,21685,23391,-140,300,670,300 S,0,21685,23391,0.3
Sprite,Foreground,Centre,"SB\malaysia-flag-01.jpg",320,240 M,0,119151,120857,-140,300,670,300 S,0,119151,120857,0.3
Sprite,Foreground,Centre,"SB\White.jpg",320,240 F,0,12669,12791,1,0
Sprite,Foreground,Centre,"SB\White.jpg",320,240 F,0,43858,43980,1,0
Sprite,Foreground,Centre,"SB\White.jpg",320,240 F,0,51656,51778,1,0
Sprite,Foreground,Centre,"SB\White.jpg",320,240 F,0,67250,67372,1,0
Sprite,Foreground,Centre,"SB\White.jpg",320,240 F,0,75048,75169,1,0
Sprite,Foreground,Centre,"SB\White.jpg",320,240 F,0,82845,82967,1,0
Sprite,Foreground,Centre,"SB\Merah.jpg",320,240 F,0,89911,90155,1,0
Sprite,Foreground,Centre,"SB\White.jpg",320,240 F,0,90398,90642,1,0
Sprite,Foreground,Centre,"SB\White.jpg",320,240 F,0,90642,91617,1,0
Sprite,Foreground,Centre,"SB\Biru.jpg",320,240 F,0,91860,92104,1,0
Sprite,Foreground,Centre,"SB\Kuning.jpg",320,240 F,0,92348,92591,1,0
Sprite,Foreground,Centre,"SB\Kuning.jpg",320,240 F,0,92591,93566,1,0
Sprite,Foreground,Centre,"SB\White.jpg",320,240 F,0,98439,98561,1,0
Sprite,Foreground,Centre,"SB\White.jpg",320,240 F,0,110135,110257,1,0
Sprite,Foreground,Centre,"SB\White.jpg",320,240 F,0,141324,141446,1,0
Sprite,Foreground,Centre,"SB\White.jpg",320,240 F,0,149122,149243,1,0
Sprite,Foreground,Centre,"SB\White.jpg",320,240 F,0,164716,164838,1,0
Sprite,Foreground,Centre,"SB\White.jpg",320,240 F,0,172513,172635,1,0
Sprite,Foreground,Centre,"SB\White.jpg",320,240 F,0,180311,180433,1,0
Sprite,Foreground,Centre,"SB\Merah.jpg",320,240 F,0,187377,187621,1,0
Sprite,Foreground,Centre,"SB\White.jpg",320,240 F,0,187864,188108,1,0
Sprite,Foreground,Centre,"SB\White.jpg",320,240 F,0,188108,189083,1,0
Sprite,Foreground,Centre,"SB\Biru.jpg",320,240 F,0,189326,189570,1,0
Sprite,Foreground,Centre,"SB\Kuning.jpg",320,240 F,0,189814,190057,1,0
Sprite,Foreground,Centre,"SB\Kuning.jpg",320,240 F,0,190057,191032,1,0
Sprite,Foreground,Centre,"SB\White.jpg",320,240 F,0,195905,196027,1,0
Sprite,Foreground,Centre,"SB\White.jpg",320,240 F,0,197855,197976,1,0
Sprite,Foreground,Centre,"SB\White.jpg",320,240 F,0,199804,199926,1,0
Sprite,Foreground,Centre,"SB\White.jpg",320,240 F,0,201753,201875,1,0
Sprite,Foreground,Centre,"SB\White.jpg",320,240 F,0,202241,202362,1,0
//Storyboard Sound Samples
//Background Colour Transformations
3,100,163,162,255

[TimingPoints]
974,487.329434697856,4,1,0,70,1,0
67250,-100,4,1,0,70,0,1
81870,-100,4,1,0,70,0,0
82845,-100,4,1,0,70,0,1
97952,-100,4,1,0,70,0,0
98439,-100,4,1,0,70,0,1
100145,-100,4,1,0,70,0,0
100267,-100,4,1,0,70,0,1
102216,-100,4,1,0,70,0,0
102338,-100,4,1,0,70,0,1
105140,-100,4,1,0,70,0,0
105262,-100,4,1,0,70,0,1
106968,-100,4,1,0,70,0,0
107089,-100,4,1,0,70,0,1
108064,-100,4,1,0,70,0,0
108186,-100,4,1,0,70,0,1
108673,-100,4,1,0,70,0,0
108795,-100,4,1,0,70,0,1
109039,-100,4,1,0,70,0,0
109161,-100,4,1,0,70,0,1
109892,-100,4,1,0,70,0,0
110135,-100,4,1,0,70,0,1
110257,-100,4,1,0,70,0,0
141324,-200,4,1,0,70,0,0
148391,-100,4,1,0,70,0,0
164716,-100,4,1,0,70,0,1
179580,-100,4,1,0,70,0,0
180311,-100,4,1,0,70,0,1
195086,-100,4,1,0,70,0,0
195905,-100,4,1,0,70,0,1
197733,-100,4,1,0,70,0,0
197855,-100,4,1,0,70,0,1
199682,-100,4,1,0,70,0,0
199804,-100,4,1,0,70,0,1
200900,-100,4,1,0,70,0,0
201022,-100,4,1,0,70,0,1
201144,-100,4,1,0,70,0,0
201266,-100,4,1,0,70,0,1
201388,-100,4,1,0,70,0,0
201510,-100,4,1,0,70,0,1
201631,-100,4,1,0,70,0,0
202241,-100,4,1,0,70,0,1
202362,-100,4,1,0,70,0,0

[Colours]
Combo1 : 0,128,255
Combo2 : 255,0,0
Combo3 : 255,255,255
Combo4 : 255,255,0

[HitObjects]
256,192,10720,12,0,12182,0:0:0:0:
256,192,12669,5,0,0:0:0:0:
200,72,12913,2,0,B|112:144,1,100,0|8,0:0|0:0,0:0:0:0:
312,312,13400,2,0,B|400:240,1,100
392,116,13888,1,0,0:0:0:0:
256,192,14131,1,8,0:0:0:0:
120,116,14375,1,0,0:0:0:0:
52,228,14619,2,0,B|88:328|208:344,1,200,0|8,0:0|0:0,0:0:0:0:
312,312,15350,1,0,0:0:0:0:
312,312,15471,1,0,0:0:0:0:
312,312,15593,1,0,0:0:0:0:
400,140,15837,6,0,B|308:64,1,100,0|8,0:0|0:0,0:0:0:0:
112,140,16324,2,0,B|204:64,1,100
256,188,16812,2,0,B|256:304,1,100,0|8,0:0|0:0,0:0:0:0:
376,336,17299,1,0,0:0:0:0:
332,212,17543,1,0,0:0:0:0:
384,92,17786,1,0,0:0:0:0:
256,104,18030,1,8,0:0:0:0:
128,92,18274,1,0,0:0:0:0:
176,212,18517,2,0,B|220:276|172:348|172:348|116:320,1,200,0|8,0:0|0:0,0:0:0:0:
56,212,19248,2,0,B|48:192|64:164,2,50
128,92,19736,5,0,0:0:0:0:
256,88,19979,1,8,0:0:0:0:
164,180,20223,1,0,0:0:0:0:
296,176,20467,2,0,B|208:268|208:268|284:268,1,200,0|10,0:0|0:0,0:0:0:0:
412,272,21198,1,2,0:0:0:0:
472,156,21441,1,2,0:0:0:0:
384,60,21685,2,0,B|292:120,1,100,0|8,0:0|0:0,0:0:0:0:
184,56,22172,1,0,0:0:0:0:
132,176,22416,2,0,B|60:256|60:256|80:308|152:296,1,200,0|10,0:0|0:0,0:0:0:0:
256,252,23147,2,2,B|296:208|344:252,1,100
132,96,23878,6,0,B|96:140|132:192,1,100
256,216,24365,1,8,0:0:0:0:
382,188,24609,2,0,B|416:140|380:96,1,100,0|0,0:0|0:0,0:0:0:0:
129,195,25096,2,0,B|96:244|132:288,1,100,0|8,0:0|0:0,0:0:0:0:
380,287,25584,2,0,B|416:244|382:195,1,100
348,68,26071,1,8,0:0:0:0:
348,68,26315,2,0,B|256:108|144:64,1,200,0|8,0:0|0:0,0:0:0:0:
88,320,27289,1,0,0:0:0:0:
200,256,27533,6,8,B|276:216,1,50
304,204,27777,1,8,0:0:0:0:
400,140,28020,2,0,B|304:92,1,100
188,52,28508,2,0,B|152:100|68:92,2,100
324,52,29239,2,0,B|360:100|444:92,2,100
256,164,29970,1,0,0:0:0:0:
168,260,30213,2,0,B|256:308|384:252,1,200
408,140,30944,1,0,0:0:0:0:
352,108,31066,1,0,0:0:0:0:
292,84,31188,1,0,0:0:0:0:
160,84,31432,38,0,B|128:128|160:176,1,100
72,272,31919,1,0,0:0:0:0:
156,172,32163,2,0,B|204:148|256:176|256:176|308:152|352:172,1,200
256,56,33137,1,0,0:0:0:0:
180,116,33381,1,0,0:0:0:0:
332,116,33625,1,0,0:0:0:0:
112,184,33868,1,0,0:0:0:0:
400,184,34112,1,0,0:0:0:0:
312,280,34356,2,0,B|248:280,2,50
208,204,34843,2,0,B|272:204,2,50
84,164,35330,5,0,0:0:0:0:
164,64,35574,2,0,B|220:168,1,100
256,272,36061,1,0,0:0:0:0:
300,152,36305,2,0,B|348:64,1,100
440,156,36792,1,0,0:0:0:0:
444,288,37036,1,0,0:0:0:0:
312,284,37280,6,0,B|216:240,1,100
100,192,37767,1,0,0:0:0:0:
100,192,38011,2,0,B|100:72|100:72|140:108|188:64,1,200
304,80,38742,1,0,0:0:0:0:
372,192,38985,1,0,0:0:0:0:
148,324,39473,6,0,B|184:280|232:276,1,100
256,148,39960,1,0,0:0:0:0:
256,148,40447,1,0,0:0:0:0:
279,275,40691,6,0,B|328:280|364:324,1,100
232,108,41178,2,0,B|184:104|148:60,1,100
156,192,41666,2,0,B|120:252|164:304,1,100
272,240,42153,1,0,0:0:0:0:
404,240,42397,2,0,B|440:200,2,50
352,200,42762,2,0,B|296:152,1,50
256,192,50925,6,0,B|152:192,1,100
256,276,51412,1,0,0:0:0:0:
256,276,51656,6,0,B|336:280|376:212|376:212|444:212,1,200
436,80,52387,2,0,B|312:80,1,100
256,184,52874,1,0,0:0:0:0:
176,80,53118,1,0,0:0:0:0:
76,80,53361,2,0,B|200:80,1,100
256,184,53849,2,0,B|256:256|312:276,1,100
256,184,54336,2,0,B|256:256|200:276,1,100
84,280,54823,1,0,0:0:0:0:
200,344,55067,1,0,0:0:0:0:
256,228,55311,5,0,0:0:0:0:
312,344,55554,2,0,B|376:312|448:312|448:312|448:232,1,200
392,136,56285,1,0,0:0:0:0:
288,60,56529,2,0,B|196:116|196:116|224:164|184:208,1,200
324,340,57504,2,0,B|384:320|356:244,1,100
151,259,57991,2,0,B|128:320|188:340,1,100
256,228,58478,2,0,B|256:116,1,100
344,32,58966,1,0,0:0:0:0:
168,32,59209,1,0,0:0:0:0:
100,144,59453,6,0,B|56:192|96:248,1,100
188,320,59940,2,0,B|204:272|176:220,1,100
334,223,60428,6,0,B|308:272|324:320,1,100
423,235,60915,2,0,B|456:192|412:144,1,100
312,64,61402,1,0,0:0:0:0:
196,124,61646,2,0,B|88:160,1,100
196,124,62133,2,0,B|196:248,1,100
80,288,62621,5,0,0:0:0:0:
208,268,62864,1,0,0:0:0:0:
432,288,63108,5,0,0:0:0:0:
304,268,63352,2,0,B|252:224,3,50
272,216,63839,2,0,B|308:168,3,50
304,148,64326,2,0,B|244:128,3,50
256,96,64814,2,0,B|168:96|168:128|168:128|88:128|88:192,1,200
92,304,65545,5,0,0:0:0:0:
216,340,65788,1,0,0:0:0:0:
256,216,66032,1,0,0:0:0:0:
296,340,66276,1,0,0:0:0:0:
420,304,66519,1,0,0:0:0:0:
420,304,66763,2,0,B|460:208|384:92,1,200
256,48,67494,2,0,B|256:156,1,100
208,268,67981,2,0,B|256:292|328:260,1,100
204,192,68469,1,0,0:0:0:0:
56,192,68712,5,0,0:0:0:0:
132,84,68956,1,0,0:0:0:0:
204,192,69200,1,0,0:0:0:0:
308,192,69443,5,0,0:0:0:0:
380,84,69687,1,0,0:0:0:0:
456,192,69931,1,0,0:0:0:0:
388,300,70174,2,0,B|288:328|288:328|292:276|212:284,1,200
124,192,70905,2,0,B|196:120,1,100
256,236,71393,2,0,B|256:132,1,100
388,192,71880,2,0,B|316:120,1,100
256,52,72611,5,0,0:0:0:0:
160,140,72855,2,0,B|124:188|156:244,1,100
361,234,73342,2,0,B|388:188|352:140,1,100
167,234,73829,2,0,B|131:282|163:338,1,100
368,328,74316,2,0,B|394:281|358:233,1,100
256,168,74804,1,0,0:0:0:0:
148,96,75048,2,0,B|192:40,8,50
152,244,76266,1,0,0:0:0:0:
256,168,76509,1,0,0:0:0:0:
356,252,76753,1,0,0:0:0:0:
256,128,76997,2,0,B|256:52,7,50
256,78,77972,2,0,B|316:64|388:96|388:96|388:160,1,200
328,276,78703,5,0,0:0:0:0:
228,344,78946,2,0,B|148:268,1,100
284,256,79434,2,0,B|364:180,1,100
228,176,79921,2,0,B|148:100,1,100
284,88,80409,2,0,B|364:12,1,100
416,136,80896,2,0,B|384:200,3,50
328,192,81383,2,0,B|296:248,3,50
264,288,81870,1,0,0:0:0:0:
108,80,82358,6,0,B|144:192|108:224|108:224|148:272,1,200
256,204,83089,1,0,0:0:0:0:
256,76,83332,1,0,0:0:0:0:
256,76,83576,2,0,B|256:184,1,100
460,336,84307,1,0,0:0:0:0:
336,296,84550,1,0,0:0:0:0:
256,192,84794,2,0,B|256:292,1,100
176,296,85281,1,0,0:0:0:0:
52,336,85524,1,0,0:0:0:0:
48,204,85769,2,0,B|120:232|176:184|176:184|240:184,1,200
372,184,86500,5,0,0:0:0:0:
328,64,86743,2,0,B|284:172,1,100
184,64,87231,2,0,B|228:172,1,100
256,284,87718,1,0,0:0:0:0:
84,192,88205,5,0,0:0:0:0:
156,84,88449,1,0,0:0:0:0:
224,192,88693,1,0,0:0:0:0:
92,124,88936,1,0,0:0:0:0:
220,124,89180,1,0,0:0:0:0:
156,232,89424,1,0,0:0:0:0:
256,312,89667,2,0,B|336:312|364:256,1,100
132,132,90155,22,0,B|216:208,1,100
256,80,90643,5,0,0:0:0:0:
316,192,90886,2,0,B|316:272,6,50
380,132,91860,22,0,B|296:208,1,100
256,80,92348,37,0,0:0:0:0:
196,192,92591,2,0,B|196:272,3,50
224,256,93079,2,0,B|224:312,3,50
256,320,93566,2,0,B|336:320|336:248|336:248|424:248,1,200
412,116,94297,1,0,0:0:0:0:
296,88,94541,2,0,B|180:140,1,100
212,260,95028,2,0,B|328:312,1,100
424,248,95515,2,0,B|456:192|412:144,1,100
296,192,96003,1,0,0:0:0:0:
296,192,96246,1,0,0:0:0:0:
164,192,96490,6,0,B|164:128,3,50
228,144,96977,2,0,B|228:196,3,50
228,260,97465,2,0,B|256:300|320:300|320:300|320:244,1,150
320,188,97952,1,0,0:0:0:0:
396,84,98196,1,0,0:0:0:0:
268,80,98439,2,0,B|220:120,5,50
176,76,99170,1,0,0:0:0:0:
124,116,99292,6,0,B|160:168,6,50
156,224,100145,1,0,0:0:0:0:
188,280,100267,2,0,B|244:320,8,50
256,252,101363,2,0,B|256:184,6,50
260,72,102338,2,0,B|328:72,5,50
356,116,103069,1,0,0:0:0:0:
344,180,103191,2,0,B|300:224,6,50
252,216,104044,1,0,0:0:0:0:
212,160,104166,2,0,B|168:124,7,50
124,256,105262,6,0,B|124:336,7,50
188,304,106237,2,0,B|188:248,5,50
252,304,106968,1,0,0:0:0:0:
300,260,107089,2,0,B|344:220,8,50
280,196,108186,2,0,B|328:160,3,50
256,152,108673,2,0,B|256:84,3,50
232,196,109161,2,0,B|200:168,8,25
100,192,110135,38,0,B|104:252|164:300,1,100
256,340,110623,2,0,B|256:236,1,100
369,280,111110,2,0,B|408:252|412:192,1,100
308,116,111597,2,0,B|192:116,1,100
208,248,112085,2,0,B|308:248,1,100
332,244,112572,2,0,B|332:128,1,100
200,148,113059,1,0,0:0:0:0:
76,192,113303,6,0,B|48:244|100:296,1,100
220,292,113790,1,0,0:0:0:0:
352,296,114034,2,0,B|416:284|416:212|416:212|496:164,1,200
256,48,115009,1,0,0:0:0:0:
324,156,115252,1,0,0:0:0:0:
192,156,115496,1,0,0:0:0:0:
256,48,115740,1,0,0:0:0:0:
192,156,115983,2,0,B|192:260|256:256|256:256|256:328,1,200
388,320,116714,2,0,B|440:320,2,50
420,192,117202,5,0,0:0:0:0:
344,88,117445,1,0,0:0:0:0:
256,184,117689,1,0,0:0:0:0:
168,88,117933,2,0,B|112:144|112:144|112:228|180:228,1,200
256,332,118664,1,0,0:0:0:0:
368,264,118907,1,0,0:0:0:0:
472,188,119151,2,0,B|472:76,1,100
344,56,119638,1,0,0:0:0:0:
212,56,119882,2,0,B|172:120|172:120|172:208|96:208,1,200
40,320,120613,1,0,0:0:0:0:
168,352,120857,1,0,0:0:0:0:
256,256,121100,1,0,0:0:0:0:
256,256,121344,6,0,B|256:144,1,100
256,24,121831,2,0,B|324:24,3,50
256,68,122319,2,0,B|188:68,3,50
256,112,122806,2,0,B|256:172|320:192,1,100
432,140,123293,1,0,0:0:0:0:
432,140,123537,1,0,0:0:0:0:
432,272,123781,2,0,B|344:320|344:320|328:268|248:268,1,200
136,264,124512,2,0,B|80:264,2,50
100,140,124999,6,0,B|140:104,1,50
184,64,125243,2,0,B|264:152|264:152|244:208|296:252,1,200
256,356,125974,2,0,B|144:356,1,100
256,272,126461,2,0,B|360:272,1,100
320,148,126948,1,0,0:0:0:0:
256,36,127192,1,0,0:0:0:0:
188,148,127435,1,0,0:0:0:0:
188,148,127679,2,0,B|256:224|256:224|324:144,1,200
348,276,128410,2,0,B|348:336,2,50
216,276,128897,38,0,B|92:276,1,100
48,164,129385,1,0,0:0:0:0:
160,100,129628,2,0,B|256:144|360:96,1,200
256,340,130603,1,0,0:0:0:0:
256,208,130847,1,0,0:0:0:0:
256,340,131090,1,0,0:0:0:0:
256,208,131334,1,0,0:0:0:0:
256,340,131578,1,0,0:0:0:0:
336,236,131821,2,0,B|408:236,2,50
176,236,132309,2,0,B|104:236,2,50
52,192,132796,37,0,0:0:0:0:
144,100,133040,1,0,0:0:0:0:
256,164,133283,2,0,B|300:200|368:160,1,100
404,48,133771,2,0,B|480:120,1,100
476,248,134258,1,0,0:0:0:0:
372,324,134502,1,0,0:0:0:0:
328,204,134745,1,0,0:0:0:0:
328,204,134989,5,0,0:0:0:0:
328,204,135233,1,0,0:0:0:0:
372,324,135476,2,0,B|436:324|436:324|436:264|436:264|484:264|484:196,1,200
396,116,136207,2,0,B|276:148,1,100
44,192,136938,2,0,B|144:192,1,100
256,128,137426,6,0,B|256:240|256:240|296:200|336:240,1,200
420,332,138157,1,0,0:0:0:0:
332,236,138400,1,0,0:0:0:0:
464,236,138644,1,0,0:0:0:0:
336,236,138888,1,0,0:0:0:0:
424,140,139131,1,0,0:0:0:0:
300,180,139375,6,0,B|252:148,3,50
256,88,139862,2,0,B|200:124,3,50
164,160,140350,2,0,B|164:252|164:252|208:304|248:284,1,150
272,312,140837,1,0,0:0:0:0:
368,224,141081,1,0,0:0:0:0:
256,92,141324,6,0,B|256:212,1,100
192,192,142055,2,0,B|120:192,1,50
44,192,142543,1,0,0:0:0:0:
56,256,142786,1,0,0:0:0:0:
88,312,143030,1,0,0:0:0:0:
152,320,143274,2,0,B|148:284|148:284|192:264|188:232,1,100
224,184,144005,2,0,B|256:136,1,50
400,72,144736,5,0,0:0:0:0:
376,132,144979,1,0,0:0:0:0:
412,184,145223,2,0,B|444:232|444:232|428:248|452:276,1,100
412,324,145954,1,0,0:0:0:0:
356,292,146198,1,0,0:0:0:0:
300,324,146441,1,0,0:0:0:0:
256,276,146685,1,0,0:0:0:0:
256,212,146929,2,0,B|256:148,1,50
196,140,147416,2,0,B|176:168,6,25
256,192,148391,6,0,B|152:192,1,100
256,108,148878,1,0,0:0:0:0:
256,108,149122,6,0,B|336:104|376:172|376:172|444:172,1,200
436,304,149853,2,0,B|312:304,1,100
256,200,150340,1,0,0:0:0:0:
176,304,150584,1,0,0:0:0:0:
76,304,150827,2,0,B|200:304,1,100
256,200,151315,2,0,B|256:128|312:108,1,100
256,200,151802,2,0,B|256:128|200:108,1,100
84,104,152289,1,0,0:0:0:0:
200,40,152533,1,0,0:0:0:0:
256,156,152777,5,0,0:0:0:0:
312,40,153020,2,0,B|376:72|448:72|448:72|448:152,1,200
392,248,153751,1,0,0:0:0:0:
288,324,153995,2,0,B|196:268|196:268|224:220|184:176,1,200
324,44,154970,2,0,B|384:64|356:140,1,100
151,125,155457,2,0,B|128:64|188:44,1,100
256,156,155944,2,0,B|256:268,1,100
344,352,156432,1,0,0:0:0:0:
168,352,156675,1,0,0:0:0:0:
100,240,156919,6,0,B|56:192|96:136,1,100
188,64,157406,2,0,B|204:112|176:164,1,100
334,161,157894,6,0,B|308:112|324:64,1,100
423,149,158381,2,0,B|456:192|412:240,1,100
312,320,158868,1,0,0:0:0:0:
196,260,159112,2,0,B|88:224,1,100
196,260,159599,2,0,B|196:136,1,100
80,96,160087,5,0,0:0:0:0:
208,116,160330,1,0,0:0:0:0:
432,96,160574,5,0,0:0:0:0:
304,116,160818,2,0,B|252:160,3,50
272,168,161305,2,0,B|308:216,3,50
304,236,161792,2,0,B|244:256,3,50
256,288,162280,2,0,B|168:288|168:256|168:256|88:256|88:192,1,200
92,80,163011,5,0,0:0:0:0:
216,44,163254,1,0,0:0:0:0:
256,168,163498,1,0,0:0:0:0:
296,44,163742,1,0,0:0:0:0:
420,80,163985,1,0,0:0:0:0:
420,80,164229,2,0,B|460:176|384:292,1,200
256,336,164960,2,0,B|256:228,1,100
304,116,165447,2,0,B|256:92|184:124,1,100
308,192,165935,1,0,0:0:0:0:
456,192,166178,5,0,0:0:0:0:
380,300,166422,1,0,0:0:0:0:
308,192,166666,1,0,0:0:0:0:
204,192,166909,5,0,0:0:0:0:
132,300,167153,1,0,0:0:0:0:
56,192,167397,1,0,0:0:0:0:
124,84,167640,2,0,B|224:56|224:56|220:108|300:100,1,200
388,192,168371,2,0,B|316:264,1,100
256,148,168859,2,0,B|256:252,1,100
124,192,169346,2,0,B|196:264,1,100
256,332,170077,5,0,0:0:0:0:
352,244,170321,2,0,B|388:196|356:140,1,100
151,150,170808,2,0,B|124:196|160:244,1,100
345,150,171295,2,0,B|381:102|349:46,1,100
144,56,171782,2,0,B|118:103|154:151,1,100
256,216,172270,1,0,0:0:0:0:
364,288,172514,2,0,B|320:344,8,50
360,140,173732,1,0,0:0:0:0:
256,216,173975,1,0,0:0:0:0:
156,132,174219,1,0,0:0:0:0:
256,256,174463,2,0,B|256:332,7,50
256,306,175438,2,0,B|196:320|124:288|124:288|124:224,1,200
184,108,176169,5,0,0:0:0:0:
284,40,176412,2,0,B|364:116,1,100
228,128,176900,2,0,B|148:204,1,100
284,208,177387,2,0,B|364:284,1,100
228,296,177875,2,0,B|148:372,1,100
96,248,178362,2,0,B|128:184,3,50
184,192,178849,2,0,B|216:136,3,50
248,96,179336,1,0,0:0:0:0:
404,304,179824,6,0,B|368:192|404:160|404:160|364:112,1,200
256,180,180555,1,0,0:0:0:0:
256,308,180798,1,0,0:0:0:0:
256,308,181042,2,0,B|256:200,1,100
52,48,181773,1,0,0:0:0:0:
176,88,182016,1,0,0:0:0:0:
256,192,182260,2,0,B|256:92,1,100
336,88,182747,1,0,0:0:0:0:
460,48,182990,1,0,0:0:0:0:
464,180,183235,2,0,B|392:152|336:200|336:200|272:200,1,200
140,200,183966,5,0,0:0:0:0:
184,320,184209,2,0,B|228:212,1,100
328,320,184697,2,0,B|284:212,1,100
256,100,185184,1,0,0:0:0:0:
428,192,185671,5,0,0:0:0:0:
356,300,185915,1,0,0:0:0:0:
288,192,186159,1,0,0:0:0:0:
420,260,186402,1,0,0:0:0:0:
292,260,186646,1,0,0:0:0:0:
356,152,186890,1,0,0:0:0:0:
256,72,187133,2,0,B|176:72|148:128,1,100
380,252,187621,22,0,B|296:176,1,100
256,304,188109,5,0,0:0:0:0:
196,192,188352,2,0,B|196:112,6,50
132,252,189326,22,0,B|216:176,1,100
256,304,189814,37,0,0:0:0:0:
316,192,190057,2,0,B|316:112,3,50
288,128,190545,2,0,B|288:72,3,50
256,64,191032,2,0,B|176:64|176:136|176:136|88:136,1,200
100,268,191763,1,0,0:0:0:0:
216,296,192007,2,0,B|332:244,1,100
300,124,192494,2,0,B|184:72,1,100
88,136,192981,2,0,B|56:192|100:240,1,100
216,192,193469,1,0,0:0:0:0:
216,192,193712,1,0,0:0:0:0:
348,192,193956,6,0,B|400:164,3,50
328,152,194443,6,0,B|380:124,3,50
428,96,194931,1,0,0:0:0:0:
448,224,195174,2,0,B|428:300,1,50
416,336,195418,1,0,0:0:0:0:
300,280,195662,1,0,0:0:0:0:
172,276,195905,2,0,B|108:232,3,50
108,228,196393,6,0,B|152:172,3,50
156,168,196880,6,0,B|212:168,3,50
228,168,197367,6,0,B|228:108,3,50
228,92,197855,6,0,B|296:92,1,50
300,92,198098,6,0,B|346:132,1,50
344,152,198342,6,0,B|345:208,1,50
344,224,198586,6,0,B|297:278,1,50
296,272,198829,6,0,B|234:305,1,50
224,308,199073,6,0,B|162:330,1,50
148,320,199317,6,0,B|94:302,1,50
80,288,199560,6,0,B|60:244,1,50
56,172,199804,6,0,B|16:172,14,25
256,56,201022,5,0,0:0:0:0:
344,152,201266,5,0,0:0:0:0:
168,152,201510,5,0,0:0:0:0:
256,248,201753,6,0,B|252:372|252:372|296:344|336:376,1,200
