osu file format v12

[General]
AudioFilename: Jalur Gemilang MV.mp3
AudioLeadIn: 2007
PreviewTime: 42884
Countdown: 1
SampleSet: None
StackLeniency: 0.7
Mode: 0
LetterboxInBreaks: 0
EpilepsyWarning: 1
WidescreenStoryboard: 1

[Editor]
Bookmarks: 12669,21685,43858,50925,54580,67250,98439,110135,141324,148391,152046,164716,180311,187377,191032,195418,201022
DistanceSpacing: 1
BeatDivisor: 4
GridSize: 4

[Metadata]
Title:Jalur Gemilang
TitleUnicode:Jalur Gemilang
Artist:Swara
ArtistUnicode:Swara
Creator:HeatKai
Version:Patriotik 1811
Source:
Tags:patriotic malaysia malay indian chinese lagu patriotik bahasa melayu merdeka 1Malaysia z666ful DragonSparta Taiko_maniac1811
BeatmapID:285498
BeatmapSetID:47349

[Difficulty]
HPDrainRate:6
CircleSize:4
OverallDifficulty:7
ApproachRate:8
SliderMultiplier:1.9
SliderTickRate:1

[Events]
//Background and Video events
0,0,"1187.jpg",0,0
//Break Periods
//Storyboard Layer 0 (Background)
Sprite,Background,Centre,"SB\1.jpg",320,240 S,0,12669,43858,0.8
Sprite,Background,Centre,"SB\Malaysian-Flag1.jpg",320,240 S,0,51656,67250,1
Sprite,Background,Centre,"SB\3.jpg",320,240 S,0,67250,98439,0.8
Sprite,Background,Centre,"SB\jalurgemilang.jpg",320,240 M,0,67250,75048,380,276,240,189 S,0,67250,75048,1.8
Sprite,Background,Centre,"SB\jalurgemilang.jpg",320,240 M,0,82845,89911,380,276,240,189 S,0,82845,89911,1.8
Sprite,Background,Centre,"SB\Malaysian-Flag1.jpg",320,240 S,0,149122,164716,1
Sprite,Background,Centre,"SB\4.jpg",320,240 S,0,164716,195905,0.8
Sprite,Background,Centre,"SB\jalurgemilang.jpg",320,240 M,0,164716,172513,380,276,240,189 S,0,164716,172513,1.8
Sprite,Background,Centre,"SB\jalurgemilang.jpg",320,240 M,0,180311,187377,380,276,240,189 S,0,180311,187377,1.8
Sprite,Background,Centre,"SB\jalur gemilang.jpg",320,240 S,0,195905,197855,1
Sprite,Background,Centre,"SB\KLCC_Park.jpg",320,240 S,0,197855,199804,1
Sprite,Background,Centre,"SB\KLCC.jpg",320,240 S,0,199804,209954,1
//Storyboard Layer 1 (Fail)
//Storyboard Layer 2 (Pass)
//Storyboard Layer 3 (Foreground)
Sprite,Foreground,Centre,"SB\2.jpg",320,240 S,0,110135,141324,0.8
Sprite,Foreground,Centre,"SB\malaysia-flag-01.jpg",320,240 M,0,21685,23391,-140,300,670,300 S,0,21685,23391,0.3
Sprite,Foreground,Centre,"SB\malaysia-flag-01.jpg",320,240 M,0,119151,120857,-140,300,670,300 S,0,119151,120857,0.3
Sprite,Foreground,Centre,"SB\White.jpg",320,240 F,0,12669,12791,1,0
Sprite,Foreground,Centre,"SB\White.jpg",320,240 F,0,43858,43980,1,0
Sprite,Foreground,Centre,"SB\White.jpg",320,240 F,0,51656,51778,1,0
Sprite,Foreground,Centre,"SB\White.jpg",320,240 F,0,67250,67372,1,0
Sprite,Foreground,Centre,"SB\White.jpg",320,240 F,0,75048,75169,1,0
Sprite,Foreground,Centre,"SB\White.jpg",320,240 F,0,82845,82967,1,0
Sprite,Foreground,Centre,"SB\Merah.jpg",320,240 F,0,89911,90155,1,0
Sprite,Foreground,Centre,"SB\White.jpg",320,240 F,0,90398,90642,1,0
Sprite,Foreground,Centre,"SB\White.jpg",320,240 F,0,90642,91617,1,0
Sprite,Foreground,Centre,"SB\Biru.jpg",320,240 F,0,91860,92104,1,0
Sprite,Foreground,Centre,"SB\Kuning.jpg",320,240 F,0,92348,92591,1,0
Sprite,Foreground,Centre,"SB\Kuning.jpg",320,240 F,0,92591,93566,1,0
Sprite,Foreground,Centre,"SB\White.jpg",320,240 F,0,98439,98561,1,0
Sprite,Foreground,Centre,"SB\White.jpg",320,240 F,0,110135,110257,1,0
Sprite,Foreground,Centre,"SB\White.jpg",320,240 F,0,141324,141446,1,0
Sprite,Foreground,Centre,"SB\White.jpg",320,240 F,0,149122,149243,1,0
Sprite,Foreground,Centre,"SB\White.jpg",320,240 F,0,164716,164838,1,0
Sprite,Foreground,Centre,"SB\White.jpg",320,240 F,0,172513,172635,1,0
Sprite,Foreground,Centre,"SB\White.jpg",320,240 F,0,180311,180433,1,0
Sprite,Foreground,Centre,"SB\Merah.jpg",320,240 F,0,187377,187621,1,0
Sprite,Foreground,Centre,"SB\White.jpg",320,240 F,0,187864,188108,1,0
Sprite,Foreground,Centre,"SB\White.jpg",320,240 F,0,188108,189083,1,0
Sprite,Foreground,Centre,"SB\Biru.jpg",320,240 F,0,189326,189570,1,0
Sprite,Foreground,Centre,"SB\Kuning.jpg",320,240 F,0,189814,190057,1,0
Sprite,Foreground,Centre,"SB\Kuning.jpg",320,240 F,0,190057,191032,1,0
Sprite,Foreground,Centre,"SB\White.jpg",320,240 F,0,195905,196027,1,0
Sprite,Foreground,Centre,"SB\White.jpg",320,240 F,0,197855,197976,1,0
Sprite,Foreground,Centre,"SB\White.jpg",320,240 F,0,199804,199926,1,0
Sprite,Foreground,Centre,"SB\White.jpg",320,240 F,0,201753,201875,1,0
Sprite,Foreground,Centre,"SB\White.jpg",320,240 F,0,202241,202362,1,0
//Storyboard Sound Samples
//Background Colour Transformations
3,100,163,162,255

[TimingPoints]
974,487.329434697856,4,1,0,80,1,0
11207,-100,4,1,0,60,0,0
12182,-100,4,1,0,40,0,0
98439,-100,4,1,0,80,0,0
108673,-100,4,1,0,60,0,0
109648,-100,4,1,0,40,0,0
195905,-100,4,1,0,80,0,0

[Colours]
Combo1 : 0,128,255
Combo2 : 255,0,0
Combo3 : 255,255,255
Combo4 : 255,255,0

[HitObjects]
256,196,974,1,4,0:0:0:0:
396,68,1704,2,0,L|440:24,2,47.5
396,68,2679,5,0,0:0:0:0:
376,100,2801,1,0,0:0:0:0:
372,136,2923,1,0,0:0:0:0:
256,196,3897,5,0,0:0:0:0:
256,196,4385,2,0,L|256:260,2,47.5
256,196,4872,5,4,0:0:0:0:
116,316,5603,2,0,L|72:360,2,47.5
116,316,6578,5,0,0:0:0:0:
136,284,6700,1,0,0:0:0:0:
140,248,6822,1,0,0:0:0:0:
256,196,7796,1,0,0:0:0:0:
256,196,8162,2,0,L|256:136,1,47.5
256,64,8527,1,0,0:0:0:0:
256,196,8771,6,0,L|200:232,4,47.5
152,164,9502,5,0,0:0:0:0:
124,128,9624,1,0,0:0:0:0:
120,80,9745,2,0,L|128:16,4,47.5
216,20,10476,5,0,0:0:0:0:
264,12,10598,1,0,0:0:0:0:
308,32,10720,2,0,L|344:64,2,47.5
472,96,11207,6,0,L|468:172,2,47.5
476,304,11695,6,0,L|416:320,3,47.5
332,224,12182,2,0,L|400:208,1,47.5
356,324,12426,2,0,B|304:340,1,47.5
256,248,12669,6,0,P|281:206|344:168,1,95
464,140,13157,2,0,P|392:84|280:64,1,190
356,224,13888,5,0,0:0:0:0:
240,104,14131,1,0,0:0:0:0:
284,224,14375,1,0,0:0:0:0:
188,160,14619,1,0,0:0:0:0:
188,160,14862,6,0,L|136:212,2,47.5
80,296,15350,1,0,0:0:0:0:
100,136,15593,1,0,0:0:0:0:
188,312,15837,6,0,L|216:360,2,47.5
272,176,16324,1,0,0:0:0:0:
328,280,16568,6,0,P|384:272|440:232,1,95
252,168,17055,2,0,P|172:108|140:20,1,190
112,196,17786,5,0,0:0:0:0:
220,80,18030,1,0,0:0:0:0:
112,196,18274,1,0,0:0:0:0:
252,172,18517,1,0,0:0:0:0:
252,172,18761,6,0,L|304:204,2,47.5
384,264,19248,1,0,0:0:0:0:
252,172,19492,2,0,P|152:128|52:136,1,190
160,252,20223,1,0,0:0:0:0:
256,32,20467,5,4,0:0:0:0:
256,32,20954,1,4,0:0:0:0:
256,32,21198,2,0,L|200:92,2,47.5
400,120,21685,5,0,0:0:0:0:
112,188,21929,1,0,0:0:0:0:
340,252,22172,1,0,0:0:0:0:
256,364,22416,5,4,0:0:0:0:
256,364,22903,1,4,0:0:0:0:
256,364,23147,2,0,L|304:304,2,47.5
192,188,23878,5,0,0:0:0:0:
68,84,24122,1,0,0:0:0:0:
52,228,24365,2,0,P|88:304|176:320,1,142.5
204,208,24853,6,0,L|144:220,1,47.5
232,344,25096,2,0,L|332:320,1,95
448,200,25584,5,0,0:0:0:0:
328,84,25827,1,0,0:0:0:0:
204,208,26071,1,0,0:0:0:0:
368,292,26315,2,4,P|424:260|480:140,2,190,4|4|0,0:0|0:0|0:0,0:0:0:0:
360,292,27655,6,0,L|296:292,1,47.5
488,240,28020,1,0,0:0:0:0:
376,128,28264,6,0,P|328:100|252:80,1,95
264,168,28751,2,0,P|164:168|80:240,1,190
168,48,29482,5,0,0:0:0:0:
204,240,29726,1,0,0:0:0:0:
280,72,29970,1,0,0:0:0:0:
316,208,30213,1,0,0:0:0:0:
376,100,30457,6,0,L|400:36,2,47.5
260,204,30944,1,0,0:0:0:0:
332,40,31188,1,0,0:0:0:0:
332,196,31432,6,0,L|292:264,2,47.5
448,48,31919,1,0,0:0:0:0:
440,188,32163,6,0,P|412:240|364:284,1,95
332,196,32650,2,0,P|256:244|136:232,1,190
264,84,33381,5,0,0:0:0:0:
248,264,33625,1,0,0:0:0:0:
264,84,33868,1,0,0:0:0:0:
140,176,34112,1,0,0:0:0:0:
140,176,34356,6,0,L|80:224,2,47.5
259,139,34843,1,0,0:0:0:0:
244,181,34965,1,0,0:0:0:0:
248,216,35087,2,0,P|273:267|313:295,1,95
376,316,35574,1,0,0:0:0:0:
496,256,35818,1,0,0:0:0:0:
504,96,36061,5,4,0:0:0:0:
348,60,36549,1,4,0:0:0:0:
264,216,37036,6,0,P|239:267|199:295,1,95
180,308,37401,1,0,0:0:0:0:
136,316,37523,1,0,0:0:0:0:
16,256,37767,1,0,0:0:0:0:
8,96,38010,5,4,0:0:0:0:
172,60,38498,1,4,0:0:0:0:
172,60,38742,2,0,L|240:80,2,47.5
312,236,39473,5,0,0:0:0:0:
220,336,39716,1,0,0:0:0:0:
196,200,39960,6,0,P|216:112|264:56,1,142.5
280,60,40447,2,0,P|272:156|288:224,1,142.5
316,192,40935,2,0,P|376:132|444:104,1,142.5
444,140,41422,6,0,L|464:184,1,47.5
368,272,41666,2,0,L|344:216,1,47.5
428,84,41909,2,0,P|388:276|216:316,1,380,0|4,0:0|0:0,0:0:0:0:
216,312,43249,6,0,L|176:288,1,47.5
336,308,43615,1,0,0:0:0:0:
444,232,43858,6,0,B|424:136|424:136|340:92,1,190
308,204,44589,1,0,0:0:0:0:
460,112,44833,1,0,0:0:0:0:
296,72,45199,6,0,L|336:96,1,47.5
176,76,45565,1,0,0:0:0:0:
68,152,45808,6,0,B|88:248|88:248|172:292,1,190,4|0,0:0|0:0,0:0:0:0:
204,180,46539,1,0,0:0:0:0:
52,272,46782,1,0,0:0:0:0:
256,328,47270,5,0,0:0:0:0:
376,292,47513,1,0,0:0:0:0:
472,192,47757,2,0,P|500:100|484:28,1,142.5,4|0,0:0|0:0,0:0:0:0:
456,56,48244,6,0,L|424:124,1,47.5
304,124,48488,2,0,L|344:60,1,47.5
400,188,48732,2,0,L|348:216,1,47.5
236,96,48975,2,0,L|296:96,1,47.5
240,216,49219,2,0,L|176:216,1,47.5
128,96,49463,6,0,P|188:104|240:136,1,95
232,136,50194,1,0,0:0:0:0:
256,168,50681,1,4,0:0:0:0:
260,212,51047,6,0,L|260:272,1,47.5,0|0,0:0|0:0,0:0:0:0:
168,144,51412,1,0,0:0:0:0:
288,88,51656,6,0,P|352:92|412:132,1,95
468,72,52143,2,0,P|478:135|453:202,1,95
504,256,52630,2,0,P|439:251|368:208,1,142.5
384,92,53118,6,0,L|416:136,1,47.5
316,192,53361,2,0,L|316:124,1,47.5
416,224,53605,2,0,P|372:280|320:312,1,95
324,308,53971,1,0,0:0:0:0:
280,316,54092,1,0,0:0:0:0:
440,340,54336,5,0,0:0:0:0:
368,232,54580,2,0,P|276:176|176:168,1,190
72,196,55311,5,0,0:0:0:0:
96,84,55554,2,0,P|120:40|188:8,1,95
204,104,56042,2,0,P|132:112|108:144,1,95
208,172,56529,6,0,P|276:192|340:244,1,142.5
288,264,57016,2,0,P|208:264|140:320,1,142.5
148,244,57504,2,0,P|164:192|208:152,1,95
220,144,57869,1,0,0:0:0:0:
260,132,57991,1,0,0:0:0:0:
112,96,58235,5,0,0:0:0:0:
256,64,58478,2,0,P|344:88|396:172,1,190
384,296,59209,1,0,0:0:0:0:
244,372,59453,6,0,P|132:340|76:256,1,190,4|0,0:0|0:0,0:0:0:0:
88,148,60184,1,0,0:0:0:0:
192,44,60428,6,0,P|276:40|336:72,1,142.5
376,52,60915,2,0,P|392:140|352:216,1,142.5
404,232,61402,2,0,P|340:252|288:252,1,95
276,252,61768,1,0,0:0:0:0:
228,244,61890,1,0,0:0:0:0:
352,344,62133,5,0,0:0:0:0:
428,204,62377,2,0,P|388:112|308:56,1,190
196,48,63108,1,0,0:0:0:0:
72,128,63352,6,0,L|32:168,3,47.5
104,188,63839,2,0,L|92:244,3,47.5
164,220,64326,2,0,L|180:272,3,47.5
236,220,64814,2,0,L|276:256,3,47.5
304,192,65301,2,0,B|356:196|380:252|380:252|440:164|380:88|380:88|356:144|288:148,1,380
288,148,66641,6,0,L|232:148,1,47.5
120,148,67007,1,0,0:0:0:0:
288,148,67250,2,0,P|220:180|160:252,1,142.5,4|0,0:0|0:0,0:0:0:0:
124,220,67738,2,0,P|128:132|172:76,1,142.5
208,104,68225,2,0,P|228:168|280:204,1,95
368,280,68712,5,0,0:0:0:0:
372,132,68956,1,0,0:0:0:0:
368,280,69200,1,0,0:0:0:0:
216,184,69443,1,0,0:0:0:0:
368,280,69687,1,0,0:0:0:0:
164,352,69931,1,0,0:0:0:0:
368,280,70174,1,0,0:0:0:0:
384,280,70540,6,0,L|432:280,1,47.5
292,280,70905,1,0,0:0:0:0:
336,176,71149,2,0,P|384:104|436:80,1,142.5
432,144,71636,2,0,P|352:136|276:88,1,142.5
236,124,72124,2,0,P|240:172|284:216,1,95
136,80,72611,5,0,0:0:0:0:
208,200,72855,1,0,0:0:0:0:
320,88,73098,1,0,0:0:0:0:
136,184,73342,1,0,0:0:0:0:
320,264,73586,1,0,0:0:0:0:
252,56,73829,1,0,0:0:0:0:
72,168,74073,1,0,0:0:0:0:
72,168,74317,6,0,L|16:200,2,47.5
192,124,74804,1,0,0:0:0:0:
332,144,75048,2,4,B|416:204|416:204|456:304,2,190,4|4|0,0:0|0:0|0:0,0:0:0:0:
256,272,76510,5,0,0:0:0:0:
180,144,76997,2,4,B|96:204|96:204|56:304,2,190,4|4|0,0:0|0:0|0:0,0:0:0:0:
256,24,78459,1,0,0:0:0:0:
256,192,78946,12,0,81870,0:0:0:0:
224,236,82236,6,0,L|280:236,1,47.5
392,236,82602,1,0,0:0:0:0:
224,236,82845,2,0,P|292:204|352:132,1,142.5
388,164,83333,2,0,P|384:252|340:308,1,142.5
304,280,83820,2,0,P|284:216|232:180,1,95
144,104,84307,5,0,0:0:0:0:
140,252,84551,1,0,0:0:0:0:
144,104,84795,1,0,0:0:0:0:
296,200,85038,1,0,0:0:0:0:
144,104,85282,1,0,0:0:0:0:
348,32,85526,1,0,0:0:0:0:
144,104,85769,1,0,0:0:0:0:
128,104,86135,6,0,L|80:104,1,47.5
220,104,86500,1,0,0:0:0:0:
176,208,86744,2,0,P|128:280|76:304,1,142.5
80,240,87231,2,0,P|160:248|236:296,1,142.5
276,260,87719,2,0,P|272:212|228:168,1,95
376,304,88206,5,0,0:0:0:0:
304,184,88450,1,0,0:0:0:0:
192,296,88693,1,0,0:0:0:0:
376,200,88937,1,0,0:0:0:0:
192,120,89181,1,0,0:0:0:0:
260,328,89424,1,0,0:0:0:0:
440,216,89668,1,0,0:0:0:0:
440,216,89912,6,0,L|496:184,2,47.5
320,260,90399,1,0,0:0:0:0:
180,240,90643,2,4,B|96:180|96:180|56:80,2,190,4|4|0,0:0|0:0|0:0,0:0:0:0:
256,112,92105,5,0,0:0:0:0:
332,240,92592,2,4,B|416:180|416:180|456:80,2,190,4|4|0,0:0|0:0|0:0,0:0:0:0:
256,360,94054,1,0,0:0:0:0:
256,192,94541,12,0,97465,0:0:0:0:
256,196,97830,6,0,L|256:140,1,47.5
256,48,98196,1,0,0:0:0:0:
256,196,98439,1,4,0:0:0:0:
116,324,99169,2,0,L|72:368,2,47.5
116,324,100144,5,0,0:0:0:0:
136,292,100266,1,0,0:0:0:0:
140,256,100388,1,0,0:0:0:0:
256,196,101362,5,0,0:0:0:0:
256,196,101850,2,0,L|256:132,2,47.5
256,196,102337,5,4,0:0:0:0:
396,76,103068,2,0,L|440:32,2,47.5
396,76,104043,5,0,0:0:0:0:
376,108,104165,1,0,0:0:0:0:
372,144,104287,1,0,0:0:0:0:
256,196,105261,1,0,0:0:0:0:
256,196,105627,2,0,L|256:256,1,47.5
256,328,105992,1,0,0:0:0:0:
256,196,106236,6,0,L|312:160,4,47.5
360,228,106967,5,0,0:0:0:0:
388,264,107089,1,0,0:0:0:0:
392,312,107210,2,0,L|384:376,4,47.5
296,372,107941,5,0,0:0:0:0:
248,380,108063,1,0,0:0:0:0:
204,360,108185,2,0,L|168:328,2,47.5
40,296,108672,6,0,L|44:220,2,47.5
36,88,109160,6,0,L|96:72,3,47.5
180,168,109647,2,0,L|112:184,1,47.5
156,68,109891,2,0,B|208:52,1,47.5
256,144,110134,6,0,P|231:186|168:224,1,95
48,252,110622,2,0,P|120:308|232:328,1,190
156,168,111353,5,0,0:0:0:0:
272,288,111596,1,0,0:0:0:0:
228,168,111840,1,0,0:0:0:0:
324,232,112084,1,0,0:0:0:0:
324,232,112327,6,0,L|376:180,2,47.5
432,96,112815,1,0,0:0:0:0:
412,256,113058,1,0,0:0:0:0:
324,80,113302,6,0,L|296:32,2,47.5
240,216,113789,1,0,0:0:0:0:
184,112,114033,6,0,P|128:120|72:160,1,95
260,224,114520,2,0,P|340:284|372:372,1,190
400,196,115251,5,0,0:0:0:0:
292,312,115495,1,0,0:0:0:0:
400,196,115739,1,0,0:0:0:0:
260,220,115982,1,0,0:0:0:0:
260,220,116226,6,0,L|208:188,2,47.5
128,128,116713,1,0,0:0:0:0:
260,220,116957,2,0,P|360:264|460:256,1,190
352,140,117688,1,0,0:0:0:0:
256,360,117932,5,4,0:0:0:0:
256,360,118419,1,4,0:0:0:0:
256,360,118663,2,0,L|312:300,2,47.5
112,272,119150,5,0,0:0:0:0:
400,204,119394,1,0,0:0:0:0:
172,140,119637,1,0,0:0:0:0:
256,28,119881,5,4,0:0:0:0:
256,28,120368,1,4,0:0:0:0:
256,28,120612,2,0,L|208:88,2,47.5
320,204,121343,5,0,0:0:0:0:
444,308,121587,1,0,0:0:0:0:
460,164,121830,2,0,P|424:88|336:72,1,142.5
308,184,122318,6,0,L|368:172,1,47.5
280,48,122561,2,0,L|180:72,1,95
64,192,123049,5,0,0:0:0:0:
184,308,123292,1,0,0:0:0:0:
308,184,123536,1,0,0:0:0:0:
144,100,123780,2,4,P|88:132|32:252,2,190,4|4|0,0:0|0:0|0:0,0:0:0:0:
152,100,125120,6,0,L|216:100,1,47.5
24,152,125485,1,0,0:0:0:0:
136,264,125729,6,0,P|184:292|260:312,1,95
248,224,126216,2,0,P|348:224|432:152,1,190
344,344,126947,5,0,0:0:0:0:
308,152,127191,1,0,0:0:0:0:
232,320,127435,1,0,0:0:0:0:
196,184,127678,1,0,0:0:0:0:
136,292,127922,6,0,L|112:356,2,47.5
252,188,128409,1,0,0:0:0:0:
180,352,128653,1,0,0:0:0:0:
180,196,128897,6,0,L|220:128,2,47.5
64,344,129384,1,0,0:0:0:0:
72,204,129628,6,0,P|100:152|148:108,1,95
180,196,130115,2,0,P|256:148|376:160,1,190
248,308,130846,5,0,0:0:0:0:
264,128,131090,1,0,0:0:0:0:
248,308,131333,1,0,0:0:0:0:
372,216,131577,1,0,0:0:0:0:
372,216,131821,6,0,L|432:168,2,47.5
253,253,132308,1,0,0:0:0:0:
268,211,132430,1,0,0:0:0:0:
264,176,132552,2,0,P|239:125|199:97,1,95
136,76,133039,1,0,0:0:0:0:
16,136,133283,1,0,0:0:0:0:
8,296,133526,5,4,0:0:0:0:
164,332,134014,1,4,0:0:0:0:
248,176,134501,6,0,P|273:125|313:97,1,95
332,84,134866,1,0,0:0:0:0:
376,76,134988,1,0,0:0:0:0:
496,136,135232,1,0,0:0:0:0:
504,296,135475,5,4,0:0:0:0:
340,332,135963,1,4,0:0:0:0:
340,332,136207,2,0,L|272:312,2,47.5
200,156,136938,5,0,0:0:0:0:
292,56,137181,1,0,0:0:0:0:
316,192,137425,6,0,P|296:280|248:336,1,142.5
232,332,137912,2,0,P|240:236|224:168,1,142.5
196,200,138400,2,0,P|136:260|68:288,1,142.5
68,252,138887,6,0,L|48:208,1,47.5
144,120,139131,2,0,L|168:176,1,47.5
84,308,139374,2,0,P|124:116|296:76,1,380,0|4,0:0|0:0,0:0:0:0:
296,80,140714,6,0,L|336:104,1,47.5
176,84,141080,1,0,0:0:0:0:
68,160,141323,6,0,B|88:256|88:256|172:300,1,190
204,188,142054,1,0,0:0:0:0:
52,280,142298,1,0,0:0:0:0:
216,320,142664,6,0,L|176:296,1,47.5
336,316,143030,1,0,0:0:0:0:
444,240,143273,6,0,B|424:144|424:144|340:100,1,190,4|0,0:0|0:0,0:0:0:0:
308,212,144004,1,0,0:0:0:0:
460,120,144247,1,0,0:0:0:0:
256,64,144735,5,0,0:0:0:0:
136,100,144978,1,0,0:0:0:0:
40,200,145222,2,0,P|12:292|28:364,1,142.5,4|0,0:0|0:0,0:0:0:0:
56,336,145709,6,0,L|88:268,1,47.5
208,268,145953,2,0,L|168:332,1,47.5
112,204,146197,2,0,L|164:176,1,47.5
276,296,146440,2,0,L|216:296,1,47.5
272,176,146684,2,0,L|336:176,1,47.5
384,296,146928,6,0,P|324:288|272:256,1,95
280,256,147659,1,0,0:0:0:0:
256,224,148146,1,4,0:0:0:0:
252,180,148512,6,0,L|252:120,1,47.5,0|0,0:0|0:0,0:0:0:0:
344,248,148877,1,0,0:0:0:0:
224,304,149121,6,0,P|160:300|100:260,1,95
44,320,149608,2,0,P|34:257|59:190,1,95
8,136,150095,2,0,P|73:141|144:184,1,142.5
128,300,150583,6,0,L|96:256,1,47.5
196,200,150826,2,0,L|196:268,1,47.5
96,168,151070,2,0,P|140:112|192:80,1,95
188,84,151436,1,0,0:0:0:0:
232,76,151557,1,0,0:0:0:0:
72,52,151801,5,0,0:0:0:0:
144,160,152045,2,0,P|236:216|336:224,1,190
440,196,152776,5,0,0:0:0:0:
416,308,153019,2,0,P|392:352|324:384,1,95
308,288,153507,2,0,P|380:280|404:248,1,95
304,220,153994,6,0,P|236:200|172:148,1,142.5
224,128,154481,2,0,P|304:128|372:72,1,142.5
364,148,154969,2,0,P|348:200|304:240,1,95
292,248,155334,1,0,0:0:0:0:
252,260,155456,1,0,0:0:0:0:
400,296,155700,5,0,0:0:0:0:
256,328,155943,2,0,P|168:304|116:220,1,190
128,96,156674,1,0,0:0:0:0:
268,20,156918,6,0,P|380:52|436:136,1,190,4|0,0:0|0:0,0:0:0:0:
424,244,157649,1,0,0:0:0:0:
320,348,157893,6,0,P|236:352|176:320,1,142.5
136,340,158380,2,0,P|120:252|160:176,1,142.5
108,160,158867,2,0,P|172:140|224:140,1,95
236,140,159233,1,0,0:0:0:0:
284,148,159355,1,0,0:0:0:0:
160,48,159598,5,0,0:0:0:0:
84,188,159842,2,0,P|124:280|204:336,1,190
316,344,160573,1,0,0:0:0:0:
440,264,160817,6,0,L|480:224,3,47.5
408,204,161304,2,0,L|420:148,3,47.5
348,172,161791,2,0,L|332:120,3,47.5
276,172,162279,2,0,L|236:136,3,47.5
208,200,162766,2,0,B|156:196|132:140|132:140|72:228|132:304|132:304|156:248|224:244,1,380
224,244,164106,6,0,L|280:244,1,47.5
392,244,164472,1,0,0:0:0:0:
224,244,164715,2,0,P|292:212|352:140,1,142.5
388,172,165203,2,0,P|384:260|340:316,1,142.5
304,288,165690,2,0,P|284:224|232:188,1,95
144,112,166177,5,0,0:0:0:0:
140,260,166421,1,0,0:0:0:0:
144,112,166665,1,0,0:0:0:0:
296,208,166908,1,0,0:0:0:0:
144,112,167152,1,0,0:0:0:0:
348,40,167396,1,0,0:0:0:0:
144,112,167639,1,0,0:0:0:0:
128,112,168005,6,0,L|80:112,1,47.5
220,112,168370,1,0,0:0:0:0:
176,216,168614,2,0,P|128:288|76:312,1,142.5
80,248,169101,2,0,P|160:256|236:304,1,142.5
276,268,169589,2,0,P|272:220|228:176,1,95
376,312,170076,5,0,0:0:0:0:
304,192,170320,1,0,0:0:0:0:
192,304,170563,1,0,0:0:0:0:
376,208,170807,1,0,0:0:0:0:
192,128,171051,1,0,0:0:0:0:
260,336,171294,1,0,0:0:0:0:
440,224,171538,1,0,0:0:0:0:
440,224,171782,6,0,L|496:192,2,47.5
320,268,172269,1,0,0:0:0:0:
180,248,172513,2,4,B|96:188|96:188|56:88,2,190,4|4|0,0:0|0:0|0:0,0:0:0:0:
256,120,173975,5,0,0:0:0:0:
332,248,174462,2,4,B|416:188|416:188|456:88,2,190,4|4|0,0:0|0:0|0:0,0:0:0:0:
256,368,175924,1,0,0:0:0:0:
256,192,176411,12,0,179335,0:0:0:0:
288,156,179701,6,0,L|232:156,1,47.5
120,156,180067,1,0,0:0:0:0:
288,156,180310,2,0,P|220:188|160:260,1,142.5,4|0,0:0|0:0,0:0:0:0:
124,228,180798,2,0,P|128:140|172:84,1,142.5
208,112,181285,2,0,P|228:176|280:212,1,95
368,288,181772,5,0,0:0:0:0:
372,140,182016,1,0,0:0:0:0:
368,288,182260,1,0,0:0:0:0:
216,192,182503,1,0,0:0:0:0:
368,288,182747,1,0,0:0:0:0:
164,360,182991,1,0,0:0:0:0:
368,288,183234,1,0,0:0:0:0:
384,288,183600,6,0,L|432:288,1,47.5
292,288,183965,1,0,0:0:0:0:
336,184,184209,2,0,P|384:112|436:88,1,142.5
432,152,184696,2,0,P|352:144|276:96,1,142.5
236,132,185184,2,0,P|240:180|284:224,1,95
136,88,185671,5,0,0:0:0:0:
208,208,185915,1,0,0:0:0:0:
320,96,186158,1,0,0:0:0:0:
136,192,186402,1,0,0:0:0:0:
320,272,186646,1,0,0:0:0:0:
252,64,186889,1,0,0:0:0:0:
72,176,187133,1,0,0:0:0:0:
72,176,187377,6,0,L|16:208,2,47.5
192,132,187864,1,0,0:0:0:0:
332,152,188108,2,4,B|416:212|416:212|456:312,2,190,4|4|0,0:0|0:0|0:0,0:0:0:0:
256,280,189570,5,0,0:0:0:0:
180,152,190057,2,4,B|96:212|96:212|56:312,2,190,4|4|0,0:0|0:0|0:0,0:0:0:0:
256,32,191519,1,0,0:0:0:0:
256,192,192006,12,0,194930,0:0:0:0:
256,196,195296,6,0,L|308:160,1,47.5
360,112,195662,1,0,0:0:0:0:
256,196,195905,2,0,P|200:112|76:72,1,190
104,76,196636,1,0,0:0:0:0:
96,76,196758,1,0,0:0:0:0:
88,76,196880,1,0,0:0:0:0:
256,188,197245,6,0,L|204:224,1,47.5
152,272,197611,1,0,0:0:0:0:
256,188,197854,2,0,P|312:272|436:312,1,190
408,308,198585,1,0,0:0:0:0:
416,308,198707,1,0,0:0:0:0:
424,308,198829,1,0,0:0:0:0:
256,184,199195,6,0,L|256:128,1,47.5
256,280,199560,1,0,0:0:0:0:
256,192,199804,12,0,200779,0:0:0:0:
256,56,201022,5,0,0:0:0:0:
368,344,201266,1,0,0:0:0:0:
96,172,201510,1,0,0:0:0:0:
420,168,201753,1,0,0:0:0:0:
148,344,202241,5,4,0:0:0:0:
