osu file format v9

[General]
AudioFilename: 3009.mp3
AudioLeadIn: 2500
PreviewTime: 28233
Countdown: 0
SampleSet: Soft
StackLeniency: 0.6
Mode: 1
LetterboxInBreaks: 0

[Editor]
Bookmarks: 2879,13546,28213,46758,55485,63122,69667,78394,89960,93160
DistanceSpacing: 0.8
BeatDivisor: 6
GridSize: 16

[Metadata]
Title:Hakuchou no Mizuumi
Artist:Swan Lake Orchestra
Creator:AngelHoney
Version:lepidon! - Taiko Oni
Source:jubeat
Tags:jubeat knit ORIGINAL SOUND TRACK KONAMI Soundtrack Mutsuhiko Izumi swanlake lepidopodus

[Difficulty]
HPDrainRate:5
CircleSize:5
OverallDifficulty:5
ApproachRate:5
SliderMultiplier:1.4
SliderTickRate:0.5

[Events]
//Background and Video events
0,0,"BGTAIKO.jpg"
//Break Periods
//Storyboard Layer 0 (Background)
//Storyboard Layer 1 (Fail)
//Storyboard Layer 2 (Pass)
//Storyboard Layer 3 (Foreground)
//Storyboard Sound Samples
//Background Colour Transformations
3,100,0,0,0

[TimingPoints]
233.204438955393,333.333333333333,4,2,1,70,1,0
2733,-100,4,2,1,80,0,0
13399,-100,4,2,1,90,0,0
28233,272.727272727273,4,2,1,90,1,0
55369,-133.333333333333,4,2,1,90,0,0
63073,-100,4,2,1,100,0,0
63142,-100,4,2,1,100,0,1
78346,-100,4,2,1,90,0,1
78414,-100,4,2,1,90,0,0
83585,200,4,2,1,80,1,0
89985,400,4,2,1,80,1,0
92785,200,4,2,1,80,1,0
92785,-120.481927710843,4,2,1,100,0,0
93433,240,4,2,1,100,1,0
97010,368.098159509202,4,2,1,90,1,0
98482,368.098159509202,7,2,1,90,1,0
100629,368.098159509202,4,2,1,90,1,0
101686,545.454545454545,4,2,1,80,1,0
101686,-67.5675675675676,4,2,1,80,0,0

[Colours]
Combo1 : 242,180,111
Combo2 : 122,250,173
Combo3 : 104,190,253
Combo4 : 245,254,141
Combo5 : 239,67,67

[HitObjects]
204,217,233,1,0
304,176,566,1,8
288,272,1233,1,8
348,281,1566,1,0
176,144,1899,1,8
272,192,2566,1,8
446,245,2899,5,8
380,153,3566,1,0
401,204,3733,1,0
456,207,3899,1,0
449,151,4066,1,8
420,199,4233,1,8
256,192,4733,1,0
304,208,4899,1,8
320,48,5399,1,0
352,96,5566,1,8
384,256,6066,1,0
416,208,6233,1,8
448,160,6399,1,0
496,192,6566,1,0
464,144,6733,1,8
410,160,6899,1,0
419,236,7733,1,8
379,274,7899,1,8
408,225,8066,1,0
400,128,8233,5,8
235,279,8899,1,0
181,295,9066,1,0
181,295,9233,1,0
235,282,9399,1,8
290,271,9566,1,8
310,104,10066,1,0
363,121,10233,1,8
490,230,10733,1,0
434,236,10899,1,8
492,78,11399,1,0
468,128,11566,1,8
455,182,11733,1,0
404,204,11899,1,0
432,155,12066,1,8
398,200,12233,1,0
316,296,13233,1,0
299,185,13566,5,0
354,178,13733,1,8
407,161,13899,1,0
460,143,14066,1,8
501,180,14233,1,0
448,199,14399,1,8
462,253,14566,1,0
421,213,14733,1,8
366,223,14899,2,0,B|224:240,1,140
276,213,15399,1,8
460,143,15566,1,0
439,252,15899,1,8
393,219,16066,1,8
339,202,16233,2,0,B|192:170,1,140
256,157,16733,1,8
311,158,16899,1,0
413,202,17233,1,8
399,226,17316,1,8
427,255,17399,1,8
371,251,17566,2,0,B|217:256,1,140
280,228,18066,1,8
328,198,18233,1,0
379,176,18399,1,0
405,166,18483,1,0
431,158,18566,1,8
474,193,18733,1,8
416,176,18899,5,0
448,128,19066,1,8
464,176,19233,1,0
474,193,19399,1,8
432,224,19566,1,0
464,176,19733,1,8
405,166,19899,1,0
448,192,20066,1,8
400,192,20233,2,0,B|240:208,1,140
288,160,20733,1,8
336,128,20899,1,0
464,176,21233,1,8
505,212,21399,1,8
449,215,21566,2,0,B|298:222,1,140
357,193,22066,1,8
404,163,22233,1,0
448,166,22566,1,8
464,176,22649,1,8
464,176,22733,1,8
413,199,22899,5,0
386,209,22983,1,0
360,219,23066,1,0
334,229,23149,1,0
307,239,23233,1,0
323,185,23399,1,8
369,216,23566,1,0
346,267,23733,1,0
325,286,23816,1,0
333,259,23899,1,8
353,206,24066,1,8
404,184,24233,1,0
429,173,24316,1,0
455,162,24399,1,0
472,183,24483,1,0
461,208,24566,1,8
400,208,24733,1,0
352,224,24899,1,0
320,224,24983,1,0
288,240,25066,1,0
256,240,25149,1,0
272,208,25233,1,8
288,176,25316,1,8
304,144,25399,1,8
320,128,25483,1,8
352,128,25566,1,8
461,208,25899,1,0
448,224,25983,1,0
432,240,26066,1,0
416,256,26149,1,0
368,352,26233,1,8
352,336,26316,1,8
336,320,26399,1,8
304,304,26483,1,8
272,304,26566,1,8
240,304,26649,1,8
208,304,26733,1,8
176,288,26816,1,8
304,144,26899,1,8
80,160,28233,5,0
135,161,28369,1,8
190,162,28505,1,0
246,163,28642,1,8
296,186,28778,1,0
350,199,28914,1,8
374,214,28983,1,8
397,198,29051,1,0
425,149,29187,1,8
391,193,29323,1,0
401,248,29460,1,8
393,274,29528,1,8
410,252,29596,1,0
404,196,29733,1,8
445,158,29869,1,0
464,210,30005,1,8
450,185,30073,1,8
476,173,30142,1,0
435,134,30278,1,8
380,144,30414,1,0
331,171,30551,1,8
287,206,30687,1,0
314,254,30823,1,8
259,242,30960,1,0
203,245,31096,1,0
175,249,31164,1,0
202,253,31233,1,8
256,266,31369,1,8
284,218,31505,2,0,B|107:86,1,210
225,114,32187,1,8
279,126,32323,1,8
332,144,32460,1,0
375,179,32596,5,0
416,216,32733,1,8
422,160,32869,1,0
389,114,33005,1,8
345,149,33142,1,0
368,199,33278,1,8
359,225,33346,1,8
382,240,33414,1,0
438,240,33551,1,8
407,286,33687,1,0
422,160,33823,1,8
443,141,33892,1,8
440,168,33960,1,0
483,203,34096,1,8
440,168,34233,1,0
438,240,34369,1,8
424,264,34437,1,8
417,236,34505,1,0
371,202,34642,1,8
317,185,34778,1,0
364,154,34914,1,8
412,148,35051,1,0
483,203,35187,1,8
435,232,35323,1,0
384,256,35460,1,0
356,261,35528,1,0
362,233,35596,1,8
317,185,35733,1,8
272,219,35869,2,0,B|83:260|75:52,1,280
187,100,36687,1,0
299,100,36960,5,0
350,120,37096,1,8
401,143,37233,1,0
448,172,37369,1,8
463,225,37505,1,0
423,264,37642,1,0
399,279,37710,1,0
371,282,37778,1,8
315,288,37914,1,8
264,262,38051,1,0
242,210,38187,1,0
235,182,38255,1,0
235,182,38323,1,0
289,169,38460,1,8
335,138,38596,1,0
418,212,38869,1,0
435,158,39005,1,8
407,109,39142,1,0
378,157,39278,1,0
360,179,39346,1,0
346,203,39414,1,0
402,197,39551,1,8
414,251,39687,1,0
500,179,39960,1,8
464,222,40096,1,8
432,268,40233,1,0
376,263,40369,1,8
348,262,40437,1,8
320,262,40505,1,8
264,256,40642,1,8
278,202,40778,1,0
318,163,40914,1,0
367,136,41051,1,0
422,127,41187,1,8
445,76,41323,5,0
457,130,41460,1,8
446,184,41596,1,0
391,199,41733,1,8
410,251,41869,1,0
385,300,42005,1,0
385,300,42073,1,0
376,272,42142,1,8
346,224,42278,1,8
324,172,42414,1,0
323,115,42551,1,0
323,115,42619,1,0
323,115,42687,1,0
377,128,42823,1,8
410,173,42960,1,0
376,272,43233,1,0
413,230,43369,1,8
468,238,43505,1,0
446,290,43642,1,0
427,311,43710,1,0
407,330,43778,1,0
416,274,43914,1,8
424,218,44051,1,0
370,120,44323,1,8
425,112,44460,1,8
387,153,44596,1,0
335,175,44733,1,0
319,198,44801,1,0
308,224,44869,1,0
358,247,45005,1,8
446,290,45142,1,0
394,311,45278,1,0
412,258,45414,1,8
426,203,45551,1,8
65,244,45687,1,0
120,245,45823,1,8
148,246,45892,1,8
175,247,45960,1,8
230,245,46096,1,8
284,230,46233,1,0
334,205,46369,1,8
360,195,46437,1,8
386,187,46505,1,8
441,178,46642,1,8
80,160,46778,5,0
135,161,46914,1,8
190,162,47050,1,0
246,163,47187,1,8
296,186,47323,1,0
350,199,47459,1,8
374,214,47528,1,8
397,198,47596,1,0
425,149,47732,1,8
391,193,47868,1,0
401,248,48005,1,8
393,274,48073,1,8
410,252,48141,1,0
404,196,48278,1,8
445,158,48414,1,0
464,210,48550,1,8
450,185,48618,1,8
476,173,48687,1,0
435,134,48823,1,8
380,144,48959,1,0
331,171,49096,1,8
287,206,49232,1,0
314,254,49368,1,8
259,242,49505,1,0
203,245,49641,1,0
175,249,49709,1,0
202,253,49778,1,8
256,266,49914,1,8
284,218,50050,2,0,B|107:86,1,210
225,114,50732,1,8
250,127,50801,1,8
279,126,50868,1,8
332,144,51005,1,0
375,179,51141,5,0
416,216,51278,1,8
422,160,51414,1,0
389,114,51550,1,8
345,149,51687,1,0
368,199,51823,1,8
359,225,51891,1,8
382,240,51959,1,0
438,240,52096,1,8
407,286,52232,1,0
422,160,52368,1,8
443,141,52437,1,8
440,168,52505,1,0
483,203,52641,1,8
440,168,52778,1,0
438,240,52914,1,8
424,264,52982,1,8
417,236,53050,1,0
371,202,53187,1,8
317,185,53323,1,0
364,154,53459,1,8
412,148,53596,1,0
483,203,53732,1,8
435,232,53868,1,0
384,256,54005,1,0
356,261,54073,1,0
362,233,54141,1,8
317,185,54278,1,8
269,215,54414,1,0
245,230,54483,1,0
222,246,54551,1,0
198,261,54619,1,0
219,242,54687,1,8
240,224,54755,1,8
261,206,54823,1,8
283,188,54892,1,8
305,171,54960,1,8
332,169,55028,1,8
359,168,55096,1,8
386,169,55164,1,8
412,178,55233,1,8
404,66,55505,5,0
441,107,55778,1,0
443,162,56051,1,0
381,255,56323,1,8
340,294,56460,1,8
314,260,56596,2,0,B|205:199,1,104.999996870756
252,179,57005,1,8
294,178,57142,1,0
364,223,57414,1,8
388,257,57551,1,8
352,235,57687,2,0,B|279:156,1,104.999996870756
322,155,58096,1,8
364,158,58233,1,0
446,172,58505,1,8
461,185,58573,1,8
461,185,58642,1,8
440,221,58778,2,0,B|344:300,1,104.999996870756
350,246,59187,1,8
326,211,59323,1,0
331,169,59460,1,0
334,148,59528,1,0
354,147,59596,1,8
396,147,59733,1,8
354,139,59869,5,0
288,192,60142,1,0
341,256,60414,1,0
424,244,60687,1,8
465,238,60823,1,8
432,211,60960,2,0,B|378:109,1,104.999996870756
379,76,61369,1,8
407,107,61505,1,0
451,178,61778,1,8
429,213,61914,1,8
391,232,62051,1,0
351,245,62187,1,0
331,251,62255,1,0
311,257,62323,1,0
308,214,62460,1,8
346,197,62596,1,0
308,217,62733,1,0
270,236,62869,1,8
304,208,63005,1,8
349,181,63142,5,8
451,178,63278,1,0
448,233,63414,1,0
451,261,63483,1,8
428,277,63551,1,8
374,293,63687,1,0
319,306,63823,1,0
276,268,63960,1,0
296,248,64028,1,8
314,226,64096,1,8
320,176,64233,1,8
368,160,64369,1,0
416,176,64505,1,0
448,160,64573,1,8
448,192,64642,1,0
432,144,64778,1,12
480,176,64914,1,4
448,224,65051,1,12
349,181,65323,1,8
451,178,65459,1,0
448,233,65595,1,0
451,261,65664,1,8
428,277,65732,1,8
374,293,65868,1,0
319,306,66004,1,0
276,268,66141,1,0
296,248,66209,1,8
314,226,66277,1,8
320,176,66414,1,8
368,160,66550,1,0
416,176,66686,1,0
448,160,66754,1,8
448,192,66823,1,0
432,144,66959,1,12
480,176,67095,1,4
448,224,67232,1,12
476,303,67505,5,8
421,290,67642,1,0
414,315,67710,1,0
386,308,67778,1,0
357,301,67914,1,8
318,284,68051,1,8
356,243,68187,1,0
339,224,68255,1,0
318,243,68323,1,0
382,183,68460,1,8
327,195,68596,1,0
272,210,68733,1,0
246,220,68801,1,0
222,234,68869,1,0
275,217,69005,1,8
326,194,69142,1,4
380,96,69414,1,8
386,123,69483,1,8
384,150,69551,1,8
453,184,69687,1,8
451,239,69823,1,0
438,264,69892,1,0
422,286,69960,1,0
372,259,70096,1,8
327,293,70233,1,8
333,237,70369,1,0
326,194,70437,1,0
326,194,70505,1,0
380,178,70642,1,8
453,184,70778,1,0
450,239,70914,1,0
450,210,70983,1,0
450,210,71051,1,0
468,157,71187,1,8
429,116,71323,1,4
405,225,71596,1,8
450,210,71664,1,8
423,258,71733,1,8
319,175,71869,5,8
370,195,72005,1,0
405,225,72073,1,0
406,253,72142,1,0
422,199,72278,1,8
468,157,72414,1,8
450,210,72551,1,0
434,233,72619,1,0
423,258,72687,1,0
468,157,72823,1,8
416,128,72960,1,4
468,157,73096,1,8
448,112,73233,1,4
480,160,73369,1,8
480,112,73505,1,4
468,157,73642,1,8
416,128,73778,1,4
319,175,74051,1,8
370,195,74187,1,0
405,225,74255,1,0
406,253,74324,1,0
422,199,74460,1,8
468,157,74596,1,8
450,210,74733,1,0
434,233,74801,1,0
423,258,74869,1,0
468,157,75005,1,8
416,128,75142,1,4
468,157,75278,1,8
448,112,75415,1,4
480,160,75551,1,8
480,112,75687,1,4
468,157,75824,1,8
416,128,75960,1,4
337,208,76233,5,4
287,233,76369,1,0
262,245,76437,1,0
238,259,76505,1,0
238,315,76642,1,0
271,270,76778,1,12
326,266,76914,1,0
351,277,76983,1,0
377,284,77051,1,0
431,298,77187,1,0
337,208,77323,1,4
287,233,77459,1,0
262,245,77527,1,0
238,259,77595,1,0
238,315,77732,1,0
271,270,77868,1,12
326,266,78004,1,0
351,277,78073,1,0
377,284,78141,1,0
431,298,78277,1,0
418,257,78414,5,8
391,177,78687,1,8
306,174,78960,1,8
390,175,79233,1,0
377,284,79505,1,0
296,307,79778,1,0
418,257,80051,1,8
391,177,80324,1,8
306,174,80597,1,8
390,175,80870,1,0
377,284,81142,1,0
296,307,81415,1,0
364,258,81687,1,8
417,192,81960,1,8
431,274,82233,1,8
372,214,82505,1,0
139,114,83585,5,0
194,122,83685,1,8
249,130,83785,1,0
304,139,83885,1,8
359,148,83985,1,0
413,160,84085,1,8
458,192,84185,1,0
447,247,84285,1,8
139,114,84385,1,0
194,122,84485,1,8
249,130,84585,1,0
304,139,84685,1,8
359,148,84785,1,0
413,160,84885,1,8
458,192,84985,1,0
447,247,85085,1,8
139,114,85185,1,0
194,122,85285,1,8
249,130,85385,1,0
304,139,85485,1,8
359,148,85585,1,4
413,160,85685,1,8
458,192,85785,1,0
447,247,85885,1,8
139,114,85985,1,0
194,122,86085,1,8
249,130,86185,1,0
304,139,86285,1,8
359,148,86385,1,4
413,160,86485,1,8
458,192,86585,1,0
447,247,86685,1,8
400,288,86785,5,0
352,288,86885,1,8
304,256,86985,1,4
272,208,87085,1,8
320,176,87185,1,0
368,144,87285,1,8
416,112,87385,1,4
464,128,87485,1,8
400,288,87585,1,0
352,288,87685,1,8
304,256,87785,1,4
272,208,87885,1,8
320,176,87985,1,0
368,144,88085,1,8
416,112,88185,1,4
464,128,88285,1,8
400,288,88385,1,0
352,288,88485,1,8
304,256,88585,1,4
272,208,88685,1,8
320,176,88785,1,0
368,144,88885,1,8
416,112,88985,1,4
464,128,89085,1,8
400,288,89185,1,0
352,288,89285,1,8
304,256,89385,1,4
272,208,89485,1,8
320,176,89585,1,0
368,144,89685,1,8
416,112,89785,1,4
435,164,89885,1,8
218,302,92785,5,0
218,302,92885,1,0
218,302,92985,1,0
218,302,93085,1,0
107,155,93185,1,8
219,128,93433,5,0
246,122,93493,1,0
273,123,93553,1,0
299,132,93613,1,0
326,138,93673,1,8
219,128,93913,1,0
246,122,93973,1,0
273,123,94033,1,0
299,132,94093,1,0
326,138,94153,1,8
344,248,94393,1,0
342,275,94453,1,0
364,258,94513,1,8
386,242,94573,1,8
403,220,94633,1,0
400,108,94873,1,0
422,124,94933,1,0
419,151,94993,1,0
419,178,95053,1,0
446,183,95113,1,8
219,128,95353,1,0
246,122,95413,1,0
273,123,95473,1,0
299,132,95533,1,0
326,138,95593,1,8
219,128,95833,1,0
246,122,95893,1,0
273,123,95953,1,0
299,132,96013,1,0
326,138,96073,1,8
344,248,96313,1,0
342,275,96373,1,0
364,258,96433,1,8
386,242,96493,1,8
403,220,96553,1,0
264,232,97010,5,8
227,240,97132,1,8
190,249,97255,1,8
152,252,97378,1,8
184,234,97500,1,0
217,217,97623,1,0
250,200,97746,1,0
283,183,97868,1,0
320,177,97991,1,8
356,171,98114,1,8
392,176,98236,1,8
425,193,98359,1,8
435,229,98482,1,0
421,264,98605,1,0
386,278,98727,1,0
348,282,98850,1,0
318,224,100629,5,4
348,215,101686,1,4
461,196,102231,1,4
256,192,102776,12,0,104958
