osu file format v9

[General]
AudioFilename: 3009.mp3
AudioLeadIn: 4
PreviewTime: 28213
Countdown: 0
SampleSet: Soft
StackLeniency: 0.6
Mode: 0
LetterboxInBreaks: 0

[Editor]
Bookmarks: 2879,13546,28213,46758,55485,63122,69667,78394,89960,93160
DistanceSpacing: 0.8
BeatDivisor: 2
GridSize: 16

[Metadata]
Title:Hakuchou no Mizuumi
Artist:Swan Lake Orchestra
Creator:AngelHoney
Version:Normal
Source:jubeat
Tags:jubeat knit ORIGINAL SOUND TRACK KONAMI Soundtrack Mutsuhiko Izumi swanlake lepidopodus

[Difficulty]
HPDrainRate:3
CircleSize:3
OverallDifficulty:3
ApproachRate:5
SliderMultiplier:1.1
SliderTickRate:0.5

[Events]
//Background and Video events
0,0,"ugliness.jpg"
//Break Periods
//Storyboard Layer 0 (Background)
//Storyboard Layer 1 (Fail)
//Storyboard Layer 2 (Pass)
//Storyboard Layer 3 (Foreground)
//Storyboard Sound Samples
//Background Colour Transformations
3,100,0,0,0

[TimingPoints]
233.204438955393,333.333333333333,4,2,1,40,1,0
13399,-100,4,2,1,50,0,0
27899,-100,4,1,1,90,0,0
28233,272.727272727273,4,1,1,90,1,1
28267,-100,4,1,1,90,0,0
46778,-100,4,1,1,90,0,1
46812,-100,4,1,1,90,0,0
54346,-100,4,1,1,80,0,0
54687,-100,4,1,1,70,0,0
54960,-100,4,1,1,60,0,0
55369,-100,4,2,1,60,0,0
62869,-100,4,1,1,90,0,0
72892,-100,4,1,1,100,0,0
73914,-100,4,1,1,90,0,0
75073,-100,4,1,1,100,0,0
76096,-100,4,1,1,90,0,0
76710,-100,4,1,1,80,0,0
77255,-100,4,1,1,70,0,0
77801,-100,4,1,1,60,0,0
78346,-100,4,1,1,50,0,0
79369,-100,4,1,1,40,0,0
80460,-100,4,1,1,30,0,0
81551,-100,4,1,1,20,0,0
83323,-100,4,1,1,100,0,0
83585,200,4,1,1,90,1,1
89785,-100,4,1,1,50,0,0
89985,800,4,1,1,50,1,0
91985,-66.6666666666667,4,1,1,50,0,0
92585,-66.6666666666667,4,1,1,90,0,0
92785,200,4,1,1,90,1,0
93433,240,4,1,1,90,1,0
97010,368.098159509202,4,1,1,100,1,0
97378,-100,4,1,1,90,0,0
97746,-100,4,1,1,80,0,0
98114,-100,4,1,1,70,0,0
98482,-100,4,1,1,60,0,0
98850,-100,4,1,1,50,0,0
99954,-100,4,1,1,80,0,0
101427,-100,4,1,1,70,0,0
101686,545.454545454545,4,1,1,60,1,0
101958,-100,4,1,1,70,0,0

[Colours]
Combo1 : 242,180,111
Combo2 : 122,250,173
Combo3 : 104,190,253
Combo4 : 245,254,141
Combo5 : 239,67,67

[HitObjects]
80,112,2899,2,0,B|112:64|192:64,1,110,0|2
304,128,3566,2,0,B|320:192,1,55,0|2
384,240,3899,2,0,B|400:176,1,55,0|2
416,96,4233,2,0,B|352:48|256:48,1,165,0|2
272,128,4899,2,0,B|176:112|96:160,1,165,0|2
162,219,5566,2,0,B|64:240|16:304,1,165,0|2
96,336,6233,2,0,B|176:352,1,55,0|2
224,320,6566,2,0,B|288:304,1,55,0|2
352,336,6899,5,2
448,224,7233,1,2
368,80,7566,1,0
304,64,7733,1,2
240,80,7899,1,0
176,64,8066,1,2
112,80,8233,6,0,B|48:64|-32:112,1,110
64,208,8899,1,0
64,208,9066,1,2
128,336,9399,1,2
128,336,9566,2,0,B|192:352|240:320,1,110,0|2
352,240,10233,2,0,B|304:208|224:208,1,110,2|0
112,144,10899,2,0,B|144:96|208:80,1,110,2|0
336,64,11566,5,2
432,160,11899,1,2
352,272,12233,2,0,B|288:288|224:256,3,110,2|0|2|2
128,208,13566,6,0,B|80:160|16:160,1,110,2|0
144,96,14233,2,0,B|192:48|256:32,1,110,2|2
272,160,14899,2,0,B|384:208|496:160,1,220,2|0
512,272,15899,1,2
400,304,16233,2,0,B|288:256|144:304,1,220,2|0
112,208,17233,1,2
224,192,17566,2,0,B|192:128|224:64,1,110,2|0
336,32,18233,2,0,B|368:112|336:160,1,110,2|2
304,240,18899,5,0
368,320,19233,1,2
272,368,19566,1,0
208,288,19899,1,2
112,240,20233,2,0,B|96:176,2,55,0|2|2
208,160,20899,2,0,B|208:96,2,55,0|2|2
320,128,21566,2,0,B|336:64,2,55,0|2|2
432,112,22233,2,0,B|464:32,2,55,0|2|2
496,224,22899,6,0,B|432:272|336:272,1,165,2|2
272,224,23566,2,0,B|160:208,1,110,2|0
80,80,24233,2,0,B|192:96,1,110,2|0
256,192,24899,12,0,26899
80,128,28233,6,0,B|128:112|192:112,1,110,4|0
304,112,28778,1,0
416,144,29051,1,0
384,192,29187,1,0
336,224,29323,2,0,B|288:256|224:256,1,110
80,176,29869,2,0,B|144:144|208:144,1,110
256,272,30414,2,0,B|192:304|144:304,1,110
32,224,30960,2,0,B|16:128|96:64,1,165
112,112,31505,2,0,B|240:80,1,110
272,208,32051,6,0,B|176:176|96:224,1,165
73,238,32596,1,0
160,336,32869,1,0
288,320,33142,1,0
288,320,33278,1,0
368,208,33551,1,0
368,208,33687,2,0,B|368:112|464:64,1,165
464,128,34233,2,0,B|400:64|304:80,1,165
320,128,34778,2,0,B|240:144|160:96,1,165
120,77,35323,2,0,B|138:206,1,110
16,160,35869,2,0,B|32:272,2,110
32,48,36687,1,0
144,96,36960,6,0,B|224:80|272:48,1,110
368,94,37505,1,0
441,186,37778,1,0
400,224,37914,1,0
352,256,38051,2,0,B|272:288|176:240,1,165
144,224,38596,2,0,B|64:336,1,110
16,176,39142,6,0,B|80:112|176:128,1,165
208,160,39687,2,0,B|288:80,1,110
400,32,40233,2,0,B|432:128|368:224,1,165
364,230,40778,1,0
334,257,40914,1,0
301,281,41051,1,0
261,299,41187,1,0
214,305,41323,6,0,B|176:256|176:192,1,110
288,176,41869,2,0,B|288:80|176:32,1,165
176,80,42414,2,0,B|48:64,1,110
0,160,42960,1,0
80,256,43233,1,0
80,256,43369,1,0
80,256,43505,2,0,B|176:272|272:240,1,165
288,240,44051,1,0
384,144,44323,5,0
384,144,44460,1,0
384,144,44596,2,0,B|304:112|208:128,1,165
176,144,45142,2,0,B|48:128,1,110
96,240,45687,2,0,B|176:224|288:240,1,165
304,272,46233,2,0,B|240:336|128:336,1,165
112,320,46778,5,4
16,240,47051,1,0
0,112,47323,1,0
32,80,47460,1,0
144,144,47733,1,0
176,112,47869,2,0,B|256:80|352:112,1,165
368,144,48414,2,0,B|304:208|192:208,1,165
176,224,48960,2,0,B|272:256|336:336,1,165
350,338,49505,1,0
391,356,49642,1,0
434,355,49778,1,0
472,332,49914,1,0
494,298,50051,6,0,B|496:240|432:176,1,110
418,166,50460,1,0
368,48,50733,1,0
320,64,50869,1,0
273,75,51005,1,0
225,77,51142,2,0,B|176:80|112:64,1,110
17,141,51687,1,0
52,168,51823,1,0
28,280,52096,1,0
64,304,52233,6,0,B|154:324|240:272,1,165
240,336,52778,2,0,B|336:304|352:208,1,165
393,264,53323,2,0,B|448:192|432:96,1,165
416,64,53869,1,0
389,23,54005,1,0
272,80,54278,1,0
304,112,54414,6,0,B|320:208|288:304|160:304|96:272,1,330
16,176,55505,6,0,B|80:176|128:160,2,110,4|0|4
0,64,56323,1,4
112,64,56596,2,0,B|256:96|336:32,1,220,2|4
432,240,57687,2,0,B|320:176|224:240,1,220,4|2
32,64,58778,2,0,B|144:128|256:64,1,220,6|2
432,48,59869,6,0,B|400:160,1,110,4|2
208,256,60687,2,0,B|240:144,1,110,6|4
96,64,61505,1,2
64,240,62051,2,0,B|176:176|288:256,1,220,4|0
432,288,63142,5,4
448,208,63414,1,0
464,128,63687,1,0
320,176,64233,1,0
288,96,64505,1,0
256,16,64778,1,0
129,124,65323,6,0,B|64:48,2,82.5,4|0|0
112,176,65869,2,0,B|176:192|224:176,1,110
352,224,66414,6,0,B|416:160,2,82.5
352,272,66960,2,0,B|304:288|240:272,1,110
128,304,67505,6,0,B|32:352,2,82.5,4|0|0
112,256,68051,2,0,B|16:256,2,82.5
112,208,68596,2,0,B|176:112|320:112,1,220
416,256,69687,6,0,B|496:224,2,82.5
400,304,70233,2,0,B|480:336,2,82.5
368,336,70778,2,0,B|256:368|144:304,1,220
48,112,71869,6,0,B|32:16,2,82.5,4|0|0
96,96,72414,2,0,B|128:0,2,82.5
144,112,72960,2,0,B|192:80|272:80,1,110
320,176,73505,2,0,B|272:208|208:208,1,110
112,272,74051,6,0,B|64:368,2,82.5
96,224,74596,2,0,B|0:256,2,82.5
80,176,75142,2,0,B|96:112|144:80,1,110
208,192,75687,2,0,B|272:176|304:112,1,110
208,48,76233,6,0,B|288:16|384:32,1,165
400,64,76778,2,0,B|304:80|240:160,1,165
240,176,77323,2,0,B|336:176|416:224,1,165
416,256,77869,2,0,B|320:272|240:352,1,165
224,352,78414,6,0,B|96:336,3,110
192,240,79505,2,0,B|64:224,3,110
144,128,80596,2,0,B|16:112,3,110
112,16,81687,2,0,B|0:0,3,110
160,96,83585,6,0,B|256:48|384:96,1,220,4|0
480,176,84385,1,0
448,208,84585,1,0
432,336,84985,1,0
384,320,85185,2,0,B|160:320,1,220,0|4
16,192,85985,2,0,B|256:192,1,220,0|4
384,192,86785,5,0
304,96,87185,1,0
208,176,87585,1,0
288,272,87985,1,0
400,176,88385,5,0
320,80,88785,1,0
224,160,89185,1,0
304,256,89585,1,0
176,304,89985,6,0,B|112:304|48:288,2,110
144,160,92185,2,0,B|144:80,1,41.2499987706542
256,48,92785,6,0,B|272:64|272:64|272:48|272:48|288:64|288:64|288:48|288:48|304:64|304:64|304:48|304:48|320:64|320:64|320:48|320:48|336:64|336:64|336:48|336:48|384:48,1,220,0|0
432,160,93433,2,0,B|320:160,1,110
368,256,93913,2,0,B|240:256,1,110
304,352,94393,2,0,B|192:352,3,110
240,256,95353,6,0,B|112:256,1,110
176,160,95833,2,0,B|64:160,1,110
112,64,96313,2,0,B|-16:64,1,110
256,80,97010,6,0,B|304:64,15,36.6666666666667
448,128,100629,5,4
304,224,101686,6,0,B|253:245|176:224,2,110,4|0|4
