osu file format v9

[General]
AudioFilename: 3009.mp3
AudioLeadIn: 2504
PreviewTime: 28233
Countdown: 0
SampleSet: Normal
StackLeniency: 0.6
Mode: 0
LetterboxInBreaks: 0

[Editor]
Bookmarks: 2879,13546,28213,46758,55485,63122,69667,78394,89960,93160
DistanceSpacing: 0.8
BeatDivisor: 4
GridSize: 16

[Metadata]
Title:Hakuchou no Mizuumi
Artist:Swan Lake Orchestra
Creator:AngelHoney
Version:Extra
Source:jubeat
Tags:jubeat knit ORIGINAL SOUND TRACK KONAMI Soundtrack Mutsuhiko Izumi swanlake lepidopodus

[Difficulty]
HPDrainRate:7
CircleSize:4
OverallDifficulty:7
ApproachRate:9
SliderMultiplier:1.8
SliderTickRate:0.5

[Events]
//Background and Video events
0,0,"ugliness.jpg"
//Break Periods
2,27099,27633
//Storyboard Layer 0 (Background)
//Storyboard Layer 1 (Fail)
//Storyboard Layer 2 (Pass)
//Storyboard Layer 3 (Foreground)
//Storyboard Sound Samples
//Background Colour Transformations
3,100,0,0,0

[TimingPoints]
233.204438955393,333.333333333333,4,2,1,40,1,0
2858,-100,4,2,1,60,0,0
13483,-100,4,2,1,70,0,0
24149,-100,4,2,1,75,0,0
24858,-100,4,2,1,80,0,0
25524,-100,4,2,1,85,0,0
25858,-100,4,2,1,90,0,0
26191,-100,4,2,1,100,0,0
27899,-100,4,1,1,90,0,0
28233,272.727272727273,4,1,1,90,1,1
28267,-100,4,1,1,90,0,0
46778,-100,4,1,1,90,0,1
46812,-100,4,1,1,90,0,0
54346,-100,4,1,1,75,0,0
54687,-100,4,1,1,70,0,0
54960,-100,4,1,1,65,0,0
55233,-100,4,1,1,60,0,0
55505,-100,4,2,1,60,0,0
55642,-100,4,2,1,70,0,0
57278,-100,4,2,1,60,0,0
57619,-100,4,2,1,80,0,0
58369,-100,4,2,1,85,0,0
59187,-100,4,2,1,80,0,0
59392,-100,4,2,1,75,0,0
59528,-100,4,2,1,70,0,0
59664,-100,4,2,1,65,0,0
59801,-100,4,2,1,70,0,0
60892,-100,4,2,1,80,0,0
61369,-100,4,2,1,70,0,0
61983,-100,4,2,1,80,0,0
62528,-100,4,2,1,90,0,0
63073,-133.333333333333,4,1,1,100,0,0
63823,-133.333333333333,4,1,1,70,0,0
64198,-133.333333333333,4,1,1,80,0,0
64914,-133.333333333333,4,1,1,100,0,0
66142,-133.333333333333,4,1,1,80,0,0
67437,-133.333333333333,4,1,1,90,0,0
68869,-133.333333333333,4,1,1,100,0,0
69619,-100,4,1,1,90,0,0
70846,-100,4,2,1,70,0,0
70983,-100,4,1,1,70,0,0
71119,-100,4,2,1,70,0,0
71255,-100,4,1,1,100,0,0
71596,-100,4,1,1,90,0,0
72892,-100,4,1,1,100,0,0
73983,-100,4,1,1,90,0,0
75073,-100,4,1,1,100,0,0
76710,-100,4,1,1,95,0,0
77255,-100,4,1,1,90,0,0
77801,-100,4,1,1,85,0,0
78346,-100,4,1,1,80,0,0
78551,-100,4,1,1,75,0,0
78823,-100,4,1,1,70,0,0
79096,-100,4,1,1,65,0,0
79369,-100,4,1,1,60,0,0
79642,-100,4,1,1,56,0,0
79914,-100,4,1,1,50,0,0
80187,-100,4,1,1,45,0,0
80460,-100,4,1,1,40,0,0
80733,-100,4,1,1,35,0,0
81005,-100,4,1,1,30,0,0
81278,-100,4,1,1,25,0,0
81551,-100,4,1,1,20,0,0
81823,-100,4,1,1,16,0,0
82096,-100,4,1,1,10,0,0
82369,-100,4,1,1,6,0,0
82642,-133.333333333333,4,1,1,0,0,0
83051,-133.333333333333,4,1,2,0,0,0
83585,200,4,1,1,100,1,1
83685,-100,4,1,1,90,0,1
83885,-100,4,1,1,100,0,1
84085,-100,4,1,1,90,0,1
84285,-100,4,1,1,100,0,1
85285,-100,4,1,1,90,0,1
85485,-100,4,1,1,100,0,1
86085,-100,4,1,1,90,0,1
86285,-100,4,1,1,100,0,1
89985,800,4,1,1,60,1,0
90185,-100,4,1,1,20,0,0
90585,-100,4,1,1,60,0,0
92785,200,4,1,1,100,1,1
92810,-100,4,1,1,100,0,0
93433,240,4,1,1,100,1,0
97010,368.098159509202,4,1,1,100,1,0
97378,-100,4,1,1,91,0,0
97746,-100,4,1,1,80,0,0
98114,-100,4,1,1,70,0,0
98482,-100,4,1,1,60,0,0
98850,-100,4,1,1,50,0,0
100322,-100,4,1,1,80,0,0
101427,-100,4,1,1,70,0,0
101686,545.454545454545,4,1,1,70,1,0
101958,-100,4,1,1,90,0,0
102504,-100,4,1,1,80,0,0

[Colours]
Combo1 : 242,180,111
Combo2 : 122,250,173
Combo3 : 104,190,253
Combo4 : 245,254,141
Combo5 : 239,67,67

[HitObjects]
64,64,233,1,0
128,112,399,1,2
256,64,733,1,2
384,112,1066,1,2
256,192,1399,1,2
336,224,1566,1,0
416,256,1733,1,2
256,320,2066,1,2
96,256,2399,1,2
27,103,2733,1,2
112,160,2899,6,0,B|80:272,1,90,2|0
192,240,3233,2,0,B|160:352,1,90,0|2
272,320,3566,1,0
352,304,3733,1,2
416,256,3899,1,2
464,192,4066,1,2
480,112,4233,2,0,B|444:94|368:80,1,90,2|0
304,64,4566,1,0
192,160,4733,2,0,B|240:144|304:144,1,90,2|2
368,160,5066,1,0
448,192,5233,1,0
368,256,5399,6,0,B|320:240|256:256,1,90,2|2
192,304,5733,2,0,B|144:320|80:304,1,90
32,256,6066,1,2
96,192,6233,1,0
48,112,6399,1,2
128,80,6566,1,2
192,16,6733,1,0
272,64,6899,2,0,B|304:0,2,45,2|0|0
352,128,7233,2,0,B|384:64,2,45,2|0|0
448,160,7566,1,2
432,192,7649,1,0
416,224,7733,1,2
272,208,7899,1,2
288,240,7983,1,0
304,272,8066,1,2
208,336,8233,6,0,B|160:304|80:304,1,90,2|0
48,240,8566,2,0,B|80:208|160:176,1,90,2|0
48,128,8899,1,0
128,64,9066,1,2
224,96,9233,1,0
320,64,9399,1,2
400,128,9566,2,0,B|448:96|512:96,1,90,2|0
352,208,9899,1,0
176,240,10066,2,0,B|224:208|304:224,1,90,2|2
96,288,10399,1,0
32,224,10566,1,0
160,160,10733,2,0,B|107:139|16:144,1,90,2|2
224,96,11066,2,0,B|256:64|352:48,1,90
384,96,11399,5,2
480,128,11566,1,0
400,192,11733,1,2
320,256,11899,1,0
416,288,12066,1,2
496,320,12233,2,0,B|496:256,2,45,2|0|0
336,352,12566,2,0,B|336:304,2,45,2|0|0
176,336,12899,1,2
176,304,12983,1,0
176,272,13066,1,2
16,352,13233,1,2
16,320,13316,1,0
16,288,13399,1,2
96,192,13566,6,0,B|48:160|-32:176,1,90,2|0
160,112,13899,2,0,B|192:80|304:80,1,90,2|0
288,224,14233,2,0,B|256:192|176:176,1,90,0|2
128,320,14566,2,0,B|160:288|240:288,1,90,0|2
112,224,14899,6,0,B|192:176|208:64,1,180,2|0
112,48,15399,1,2
304,16,15566,2,0,B|288:128|384:192,1,180,2|0
416,112,16066,1,2
272,224,16233,2,0,B|160:272|176:400,1,180,2|0
96,304,16733,1,2
48,224,16899,2,0,B|160:208|240:272,1,180,2|0
176,144,17399,1,2
64,96,17566,2,0,B|192:16|352:96,1,270,2|2
400,144,18233,1,0
336,224,18399,1,2
240,160,18566,1,0
160,240,18733,1,2
64,304,18899,5,2
16,112,19233,1,0
208,144,19566,1,2
400,64,19899,1,2
464,128,20066,1,2
368,144,20233,2,0,B|256:176|192:96,1,180,2|0
128,48,20733,1,2
64,112,20899,1,2
128,320,21233,1,2
192,256,21399,1,2
240,336,21566,2,0,B|352:336|400:240,1,180,2|0
432,176,22066,1,2
496,240,22233,1,2
240,64,22566,1,2
208,144,22733,1,2
176,224,22899,2,0,B|48:224|32:96,1,180,2|0
16,48,23399,1,2
112,64,23566,1,2
304,216,23899,1,2
304,212,24066,1,2
304,208,24233,6,0,B|304:176,14,22.5,2|0|0|0|0|0|0|0|0|0|0|0|0|0|0
288,232,24899,1,2
264,248,24983,1,0
240,244,25066,1,2
216,236,25149,1,0
192,240,25233,1,0
168,248,25316,1,0
152,264,25399,1,2
136,288,25483,1,0
120,304,25566,6,0,B|128:336,6,22.5,2|0|0|0|0|0|0
96,304,25899,1,2
72,296,25983,1,0
56,280,26066,1,2
40,256,26149,1,0
32,232,26233,2,0,B|40:192,16,22.5,2|0|0|0|0|0|0|0|0|0|0|0|0|0|0|0|0
448,80,28233,5,4
432,208,28369,1,0
336,128,28505,1,0
320,240,28642,1,0
208,304,28778,1,0
176,288,28846,1,0
144,272,28914,1,0
16,224,29051,1,0
48,208,29119,1,0
80,192,29187,1,0
32,80,29323,2,0,B|112:16|224:48,1,180
192,144,29733,1,0
176,240,29869,2,0,B|272:288|384:208,1,180
392,126,30278,1,0
304,32,30414,1,0
272,48,30483,1,0
240,64,30551,1,0
224,192,30687,1,0
224,192,30823,1,0
224,192,30960,6,0,B|192:240|128:256,1,90,0|0
108,94,31233,2,0,B|144:48|204:30,1,90
32,192,31505,1,0
48,304,31642,1,0
80,320,31710,1,0
112,336,31778,1,0
240,304,31914,1,0
368,336,32051,1,0
368,208,32187,2,0,B|336:160|336:96,1,90
432,32,32460,2,0,B|464:80|464:144,1,90,0|0
240,48,32733,5,0
208,64,32801,1,0
176,80,32869,1,0
80,176,33005,1,0
112,192,33073,1,0
144,208,33142,1,0
272,176,33278,1,0
192,320,33414,1,0
320,304,33551,1,0
416,208,33687,2,0,B|448:240|464:304,1,90
480,128,33960,1,0
400,48,34096,2,0,B|352:32|288:48,1,90
280,48,34301,1,0
248,56,34369,1,0
224,176,34505,1,0
96,240,34642,1,0
80,208,34710,1,0
64,176,34778,2,0,B|48:128|80:48,1,90
144,352,35051,2,0,B|192:336|224:288,1,90
320,256,35323,5,0
448,304,35460,1,0
464,176,35596,1,0
352,128,35733,1,0
224,64,35869,1,0
224,96,35937,1,0
224,128,36005,1,0
96,32,36142,1,0
96,64,36210,1,0
96,96,36278,1,0
0,192,36414,1,0
64,304,36551,1,0
96,288,36619,1,0
128,272,36687,1,0
240,192,36823,1,0
240,192,36960,6,0,B|352:192,1,90,4|0
304,64,37232,2,0,B|416:64,1,90
512,144,37505,2,0,B|400:144,1,90
304,240,37778,1,0
288,272,37846,1,0
272,304,37914,1,0
416,320,38051,2,0,B|448:224|368:144,1,180
176,96,38460,2,0,B|288:96,1,90
368,48,38732,1,0
272,208,38869,5,0
232,224,38937,1,0
192,240,39005,1,0
96,160,39142,2,0,B|48:208|64:272,1,90
128,336,39414,1,0
256,352,39551,1,0
296,352,39619,1,0
336,352,39687,1,0
448,288,39823,1,0
352,192,39960,1,0
480,112,40096,1,0
224,64,40232,2,0,B|304:0|432:48,1,180
432,144,40642,1,0
352,256,40778,1,0
208,304,40914,1,0
64,240,41051,1,0
16,80,41187,1,0
144,32,41323,5,4
160,64,41392,1,0
176,96,41460,1,0
288,80,41596,1,0
304,112,41664,1,0
320,144,41732,1,0
464,144,41869,1,0
400,272,42005,1,0
272,336,42142,1,0
256,304,42210,1,0
240,272,42278,1,0
112,320,42414,2,0,B|128:208|32:144,1,180
128,48,42823,1,0
168,56,42892,1,0
208,64,42960,1,0
208,184,43096,2,0,B|304:152,1,90
400,112,43369,1,0
160,104,43505,6,0,B|144:200,1,90
288,256,43778,1,0
320,112,43914,1,0
352,88,43983,1,0
384,64,44051,1,0
480,176,44187,1,0
384,288,44323,2,0,B|480:320,1,90
248,320,44596,1,0
128,272,44732,1,0
112,304,44800,1,0
96,336,44869,1,0
32,192,45005,1,0
128,112,45142,1,0
176,96,45210,1,0
224,80,45278,1,0
416,128,45414,1,0
368,144,45482,1,0
320,160,45551,1,0
152,275,45687,6,0,B|232:211|344:243,1,180
224,112,46096,1,0
16,192,46232,2,0,B|128:160|192:256,1,180
288,112,46642,1,0
416,64,46778,5,4
432,96,46846,1,0
448,128,46914,1,0
352,208,47051,1,0
336,240,47119,1,0
320,272,47187,1,0
176,336,47323,1,0
48,224,47460,1,0
176,96,47596,1,0
368,128,47732,1,0
352,160,47801,1,0
336,192,47869,2,0,B|224:208,1,90
112,288,48142,1,0
32,144,48278,1,0
16,112,48346,1,0
0,80,48414,2,0,B|112:96,1,90
160,192,48687,1,0
208,32,48823,1,0
224,64,48892,1,0
240,96,48960,2,0,B|352:80,1,90
448,32,49232,1,0
288,192,49369,1,0
416,144,49505,6,0,B|464:128|528:144,1,90
448,272,49778,2,0,B|400:288|336:272,1,90
208,336,50051,1,0
168,344,50119,1,0
128,352,50187,1,0
120,240,50323,1,0
80,248,50392,1,0
40,256,50460,1,0
32,136,50596,1,0
144,40,50732,1,0
160,80,50801,1,0
176,120,50869,1,0
304,192,51005,1,0
416,72,51142,6,0,B|294:118,1,90
302,118,51346,1,0
270,134,51414,1,0
464,192,51551,1,0
416,320,51687,1,0
376,304,51755,1,0
336,312,51823,1,0
208,352,51960,1,0
176,216,52096,1,0
136,240,52164,1,0
96,224,52232,2,0,B|48:200|-32:224,1,90
112,96,52505,1,0
248,128,52642,1,0
288,144,52710,1,0
328,136,52778,2,0,B|376:112|456:136,1,90
472,240,53051,1,0
336,304,53187,1,0
296,288,53255,1,0
256,304,53323,2,0,B|216:328|144:320,1,90
40,216,53596,2,0,B|80:192|152:200,1,90
264,216,53869,5,0
424,200,54005,1,0
432,40,54142,1,0
240,16,54278,1,0
104,88,54414,5,0
116,104,54482,1,0
124,120,54551,1,0
128,136,54619,1,0
128,152,54687,1,0
116,168,54755,1,0
104,184,54823,1,0
96,200,54892,1,0
92,220,54960,1,0
96,240,55028,1,0
108,256,55096,1,0
124,268,55164,1,0
144,276,55232,1,0
164,276,55301,1,0
188,272,55369,1,0
212,264,55437,1,0
232,256,55505,6,0,B|332:240|424:328,1,180,6|4
224,104,56051,2,0,B|120:96|40:152,1,180,0|6
32,256,56460,1,2
144,336,56596,2,0,B|128:240|224:160,2,180,0|6|4
240,96,57414,2,0,B|336:64,1,90,2|0
416,48,57687,2,0,B|368:160|464:240,2,180,4|2|4
160,160,58505,2,0,B|144:256|16:312,2,180,4|2|6
80,32,59323,1,4
32,112,59460,1,2
112,160,59596,1,0
48,240,59733,1,2
128,288,59869,2,0,B|328:256,1,180,6|2
432,64,60414,2,0,B|232:96,1,180,4|6
176,160,60823,1,2
112,240,60960,2,0,B|224:224|288:304,1,180,4|2
32,64,61505,2,0,B|120:80|224:0,1,180,4|6
288,48,61914,1,2
368,80,62051,2,0,B|392:16,6,45,4|0|0|0|0|0|2
304,144,62596,2,0,B|368:184,6,45,4|0|0|0|0|0|2
256,224,63142,6,0,B|176:224|112:176,1,134.999995976687,4|0
64,128,63551,1,0
32,48,63687,1,0
64,320,63960,1,0
88,304,64028,1,0
120,296,64096,1,0
152,296,64164,1,0
184,304,64233,1,0
265,339,64369,1,0
336,288,64505,1,0
416,256,64642,1,0
496,288,64778,1,0
384,48,65051,5,0
360,72,65119,1,0
328,88,65187,1,0
292,96,65255,1,0
258,90,65323,1,0
176,48,65460,1,0
88,72,65596,1,0
32,144,65733,1,0
56,168,65801,1,0
80,192,65869,1,0
48,272,66005,1,0
304,320,66278,5,0
328,296,66346,1,0
336,264,66414,1,0
312,176,66551,1,0
368,104,66687,1,0
296,48,66823,1,0
264,64,66892,1,0
232,80,66960,1,0
176,144,67096,2,0,B|16:112,1,134.999995976687
80,240,67505,6,0,B|208:224,1,101.249996982515,4|0
216,224,67778,1,0
328,256,67914,1,0
264,136,68051,2,0,B|376:120,1,101.249996982515
400,120,68323,1,0
488,176,68460,1,0
448,288,68596,2,0,B|320:208|176:304,1,269.999991953373,0|4
32,80,69687,6,0,B|112:208,1,135,4|0
128,224,69960,1,0
160,336,70096,1,0
208,112,70233,2,0,B|288:240,1,135
304,256,70505,1,0
336,368,70642,1,0
464,304,70778,2,0,B|480:208,1,90,0|2
384,224,71051,2,0,B|368:112,1,90,0|2
272,80,71323,1,0
64,96,71869,5,0
48,240,72073,1,0
176,176,72278,1,0
256,256,72414,5,0
432,272,72619,1,0
352,112,72823,1,0
464,48,72960,5,0
432,48,73028,1,0
400,48,73096,1,0
368,48,73164,1,0
336,48,73233,1,0
304,48,73301,1,0
272,48,73370,1,0
240,48,73437,1,0
208,48,73506,1,0
176,48,73573,1,0
144,48,73642,1,0
112,48,73710,1,0
80,48,73779,1,0
48,48,73846,1,0
16,48,73914,1,0
64,144,74051,5,0
208,160,74255,1,0
128,272,74460,1,0
256,304,74596,5,0
320,128,74801,1,0
496,208,75005,1,0
464,320,75142,5,0
432,320,75210,1,0
400,320,75278,1,0
368,320,75346,1,0
336,320,75414,1,0
304,320,75483,1,0
272,320,75551,1,0
240,320,75619,1,0
208,320,75687,1,0
176,320,75755,1,0
144,320,75823,1,0
112,320,75892,1,0
80,320,75960,1,0
48,320,76028,1,0
16,320,76096,1,0
32,224,76232,6,0,B|155:163|304:208,1,270
128,96,76778,2,0,B|256:32|416:96,1,270
240,192,77323,2,0,B|368:128|528:192,1,270
64,288,77869,2,0,B|208:224|336:304,1,270
432,352,78414,5,0
352,240,78687,1,0
416,128,78960,1,0
320,16,79233,1,0
224,80,79505,5,0
288,176,79777,1,0
240,288,80050,1,0
320,368,80323,1,0
176,368,80596,5,0
208,256,80869,1,0
144,176,81142,1,0
192,96,81414,1,0
112,48,81687,5,0
48,112,81960,1,0
80,192,82232,1,0
16,240,82505,1,0
48,320,82778,6,0,B|64:304|64:304|64:320|64:320|160:288|304:336,1,269.999991953373
96,224,83585,6,0,B|288:224,1,180
464,80,83985,2,0,B|272:80,1,180
176,112,84385,1,0
288,192,84585,1,0
160,240,84785,1,0
288,304,84985,1,0
144,352,85185,2,0,B|176:144,1,180
192,64,85585,1,4
272,160,85785,1,0
304,64,85985,2,0,B|496:32,1,180
432,128,86385,1,4
384,224,86585,1,0
432,336,86785,6,0,B|224:320,1,180
16,208,87185,2,0,B|208:224,1,180
448,160,87585,2,0,B|240:144,1,180
32,48,87985,2,0,B|224:64,1,180
177,215,88385,2,0,B|113:23,1,180
272,112,88785,2,0,B|352:304,1,180
113,338,89185,2,0,B|33:146,1,180
384,32,89585,2,0,B|464:224,1,180
128,112,89985,6,0,B|192:112|240:128,1,90
400,176,90785,1,0
352,240,90985,1,0
272,272,91185,1,0
192,240,91385,1,0
112,192,91585,2,0,B|64:272,1,90
16,192,92185,1,0
64,112,92385,1,0
240,64,92785,5,0
256,64,92835,1,0
272,64,92885,1,0
288,64,92935,1,0
304,64,92985,1,0
320,64,93035,1,0
336,64,93085,1,0
352,64,93135,1,0
368,64,93185,1,0
432,176,93433,5,0
408,176,93493,1,0
384,176,93553,1,0
360,176,93613,1,0
336,176,93673,1,0
264,288,93913,1,0
288,288,93973,1,0
312,288,94033,1,0
336,288,94093,1,0
360,288,94153,1,0
176,224,94393,5,0
152,224,94453,1,0
128,224,94513,1,0
104,224,94573,1,0
80,224,94633,1,0
16,144,94753,1,0
96,72,94873,1,0
216,72,94993,1,0
304,176,95113,1,0
160,336,95353,5,0
208,336,95413,1,0
256,336,95473,1,0
304,336,95533,1,0
352,336,95593,1,0
448,208,95833,1,0
400,208,95893,1,0
352,208,95953,1,0
304,208,96013,1,0
256,208,96073,1,0
176,64,96313,1,0
224,64,96373,1,0
272,64,96433,1,0
320,64,96493,1,0
368,64,96553,1,0
48,64,97010,5,0
64,112,97132,1,0
96,144,97255,1,0
144,160,97378,1,0
192,144,97500,1,0
240,128,97623,1,0
288,144,97746,1,0
320,176,97868,1,0
352,208,97991,1,0
400,224,98114,1,0
448,208,98236,1,0
480,176,98359,1,0
496,128,98482,1,0
480,80,98605,1,0
448,48,98727,1,0
400,32,98850,1,0
256,240,100629,5,4
288,112,101686,5,4
240,144,102231,1,4
192,176,102776,1,4
