osu file format v9

[General]
AudioFilename: 3009.mp3
AudioLeadIn: 4
PreviewTime: 28213
Countdown: 0
SampleSet: Soft
StackLeniency: 0.6
Mode: 0
LetterboxInBreaks: 0

[Editor]
Bookmarks: 2879,13546,28213,46758,55485,63122,69667,78394,89960,93160
DistanceSpacing: 0.8
BeatDivisor: 4
GridSize: 16

[Metadata]
Title:Hakuchou no Mizuumi
Artist:Swan Lake Orchestra
Creator:AngelHoney
Version:Beginner
Source:jubeat
Tags:jubeat knit ORIGINAL SOUND TRACK KONAMI Soundtrack Mutsuhiko Izumi swanlake lepidopodus

[Difficulty]
HPDrainRate:1
CircleSize:3
OverallDifficulty:1
ApproachRate:2
SliderMultiplier:0.799999999999999
SliderTickRate:0.5

[Events]
//Background and Video events
0,0,"ugliness.jpg"
//Break Periods
//Storyboard Layer 0 (Background)
//Storyboard Layer 1 (Fail)
//Storyboard Layer 2 (Pass)
//Storyboard Layer 3 (Foreground)
//Storyboard Sound Samples
//Background Colour Transformations
3,100,0,0,0

[TimingPoints]
233.204438955393,333.333333333333,4,2,1,40,1,0
13399,-100,4,2,1,50,0,0
27899,-100,4,2,1,90,0,0
28233,272.727272727273,4,1,1,90,1,0
46778,-100,4,1,1,90,0,1
46812,-100,4,1,1,90,0,0
54142,-100,4,1,1,80,0,0
54687,-100,4,1,1,70,0,0
55233,-100,4,2,1,60,0,0
62869,-100,4,1,1,90,0,0
67233,-100,4,1,1,81,0,0
71596,-100,4,1,1,90,0,0
82778,-100,4,1,1,20,0,0
83323,-100,4,1,1,90,0,0
83585,200,4,1,1,90,1,1
89785,-100,4,1,1,50,0,0
89985,800,4,1,1,50,1,0
90385,-100,4,1,1,40,0,0
91185,-100,4,1,1,50,0,0
91985,-100,4,1,1,40,0,0
92785,200,4,1,1,100,1,1
93433,240,4,1,1,100,1,1
97010,368.098159509202,4,1,1,90,1,0
97378,-100,4,1,1,80,0,0
97746,-100,4,1,1,70,0,0
98114,-100,4,1,1,60,0,0
98482,-100,4,1,1,50,0,0
98850,-100,4,1,1,40,0,0
100322,-100,4,1,1,70,0,0
101427,-100,4,1,1,60,0,0
101686,545.454545454545,4,1,1,60,1,0
102504,-100,4,1,1,70,0,0

[Colours]
Combo1 : 242,180,111
Combo2 : 122,250,173
Combo3 : 104,190,253
Combo4 : 245,254,141
Combo5 : 239,67,67

[HitObjects]
48,240,2899,2,0,B|96:320|192:304,1,160,0|2
272,288,3899,1,2
352,256,4233,1,2
432,128,4733,2,0,B|448:80,1,40,2|0
304,80,5399,2,0,B|320:32,1,40,2|0
160,112,6066,2,0,B|176:64,1,40,2|0
80,64,6566,1,2
32,144,6899,2,0,B|31:192|64:240,1,79.9999999999999,2|0
144,192,7566,2,0,B|176:240|160:304,1,79.9999999999999,2|2
240,320,8233,6,0,B|336:336|416:256,1,160,2|2
448,208,9233,1,2
480,128,9566,1,2
352,64,10066,2,0,B|352:0,2,40,2|0|2
256,80,10733,2,0,B|256:32,2,40,2|0|2
160,64,11399,2,0,B|96:96|80:160,1,120,2|2
16,224,12233,2,0,B|96:224|176:272,1,160,2|0
240,320,13233,1,2
320,368,13566,6,0,B|352:288|448:240,1,160,2|0
256,240,14899,2,0,B|288:160|256:64,1,160,2|0
96,48,16233,2,0,B|32:112|48:208,1,160,2|0
160,304,17566,2,0,B|240:288|352:320,1,160,2|0
448,208,18899,5,0
400,144,19233,1,2
320,112,19566,1,0
240,96,19899,1,2
160,112,20233,2,0,B|96:176|128:272,1,160,2|0
288,320,21566,2,0,B|352:240|320:160,1,160,2|0
160,80,22899,2,0,B|96:144|112:240,1,160,2|0
240,336,24233,2,0,B|304:272|288:176,1,160,2|0
256,192,25566,12,0,26899
96,128,28233,5,4
224,80,28778,2,0,B|304:48,2,79.9999999999999
208,208,29869,1,0
336,160,30414,1,0
416,256,30960,1,0
384,288,31233,1,0
352,320,31505,2,0,B|304:336|240:320,1,79.9999999999999
144,336,32323,5,0
128,304,32596,1,0
32,240,33142,1,0
48,208,33414,1,0
64,176,33687,1,0
32,64,34233,1,0
144,32,34778,1,0
176,144,35323,1,0
208,176,35596,2,0,B|288:208|400:176,1,160
480,256,36687,5,0
448,288,36960,2,0,B|368:256|272:304,1,160
252,318,37778,1,0
208,336,38051,2,0,B|112:336|48:272,1,160
38,244,38869,1,0
22,200,39142,2,0,B|-10:104|22:24,1,160
64,32,39960,1,0
111,26,40233,2,0,B|208:96|368:64,1,240
384,64,41323,6,0,B|464:112|480:208,1,160
464,224,42142,2,0,B|432:304,2,79.9999999999999
336,240,43233,2,0,B|304:320,2,79.9999999999999
224,192,44323,2,0,B|192:272,2,79.9999999999999
96,208,45414,1,0
64,240,45687,2,0,B|0:192|32:80,2,160,0|0|4
176,304,47323,6,0,B|160:208|208:144,1,160
320,112,48414,2,0,B|336:208|288:272,1,160
224,368,49505,2,0,B|336:352,2,79.9999999999999
128,288,50596,2,0,B|64:224|64:128,1,160
160,64,51687,2,0,B|240:16,2,79.9999999999999
256,128,52778,2,0,B|336:80,2,79.9999999999999
352,192,53869,2,0,B|320:288|224:304,2,160
416,96,55505,6,0,B|256:48|96:96,1,320,4|0
32,192,57142,1,2
96,288,57687,2,0,B|256:320|416:288,1,320,4|0
480,192,59323,2,0,B|384:192,2,79.9999999999999,2|2|6
416,96,60414,1,2
304,128,60960,2,0,B|224:144|128:80,1,160,4|2
48,160,62051,2,0,B|144:192|176:288,1,160,4|2
272,336,63142,6,0,B|432:304,1,160,4|0
304,240,64233,2,0,B|464:208,1,160
320,144,65323,2,0,B|480:112,1,160
336,48,66414,2,0,B|496:16,1,160
400,128,67505,6,0,B|240:96,1,160
336,208,68596,2,0,B|176:176,1,160,0|4
272,288,69687,2,0,B|112:256,1,160
192,368,70778,2,0,B|32:336,1,160
16,224,71869,5,0
128,256,72414,1,0
240,288,72960,2,0,B|288:208|256:96,1,160
240,16,74051,1,0
352,64,74596,1,0
480,48,75142,2,0,B|496:128|448:208,1,160
368,288,76233,6,0,B|192:272,1,160
160,160,77323,2,0,B|336:176,1,160
256,192,78414,12,0,82778
112,112,83585,6,0,B|208:80|304:144,1,160,4|0
192,208,84385,2,0,B|272:240|368:208,2,160
96,160,85585,1,0
192,96,85985,2,0,B|256:48|368:48,1,160,0|0
416,144,86785,2,0,B|416:224|480:320,1,160
368,352,87585,1,0
272,304,87985,1,0
160,336,88385,2,0,B|64:352|0:320,1,160
80,240,89185,2,0,B|160:224|240:144,1,160
160,64,89985,6,0,B|240:48,1,79.9999999999999
304,160,91585,2,0,B|400:144,1,79.9999999999999
256,192,92785,12,0,96553
96,80,97010,6,0,B|48:176|48:304|176:352|304:320,1,399.999999999999
240,64,100629,5,4
352,192,101686,6,0,B|400:112,2,79.9999999999999,4|0|4
