osu file format v9

[General]
AudioFilename: 3009.mp3
AudioLeadIn: 2504
PreviewTime: 28213
Countdown: 0
SampleSet: Soft
StackLeniency: 0.6
Mode: 0
LetterboxInBreaks: 0

[Editor]
Bookmarks: 2879,13546,28213,46758,55485,63122,69667,78394,89960,93160
DistanceSpacing: 0.8
BeatDivisor: 4
GridSize: 16

[Metadata]
Title:Hakuchou no Mizuumi
Artist:Swan Lake Orchestra
Creator:AngelHoney
Version:Another
Source:jubeat
Tags:jubeat knit ORIGINAL SOUND TRACK KONAMI Soundtrack Mutsuhiko Izumi swanlake lepidopodus

[Difficulty]
HPDrainRate:5
CircleSize:4
OverallDifficulty:5
ApproachRate:8
SliderMultiplier:1.7
SliderTickRate:0.5

[Events]
//Background and Video events
0,0,"ugliness.jpg"
//Break Periods
2,27099,27483
//Storyboard Layer 0 (Background)
//Storyboard Layer 1 (Fail)
//Storyboard Layer 2 (Pass)
//Storyboard Layer 3 (Foreground)
//Storyboard Sound Samples
//Background Colour Transformations
3,100,0,0,0

[TimingPoints]
233.204438955393,333.333333333333,4,2,1,40,1,0
2733,-100,4,2,1,50,0,0
12149,-100,4,2,1,45,0,0
12816,-100,4,2,1,40,0,0
13483,-100,4,2,1,50,0,0
22816,-100,4,2,1,55,0,0
23483,-100,4,2,1,60,0,0
24149,-100,4,2,1,66,0,0
24816,-100,4,2,1,70,0,0
25524,-100,4,2,1,80,0,0
26149,-100,4,2,1,90,0,0
28066,-100,4,1,1,90,0,0
28233,272.727272727273,4,1,1,90,1,1
28267,-100,4,1,1,90,0,0
46778,-100,4,1,1,90,0,1
46812,-100,4,1,1,90,0,0
54346,-100,4,1,1,85,0,0
54687,-100,4,1,1,80,0,0
54960,-100,4,1,1,76,0,0
55233,-100,4,1,1,70,0,0
55471,-100,4,2,1,70,0,0
59801,-100,4,1,1,30,0,0
60142,-100,4,1,1,35,0,0
60414,-100,4,1,1,40,0,0
60687,-100,4,1,1,45,0,0
60960,-100,4,1,1,50,0,0
61505,-100,4,1,1,55,0,0
62051,-100,4,1,1,60,0,0
62323,-100,4,1,1,65,0,0
62596,-100,4,1,1,70,0,0
62869,-100,4,1,1,75,0,0
63108,-100,4,1,1,100,0,0
67301,-100,4,1,1,70,0,0
67437,-100,4,1,1,90,0,0
68528,-100,4,1,1,100,0,0
69210,-100,4,1,1,50,0,0
69551,-100,4,1,1,90,0,0
70710,-100,4,1,1,100,0,0
71392,-100,4,1,1,50,0,0
71733,-100,4,1,1,90,0,0
72892,-100,4,1,1,100,0,0
73983,-100,4,1,1,90,0,0
75073,-100,4,1,1,100,0,0
76164,-100,4,1,1,95,0,0
76710,-100,4,1,1,90,0,0
77255,-100,4,1,1,86,0,0
77801,-100,4,1,1,80,0,0
78346,-100,4,1,1,70,0,0
79437,-100,4,1,1,60,0,0
80528,-100,4,1,1,50,0,0
81619,-100,4,1,1,40,0,0
83460,-100,4,1,1,100,0,0
83585,200,4,1,1,100,1,1
89885,-100,4,1,1,60,0,1
89985,800,4,1,1,60,1,0
90185,-100,4,1,1,40,0,0
90585,-100,4,1,1,60,0,0
91685,-100,4,1,1,40,0,0
91985,-100,4,1,1,40,0,0
92285,-100,4,1,1,60,0,0
92585,-100,4,1,1,100,0,0
92785,200,4,1,1,100,1,1
92810,-100,4,1,1,100,0,0
93433,240,4,1,1,100,1,0
97010,368.098159509202,4,1,1,100,1,0
97378,-100,4,1,1,90,0,0
97746,-100,4,1,1,80,0,0
98114,-100,4,1,1,70,0,0
98482,-100,4,1,1,60,0,0
98850,-100,4,1,1,50,0,0
100322,-100,4,1,1,80,0,0
101427,-100,4,1,1,80,0,0
101686,545.454545454545,4,1,1,80,1,0
101958,-100,4,1,1,70,0,0
102504,-100,4,1,1,60,0,0

[Colours]
Combo1 : 242,180,111
Combo2 : 122,250,173
Combo3 : 104,190,253
Combo4 : 245,254,141
Combo5 : 239,67,67

[HitObjects]
96,96,233,2,0,B|128:192,1,85,0|2
320,240,733,2,0,B|288:144,1,85,2|0
416,80,1233,1,2
384,336,1566,2,0,B|432:256,1,85,0|2
192,208,2066,2,0,B|128:304,1,85,2|0
48,128,2566,1,2
208,64,2899,6,0,B|304:48,1,85,0|2
272,144,3233,2,0,B|176:160,1,85,0|2
96,192,3566,1,2
48,272,3733,1,2
96,352,3899,1,0
192,368,4066,1,2
272,304,4233,2,0,B|352:288|416:320,1,127.5,0|2
426,324,4566,1,0
496,240,4733,1,2
448,144,4899,2,0,B|400:192|304:208,1,127.5,0|2
304,208,5233,1,0
192,176,5399,1,2
16,96,5566,2,0,B|80:64|160:80,1,127.5,0|2
172,84,5899,1,0
272,128,6066,5,2
384,96,6233,1,0
464,176,6400,1,2
352,208,6566,1,0
224,240,6733,1,2
96,256,6899,2,0,B|64:224,2,42.5,2|0|0
352,176,7233,2,0,B|384:144,2,42.5,2|0|0
96,128,7566,2,0,B|64:96,2,42.5,0|0|2
367,55,7899,2,0,B|399:23,2,42.5,0|0|2
160,256,8233,6,0,B|224:224|304:240,1,127.5,0|2
320,248,8566,1,0
304,144,8733,1,2
208,112,8899,2,0,B|96:96,1,85,0|2
400,176,9233,2,0,B|496:160,1,85,0|2
176,224,9566,2,0,B|96:208|32:256,1,127.5,0|2
21,257,9899,2,0,B|-1:145,1,85,0|2
64,80,10233,2,0,B|112:128|208:112,1,127.5,0|2
216,112,10566,2,0,B|242:24,1,85,0|2
288,192,10899,2,0,B|336:160|416:176,1,127.5,0|2
448,192,11233,1,0
496,288,11399,5,2
368,320,11566,1,0
256,288,11733,1,2
128,304,11899,2,0,B|96:256|48:240,1,85,2|2
32,144,12233,1,2
64,128,12316,1,0
96,112,12399,1,0
160,192,12566,1,2
192,176,12649,1,0
224,160,12733,1,0
288,240,12899,1,0
320,224,12983,1,0
352,208,13066,1,2
416,288,13233,1,0
448,272,13316,1,0
480,256,13399,1,2
304,336,13566,6,0,B|320:240,1,85,2|0
208,144,13899,2,0,B|192:240,1,85,2|2
400,160,14233,2,0,B|368:64,1,85,0|2
464,32,14566,1,0
496,128,14733,1,2
368,64,14899,2,0,B|304:32|224:64,1,127.5,0|2
212,69,15233,1,0
112,112,15399,2,0,B|32:80,1,85,2|2
64,336,15899,1,0
112,240,16066,1,2
176,320,16233,2,0,B|240:352|336:320,1,127.5,0|2
336,320,16566,1,0
416,240,16733,2,0,B|512:288,1,85,2|2
384,64,17233,1,0
304,144,17399,1,2
272,48,17566,6,0,B|112:0|32:112,1,255,0|2
16,208,18233,1,0
112,176,18399,1,2
96,288,18566,1,0
192,224,18733,1,2
208,336,18899,2,0,B|256:344|320:320,1,85,2|2
400,224,19233,2,0,B|352:216|288:240,1,85,0|2
256,368,19566,2,0,B|352:384|432:320,1,170,2|2
485,246,20066,1,0
416,128,20233,6,0,B|336:160|320:240,1,127.5,0|2
315,248,20566,1,0
224,304,20733,1,2
160,224,20899,1,2
32,64,21233,1,0
96,128,21399,1,2
176,64,21566,2,0,B|240:64|304:32,1,127.5,0|2
332,17,21899,1,0
432,32,22066,1,2
368,112,22233,1,2
416,288,22566,1,0
416,288,22733,1,2
416,288,22899,6,0,B|368:320,6,42.5,0|0|2|0|0|0|2
288,288,23566,2,0,B|240:256,6,42.5,2|0|0|0|2|0|2
160,288,24233,2,0,B|112:320,6,42.5,2|0|0|0|2|0|2
32,288,24899,1,2
20,272,24983,1,0
12,256,25066,1,2
8,240,25149,1,0
12,224,25233,1,0
20,208,25316,1,0
32,192,25399,1,2
48,176,25483,1,0
72,164,25566,2,0,B|104:148,12,21.25,2|0|0|0|0|0|0|0|2|0|0|0|2
140,234,26233,2,0,B|172:250,16,21.25,2|0|0|0|0|0|0|0|0|0|0|0|0|0|0|0|0
416,80,28233,6,0,B|464:144|432:224,1,127.5,4|0
421,233,28505,2,0,B|384:208|325:185,1,85
192,288,28778,2,0,B|240:256|304:272,1,85
112,224,29051,2,0,B|96:272|64:304,1,85
32,128,29323,2,0,B|96:144|176:112,1,127.5
304,48,29596,2,0,B|272:80|208:96,1,85
144,224,29869,2,0,B|224:208|288:256,1,127.5
400,352,30142,2,0,B|368:304|320:272,1,85
208,320,30414,2,0,B|256:256|256:192,1,127.5
225,41,30687,2,0,B|257:89|257:137,1,85
352,144,30960,5,0
416,48,31096,1,0
496,144,31233,1,0
432,240,31369,1,0
336,288,31505,1,0
304,304,31573,1,0
272,320,31642,1,0
112,224,31778,2,0,B|160:240|208:288,1,85
352,192,32051,2,0,B|304:192|240:224,1,85
112,128,32323,2,0,B|176:128|224:160,1,85
384,80,32596,6,0,B|320:112|256:96,1,127.5
112,32,32869,2,0,B|160:32|208:80,1,85
192,160,33142,1,0
272,224,33278,1,0
288,256,33346,1,0
304,288,33414,1,0
416,272,33551,1,0
496,160,33687,2,0,B|432:192|368:176,1,127.5
336,160,33960,1,0
256,80,34096,2,0,B|304:80|352:48,1,85
128,48,34369,1,0
144,80,34437,2,0,B|160:144|96:224,1,127.5
32,320,34778,2,0,B|93:288|160:304,1,127.5
188,314,35051,1,0
288,256,35187,6,0,B|288:304|320:352,1,85
432,208,35460,2,0,B|432:256|400:304,1,85
320,80,35733,2,0,B|288:128|288:176,1,85
170,253,36005,1,0
192,224,36073,1,0
208,192,36142,2,0,B|227:142|208:80,1,85
192,80,36346,1,0
160,96,36414,2,0,B|128:144|64:144,1,85
64,48,36687,1,0
32,240,36823,1,0
112,320,36960,6,0,B|192:320|256:256,1,127.5
304,128,37233,2,0,B|304:176|272:224,1,85
384,240,37505,2,0,B|320:272|240:240,1,127.5
128,144,37778,2,0,B|160:192|192:208,1,85
80,224,38051,1,0
0,160,38187,1,0
16,128,38255,1,0
32,96,38323,1,0
128,48,38460,2,0,B|176:64|240:48,1,85
352,144,38733,2,0,B|304:128|240:144,1,85
176,192,39005,1,0
96,272,39142,6,0,B|192:256|256:304,1,127.5
368,368,39414,2,0,B|352:336|291:311,1,85
352,160,39687,2,0,B|336:208|288:240,1,85
208,192,39960,1,0
128,240,40096,1,0
48,304,40233,2,0,B|0:256|-16:176|28:121|80:80,1,255
160,32,40778,1,0
176,128,40914,1,0
216,120,40983,1,0
256,112,41051,1,0
272,208,41187,1,0
368,144,41323,6,0,B|400:112|480:128,1,85,4|0
432,256,41596,2,0,B|400:288|320:272,1,85
96,272,41869,2,0,B|160:240|240:272,1,127.5
252,282,42142,1,0
336,336,42278,1,0
448,304,42414,2,0,B|384:272|352:176,1,127.5
336,48,42687,2,0,B|322:97|348:151,1,85
192,224,42960,2,0,B|240:192|304:192,1,85
320,288,43233,1,0
224,336,43369,1,0
112,336,43505,2,0,B|160:288|160:208,1,127.5
112,64,43778,2,0,B|144:96|160:176,1,85
256,144,44051,1,0
288,136,44119,1,0
320,128,44187,1,0
352,224,44323,1,0
384,232,44392,1,0
416,240,44460,1,0
228,262,44596,6,0,B|336:288|356:374,1,170
224,368,45005,1,0
128,320,45142,2,0,B|80:224|160:128,1,170
240,160,45551,1,0
336,208,45687,2,0,B|432:192|464:80,1,170
336,80,46096,1,0
64,64,46233,2,0,B|160:16|240:48,1,170
288,128,46642,1,0
384,160,46778,6,0,B|432:176|464:224,1,85,4|0
312,232,47051,2,0,B|312:280|280:328,1,85
200,248,47323,1,0
96,232,47460,1,0
72,256,47528,1,0
48,280,47596,1,0
0,176,47733,1,0
96,112,47869,2,0,B|176:112|240:64,1,127.5
256,64,48142,1,0
352,96,48278,1,0
240,176,48414,2,0,B|304:160|384:192,1,127.5
401,201,48687,1,0
464,304,48823,1,0
432,320,48892,1,0
400,336,48960,2,0,B|352:352|288:336,1,85
224,304,49233,1,0
144,240,49369,6,0,B|96:224|32:240,1,85
16,144,49642,1,0
48,128,49710,1,0
80,112,49778,1,0
192,112,49914,1,0
224,208,50051,2,0,B|272:272|368:256,1,127.5
496,231,50323,2,0,B|464:256|400:263,1,85
384,96,50596,2,0,B|352:144|384:208,1,85
272,144,50869,2,0,B|224:96|144:96,1,127.5
0,128,51142,2,0,B|32:96|80:96,1,85
192,208,51414,6,0,B|144:224|80:192,1,85
160,304,51687,1,0
192,320,51755,1,0
224,336,51823,2,0,B|272:304|288:256,1,85
288,176,52096,1,0
400,144,52233,2,0,B|368:192|368:224,1,85
368,320,52505,1,0
272,368,52642,1,0
240,368,52710,1,0
208,368,52778,2,0,B|96:368,1,85
48,272,53051,2,0,B|144:272,1,85
288,192,53323,2,0,B|192:192,1,85
32,112,53596,2,0,B|144:112,1,85
368,64,53869,1,0
432,144,54005,1,0
416,176,54073,1,0
400,208,54142,1,0
432,304,54278,1,0
336,352,54414,5,0
320,352,54483,1,0
304,352,54551,1,0
288,352,54619,1,0
272,352,54687,1,0
256,352,54755,1,0
240,352,54823,1,0
224,352,54892,1,0
208,352,54960,1,0
192,352,55028,1,0
176,352,55096,1,0
160,352,55164,1,0
144,352,55233,1,0
128,352,55301,1,0
112,352,55369,1,0
96,352,55437,1,0
80,352,55505,6,0,B|0:288|48:176,1,170,4|2
192,240,56051,2,0,B|384:224,1,170,6|2
432,176,56460,1,6
480,96,56596,2,0,B|304:112,2,170,4|4|2
48,48,57414,1,2
80,128,57551,1,6
144,192,57687,2,0,B|224:256|336:240,1,170,4|0
391,232,58096,1,2
368,320,58233,2,0,B|288:384|192:368,1,170,4|0
128,352,58642,1,2
48,304,58778,2,0,B|16:128,2,170,4|6|4
128,256,59460,1,2
192,192,59596,1,4
224,112,59733,1,2
224,16,59869,6,0,B|272:32,3,42.5
304,32,60142,2,0,B|352:96,3,42.5
333,108,60414,2,0,B|401:134,3,42.5
416,144,60687,2,0,B|480:128,3,42.5
480,176,60960,6,0,B|480:224,7,42.5
448,240,61505,2,0,B|384:240,7,42.5
368,272,62051,6,0,B|320:240,3,42.5
288,272,62323,2,0,B|224:288,3,42.5
208,272,62596,2,0,B|144:256,3,42.5
128,288,62869,2,0,B|64:304,3,42.5
48,272,63142,6,0,B|16:160,1,85,4|0
96,80,63414,2,0,B|128:192,1,85
208,80,63687,1,0
352,288,63960,1,0
352,288,64096,1,0
352,288,64233,2,0,B|304:288|240:320,1,85
128,224,64505,2,0,B|176:224|240:192,1,85
320,160,64778,1,0
80,80,65051,5,0
80,80,65187,1,0
80,80,65323,2,0,B|128:160,1,85
224,112,65596,2,0,B|272:192,1,85
224,288,65869,1,0
352,64,66142,1,0
352,64,66278,1,0
352,64,66414,2,0,B|224:64,1,85
320,160,66687,2,0,B|448:160,1,85
256,240,66960,2,0,B|160:240,1,85
336,320,67233,2,0,B|448:320,1,85
224,352,67505,5,0
80,320,67710,1,0
192,208,67914,1,0
192,208,68051,5,0
32,192,68255,1,0
144,80,68460,1,0
144,80,68596,6,0,B|160:176,1,85
240,16,68869,2,0,B|256:112,1,85
352,48,69142,2,0,B|368:144,1,85,4|0
400,352,69687,5,0
336,256,69892,1,0
240,320,70096,1,0
240,320,70233,5,0
176,192,70437,1,0
32,240,70642,1,0
64,144,70778,6,0,B|144:80,1,85
272,112,71051,2,0,B|192:176,1,85
256,272,71323,2,0,B|336:208,1,85,4|0
64,64,71869,5,0
128,160,72073,1,0
224,96,72278,1,0
256,192,72414,5,0
368,80,72619,1,0
400,224,72823,1,0
448,160,72960,6,0,B|496:208,2,42.5,0|0|0
368,256,73233,2,0,B|416:320,2,42.5,0|0|0
256,304,73505,2,0,B|272:352,2,42.5,0|0|0
144,320,73778,2,0,B|128:368,2,42.5,0|0|0
48,272,74051,5,0
0,176,74255,1,0
112,176,74460,1,0
64,80,74596,5,0
208,32,74801,1,0
208,176,75005,1,0
304,128,75142,6,0,B|352:96,2,42.5,0|0|0
464,176,75414,2,0,B|416:208,2,42.5
288,256,75687,2,0,B|352:208,2,42.5
400,336,75960,2,0,B|352:384,2,42.5
240,352,76233,6,0,B|176:288|64:320,1,170,4|0
16,240,76642,1,0
112,208,76778,2,0,B|192:272|304:208,1,170,4|0
368,176,77187,1,0
448,112,77323,2,0,B|384:48|272:64,1,170,4|0
192,80,77733,1,0
256,160,77869,2,0,B|208:240|96:240,1,170,4|0
16,224,78278,1,0
64,64,78414,6,0,B|160:80,1,85
80,144,78687,2,0,B|176:160,1,85
48,224,78960,2,0,B|144:240,1,85
64,304,79233,2,0,B|160:320,1,85
336,32,79505,6,0,B|240:64,1,85
352,112,79778,2,0,B|272:160,1,85
384,192,80051,2,0,B|320:272,1,85
448,256,80323,2,0,B|416:352,1,85
112,112,80596,6,0,B|208:128,1,85
368,192,80869,2,0,B|256:176,1,85
64,208,81142,2,0,B|160:224,1,85
320,288,81414,2,0,B|224:272,1,85
176,144,81687,6,0,B|128:64,1,85
288,176,81960,2,0,B|336:256,1,85
368,112,82233,2,0,B|320:32,1,85
96,208,82505,2,0,B|144:288,1,85
112,48,83585,6,0,B|48:128|112:208,1,170,4|0
352,240,83985,2,0,B|400:144|352:80,1,170
224,32,84385,1,0
272,112,84585,1,0
192,160,84785,1,0
240,240,84985,1,0
176,320,85185,2,0,B|96:272|0:320,1,170
16,208,85585,1,4
96,128,85785,2,0,B|272:112,1,170
368,96,86185,1,0
464,144,86385,1,4
384,224,86585,6,0,B|192:256,1,170
80,112,86985,2,0,B|272:80,1,170
432,160,87385,2,0,B|256:192,1,170
16,160,87785,2,0,B|192:128,1,170
160,256,88185,1,0
96,80,88385,6,0,B|64:176|80:272,1,170
208,16,88785,2,0,B|224:96|192:224,1,170
320,144,89185,2,0,B|288:240|304:352,1,170
432,48,89585,2,0,B|448:128|432:240,1,170
320,96,89985,6,0,B|256:80|224:80,1,85
96,176,90785,1,0
144,256,90985,1,0
240,240,91185,1,0
256,144,91385,1,0
170,114,91585,2,0,B|186:66,1,42.5
352,112,92185,2,0,B|384:176,1,42.5
416,224,92785,6,0,B|464:256,8,42.5,0|0|0|0|0|0|0|0|0
320,288,93433,6,0,B|336:352,4,42.5
208,304,93913,2,0,B|208:368,4,42.5
96,288,94393,2,0,B|80:336,4,42.5
32,208,94753,1,0
48,96,94873,1,0
144,32,94993,1,0
256,16,95113,1,0
240,128,95353,6,0,B|176:128,4,42.5
368,192,95833,2,0,B|416:192,4,42.5
208,256,96313,2,0,B|160:256,4,42.5
464,304,97010,5,0
432,272,97132,1,0
384,288,97255,1,0
352,256,97378,1,0
304,272,97500,1,0
256,288,97623,1,0
208,304,97746,1,0
164,320,97868,1,0
112,336,97991,1,0
80,304,98114,1,0
96,256,98236,1,0
64,224,98359,1,0
32,192,98482,1,0
64,160,98605,1,0
96,128,98727,1,0
128,96,98850,1,0
400,80,100629,5,4
192,96,101686,5,4
256,160,102231,1,4
173,181,102776,1,4
