osu file format v14

[General]
AudioFilename: BoyNextDoor.mp3
AudioLeadIn: 0
PreviewTime: 22742
Countdown: 1
SampleSet: None
StackLeniency: 0.7
Mode: 0
LetterboxInBreaks: 1
WidescreenStoryboard: 0

[Editor]
Bookmarks: 16396,31165
DistanceSpacing: 1
BeatDivisor: 4
GridSize: 16
TimelineZoom: 1

[Metadata]
Title:Boy_Next_Door_
TitleUnicode:Boy♂Next♂Door♂
Artist:Swamp Dweller
ArtistUnicode:Swamp Dweller
Creator:[_ NORTOR _]
Version:Dark
Source:youtube
Tags:♂ 兄贵 CaracalCaptain Van
BeatmapID:739998
BeatmapSetID:334446

[Difficulty]
HPDrainRate:6.6
CircleSize:4
OverallDifficulty:8
ApproachRate:7
SliderMultiplier:2.2
SliderTickRate:1

[Events]
//Background and Video events
Video,0,"BoyNextDoor.flv"
0,0,"24319967.jpg",0,0
//Break Periods
//Storyboard Layer 0 (Background)
//Storyboard Layer 1 (Fail)
//Storyboard Layer 2 (Pass)
//Storyboard Layer 3 (Foreground)
//Storyboard Sound Samples

[TimingPoints]
3588,461.538461538462,4,3,0,100,1,0
9012,461.538461538462,4,1,0,100,1,0
22858,-66.6666666666667,4,1,0,100,0,0
23781,-80,4,1,0,100,0,1
37627,-80,4,1,0,100,0,0

[Colours]
Combo1 : 255,162,255
Combo2 : 128,0,255
Combo3 : 64,0,128
Combo4 : 255,176,218

[HitObjects]
256,192,3588,5,0,0:0:0:0:
256,192,3704,12,0,4511,0:0:0:0:
256,192,4627,12,0,5435,0:0:0:0:
256,192,5550,12,0,7281,0:0:0:0:
256,192,7396,12,0,8204,0:0:0:0:
256,192,9012,5,0,0:0:0:0:
256,192,9242,1,0,0:0:0:0:
160,320,9473,2,0,P|64:288|64:256,2,110,8|0|8,0:0|0:0|0:0,0:0:0:0:
256,192,10396,37,0,1:0:0:0:
256,192,10627,1,0,1:0:0:0:
352,320,10858,1,8,1:0:0:0:
352,320,11088,1,0,1:0:0:0:
462,320,11319,2,0,L|352:320,1,110,8|0,0:0|0:0,0:0:0:0:
352,136,11781,2,0,P|256:88|152:152,1,220,8|8,0:0|0:0,0:0:0:0:
256,192,12704,5,0,0:0:0:0:
160,192,12935,1,0,0:0:0:0:
128,72,13165,2,0,P|220:80|256:104,2,110,8|0|8,0:0|0:0|0:0,0:0:0:0:
352,96,14088,37,0,0:0:0:0:
416,240,14319,1,0,0:0:0:0:
448,112,14550,1,8,0:0:0:0:
512,256,14781,1,0,0:0:0:0:
416,368,15012,2,0,P|336:336|304:304,1,110,8|8,0:0|0:0,0:0:0:0:
208,336,15473,2,0,P|240:240|384:256,1,220,8|8,0:0|0:0,0:0:0:0:
208,336,16396,5,0,0:0:0:0:
240,240,16627,1,0,0:0:0:0:
128,112,16858,1,8,0:0:0:0:
64,272,17088,1,0,0:0:0:0:
128,112,17319,1,8,0:0:0:0:
352,208,17781,38,0,P|304:144|272:128,1,110
384,32,18242,1,8,0:0:0:0:
496,160,18473,1,0,0:0:0:0:
448,304,18704,2,0,P|416:336|320:352,1,110,8|0,0:0|0:0,0:0:0:0:
352,208,19165,2,0,P|256:224|208:336,1,220,8|8,0:0|0:0,0:0:0:0:
144,224,20088,5,0,0:0:0:0:
240,112,20319,1,0,0:0:0:0:
352,208,20550,2,0,P|384:144|368:80,2,110,8|0|8,0:0|0:0|0:0,0:0:0:0:
256,320,21473,37,0,0:0:0:0:
144,224,21704,1,0,0:0:0:0:
240,112,21935,1,8,0:0:0:0:
352,208,22165,1,0,0:0:0:0:
480,320,22396,2,0,L|368:320,1,110,8|8,0:0|0:0,0:0:0:0:
256,368,22858,38,0,L|208:208,1,165.000006294251,2|0,0:0|2:0,0:0:0:0:
256,16,23319,2,0,L|304:176,1,165.000006294251,2|0,0:0|2:0,0:0:0:0:
32,192,23781,37,4,0:0:0:0:
192,192,24012,1,0,0:0:0:0:
112,256,24242,2,0,L|112:112,1,137.5,8|8,0:0|0:0,0:0:0:0:
32,16,24704,1,0,0:0:0:0:
192,96,24935,1,0,0:0:0:0:
48,96,25165,2,0,L|192:0,1,137.5,8|8,0:0|0:0,0:0:0:0:
352,16,25627,5,4,0:0:0:0:
496,80,25858,1,0,0:0:0:0:
352,112,26088,1,0,0:0:0:0:
496,176,26319,1,0,0:0:0:0:
512,336,26550,2,0,L|368:368,1,137.5,12|8,0:0|0:0,0:0:0:0:
448,240,27012,2,8,L|304:272,1,137.5
128,192,27473,37,4,0:0:0:0:
256,144,27704,1,0,0:0:0:0:
256,288,27935,2,8,L|112:288,1,137.5
256,144,28396,1,0,0:0:0:0:
384,192,28627,1,0,0:0:0:0:
256,288,28858,2,8,P|320:336|416:352,1,137.5
384,192,29319,5,4,0:0:0:0:
496,304,29550,1,0,0:0:0:0:
384,192,29781,1,0,0:0:0:0:
496,80,30012,1,0,0:0:0:0:
336,32,30242,2,8,L|192:32,1,137.5,12|8,0:0|0:0,0:0:0:0:
64,128,30704,2,8,L|224:128,1,137.5
208,352,31165,37,4,0:0:0:0:
32,352,31396,1,0,0:0:0:0:
128,208,31627,2,8,L|288:208,1,137.5
496,352,32088,1,0,0:0:0:0:
304,352,32319,1,0,0:0:0:0:
480,176,32550,2,8,L|320:176,1,137.5
128,208,33012,5,4,0:0:0:0:
256,96,33242,1,0,0:0:0:0:
128,208,33473,1,0,0:0:0:0:
256,288,33704,1,0,0:0:0:0:
256,96,33935,2,8,L|400:96,1,137.5,12|8,0:0|0:0,0:0:0:0:
256,288,34396,2,8,L|416:288,1,137.5
393,96,34858,37,4,0:0:0:0:
256,192,35088,1,0,0:0:0:0:
192,16,35319,2,8,P|128:64|80:128,1,137.5
256,192,35781,1,0,0:0:0:0:
393,288,36011,1,0,0:0:0:0:
192,368,36242,2,8,P|128:320|80:256,1,137.5
256,64,36704,5,4,0:0:0:0:
384,192,36935,1,0,0:0:0:0:
256,320,37165,1,0,0:0:0:0:
128,192,37396,1,0,0:0:0:0:
256,192,37627,37,8,2:0:0:0:
256,192,37858,1,0,0:0:0:0:
256,192,37973,1,0,3:0:0:0:
256,192,38088,2,0,L|384:320,1,137.5,10|0,2:0|2:0,2:0:0:0:
336,32,38550,21,12,0:0:0:0:
176,352,39012,5,0,0:0:0:0:
32,240,39242,1,0,0:0:0:0:
112,64,39473,1,4,0:0:0:0:
400,320,39935,37,0,0:0:0:0:
480,144,40166,1,0,0:0:0:0:
336,32,40396,1,12,0:0:0:0:
176,96,40858,5,0,0:0:0:0:
176,288,41088,1,0,0:0:0:0:
256,64,41319,1,4,0:0:0:0:
256,320,41549,1,0,0:0:0:0:
336,96,41781,1,4,0:0:0:0:
336,288,42011,1,0,0:0:0:0:
480,352,42242,37,12,0:0:0:0:
32,32,42704,5,0,0:0:0:0:
256,192,43165,1,4,0:0:0:0:
256,192,43281,1,0,0:0:0:0:
256,288,43627,1,0,0:0:0:0:
480,32,44088,37,12,0:0:0:0:
32,352,44550,1,0,0:0:0:0:
32,352,44665,1,0,0:0:0:0:
336,368,45012,6,0,L|336:192,1,137.5,2|0,0:0|2:0,0:0:0:0:
176,32,45473,2,0,L|176:224,1,137.5,2|0,0:0|2:0,0:0:0:0:
