osu file format v14

[General]
AudioFilename: Euphoriam.mp3
AudioLeadIn: 900
PreviewTime: 76878
Countdown: 0
SampleSet: Soft
StackLeniency: 0.7
Mode: 0
LetterboxInBreaks: 0
WidescreenStoryboard: 0

[Editor]
Bookmarks: 32201,32362,50991,51717,51878,52040,52201,52362,52523,52685,52846,53169,81233,99136,100427
DistanceSpacing: 0.7
BeatDivisor: 4
GridSize: 4
TimelineZoom: 2.6

[Metadata]
Title:Euphorium
TitleUnicode:ユーフォリアム
Artist:Suzuyu
ArtistUnicode:鈴湯
Creator:Homura-
Version:Elfin Lied
Source:アストラエアの白き永遠 Finale -白き星の夢-
Tags:astralair no shiroki towa hoshi no yume favorite opening eroge Meg image-- ShiraKai kaCha -lolist- Nanashima Asami
BeatmapID:1153267
BeatmapSetID:544197

[Difficulty]
HPDrainRate:6.5
CircleSize:4
OverallDifficulty:8.5
ApproachRate:9.3
SliderMultiplier:1.8
SliderTickRate:1

[Events]
//Background and Video events
0,0,"BG.jpg",0,0
Video,0,"finale.avi"
//Break Periods
//Storyboard Layer 0 (Background)
//Storyboard Layer 1 (Fail)
//Storyboard Layer 2 (Pass)
//Storyboard Layer 3 (Foreground)
//Storyboard Sound Samples

[TimingPoints]
1153,322.58064516129,4,2,4,40,1,0
2443,-100,4,2,4,45,0,0
3733,-100,4,2,4,50,0,0
5023,-100,4,2,4,55,0,0
5991,-100,4,2,4,57,0,0
6072,-100,4,2,4,59,0,0
6152,-100,4,2,4,61,0,0
6233,-100,4,2,4,63,0,0
6314,-100,4,2,4,65,0,0
7443,-100,4,2,9,65,0,0
7604,-100,4,2,4,65,0,0
14540,-83.3333333333333,4,2,4,65,0,0
14862,-100,4,2,4,65,0,0
15830,-100,4,2,8,65,0,0
16475,-100,4,2,4,65,0,0
19217,-100,4,2,4,65,0,0
20346,-133.333333333333,4,2,4,65,0,0
20427,-133.333333333333,4,2,4,60,0,0
21636,-133.333333333333,4,2,4,10,0,0
21959,-100,4,2,20,30,0,0
22120,-100,4,2,21,30,0,0
22282,-100,4,2,22,30,0,0
22443,-100,4,2,20,30,0,0
22604,-100,4,2,21,30,0,0
22765,-100,4,2,22,30,0,0
22927,-100,4,2,20,30,0,0
23088,-100,4,2,21,30,0,0
23249,-100,4,2,22,30,0,0
23411,-100,4,2,20,30,0,0
23572,-100,4,2,23,30,0,0
24378,-125,4,2,5,50,0,0
24701,-125,4,2,4,50,0,0
25669,-125,4,2,8,50,0,0
25830,-125,4,2,4,50,0,0
26959,-125,4,2,5,50,0,0
27120,-125,4,2,4,50,0,0
28249,-125,4,2,8,50,0,0
28411,-125,4,2,4,50,0,0
29540,-125,4,2,5,50,0,0
29862,-125,4,2,4,50,0,0
30830,-125,4,2,8,50,0,0
30991,-125,4,2,4,50,0,0
32040,-125,4,2,4,10,0,0
32120,-125,4,2,5,50,0,0
32282,-125,4,2,4,50,0,0
33411,-125,4,2,8,50,0,0
33733,-125,4,2,4,50,0,0
34701,-125,4,2,5,50,0,0
35023,-125,4,2,4,50,0,0
35991,-125,4,2,8,50,0,0
36152,-125,4,2,4,50,0,0
37282,-125,4,2,5,50,0,0
37604,-125,4,2,4,50,0,0
38572,-125,4,2,8,50,0,0
38894,-125,4,2,4,50,0,0
39862,-111.111111111111,4,2,5,50,0,0
40023,-111.111111111111,4,2,4,50,0,0
41152,-111.111111111111,4,2,8,50,0,0
41314,-111.111111111111,4,2,4,50,0,0
42443,-111.111111111111,4,2,8,55,0,0
42604,-111.111111111111,4,2,4,55,0,0
45023,-100,4,2,4,60,0,0
55346,-100,4,2,5,60,0,0
55507,-100,4,2,8,60,0,0
56636,-100,4,2,4,60,0,0
63733,-100,4,2,5,60,0,0
63894,-100,4,2,4,60,0,0
64056,-100,4,2,5,60,0,0
64217,-100,4,2,4,60,0,0
65669,-117.647058823529,4,2,4,60,0,0
66314,-117.647058823529,4,2,8,60,0,0
66959,-117.647058823529,4,2,5,60,0,0
68249,-117.647058823529,4,2,8,60,0,0
72120,-117.647058823529,4,2,8,45,0,0
73169,-117.647058823529,4,2,8,50,0,0
73249,-117.647058823529,4,2,8,55,0,0
73330,-117.647058823529,4,2,8,60,0,0
73411,-100,4,2,8,65,0,0
74540,-225,4,2,4,65,0,0
75991,-225,4,2,24,55,0,0
76959,-58.4795321637427,4,2,8,45,0,0
77201,-58.4795321637427,4,2,8,10,0,0
77282,-98.0392156862745,4,2,8,45,0,0
77685,-98.0392156862745,4,2,8,10,0,0
77765,-98.0392156862745,4,2,8,45,0,0
78169,-98.0392156862745,4,2,8,10,0,0
78249,-58.4795321637427,4,2,8,45,0,0
78491,-58.4795321637427,4,2,8,10,0,0
78572,-78.125,4,2,8,75,0,1
79056,-90.9090909090909,4,2,8,75,0,1
88894,-90.9090909090909,4,2,8,60,0,0
89217,-90.9090909090909,4,2,8,75,0,1
103249,-90.9090909090909,4,2,4,75,0,1
105669,-90.9090909090909,4,2,4,55,0,0
106959,-100,4,2,5,65,0,0
114056,-100,4,2,5,60,0,0
114701,-83.3333333333333,4,2,5,65,0,0
115185,-100,4,2,5,65,0,0
115830,-100,4,2,8,65,0,0
117282,-100,4,2,5,65,0,0
122927,-100,4,2,9,65,0,0
123411,-100,4,2,5,65,0,0
125991,-100,4,2,4,65,0,0
126152,-100,4,2,5,65,0,0
126233,-100,4,2,5,50,0,0
127604,-100,4,2,5,40,0,0
128894,-100,4,2,5,30,0,0
130185,-100,4,2,5,20,0,0
131475,-100,4,2,5,10,0,0
132765,-100,4,2,5,5,0,0

[Colours]
Combo1 : 0,128,255
Combo2 : 255,206,255
Combo3 : 151,255,255
Combo4 : 255,70,131

[HitObjects]
390,179,1153,5,2,0:1:0:0:
304,156,1314,1,0,0:0:0:0:
224,193,1475,1,0,0:0:0:0:
186,273,1636,1,0,0:0:0:0:
307,322,1798,5,2,0:1:0:0:
336,239,1959,1,2,0:0:0:0:
304,156,2120,1,0,0:0:0:0:
227,113,2281,1,0,0:0:0:0:
67,159,2443,5,2,0:1:0:0:
156,165,2604,1,2,0:0:0:0:
227,113,2765,1,0,0:0:0:0:
249,28,2926,1,0,0:0:0:0:
249,137,3088,5,2,0:1:0:0:
291,214,3249,1,2,0:0:0:0:
373,246,3410,1,0,0:0:0:0:
457,219,3571,1,0,0:0:0:0:
339,363,3733,5,2,0:1:0:0:
272,302,3895,1,2,0:0:0:0:
291,214,4055,1,0,0:0:0:0:
377,187,4217,1,0,0:0:0:0:
426,336,4378,5,2,0:1:0:0:
360,276,4540,1,2,0:0:0:0:
446,249,4701,1,0,0:0:0:0:
426,336,4862,1,0,0:0:0:0:
275,199,5023,5,2,0:0:0:0:
464,240,5185,1,2,0:0:0:0:
251,308,5346,1,2,0:0:0:0:
438,348,5507,1,2,0:0:0:0:
360,276,5991,5,2,0:1:0:0:
367,260,6071,1,0,0:0:0:0:
373,244,6152,1,0,0:0:0:0:
377,228,6232,1,0,0:0:0:0:
379,211,6314,6,0,P|368:122|441:35,1,180,12|0,1:2|0:0,0:0:0:0:
274,89,6798,1,0,1:0:0:0:
274,89,6878,1,2,0:0:0:0:
274,89,6959,1,2,0:0:0:0:
466,145,7120,1,8,0:3:0:0:
250,229,7282,1,2,0:0:0:0:
345,20,7443,6,0,P|370:68|370:120,1,90,14|0,0:0|0:0,0:0:0:0:
213,217,7765,2,0,P|188:169|188:117,1,90,2|8,0:0|0:0,0:0:0:0:
185,133,8088,1,10,0:0:0:0:
102,347,8249,2,0,P|148:337|203:330,1,90,2|0,0:0|3:0,0:0:0:0:
397,283,8572,2,0,P|351:273|296:266,1,90,2|0,0:0|0:0,0:0:0:0:
106,166,8894,6,0,P|187:146|227:56,1,180,12|0,1:2|1:0,0:0:0:0:
121,5,9378,1,0,3:0:0:0:
261,83,9540,1,2,0:0:0:0:
75,171,9701,1,10,0:0:0:0:
273,258,9862,1,2,0:0:0:0:
135,77,10023,6,0,P|72:116|67:217,1,180,14|2,1:2|0:0,0:0:0:0:
91,244,10427,1,2,0:0:0:0:
91,244,10507,1,0,1:0:0:0:
267,170,10669,1,2,0:0:0:0:
369,359,10830,1,10,0:0:0:0:
324,352,10910,1,8,0:0:0:0:
279,346,10991,1,8,0:0:0:0:
235,340,11071,1,8,0:0:0:0:
190,334,11152,1,10,0:0:0:0:
187,329,11475,6,0,P|178:282|173:237,1,90,6|0,1:2|0:0,0:0:0:0:
1,221,11798,2,0,P|10:174|15:129,1,90,8|0,0:2|0:0,0:0:0:0:
169,40,12120,1,0,1:0:0:0:
96,204,12282,1,2,0:0:0:0:
59,27,12443,1,10,0:0:0:0:
192,149,12604,1,2,0:0:0:0:
63,294,12765,6,0,L|-33:278,1,90,2|0,1:2|0:0,0:0:0:0:
106,110,13088,2,0,P|153:105|197:127,1,90,10|0,0:0|0:0,0:0:0:0:
216,150,13330,1,8,0:0:0:0:
216,150,13411,1,2,1:2:0:0:
290,54,13572,1,0,0:0:0:0:
135,201,13733,2,0,P|143:243|164:295,1,90,10|0,0:0|0:0,0:0:0:0:
456,325,14056,6,0,P|393:263|306:267,1,180,2|0,1:2|1:0,0:0:0:0:
375,170,14540,2,0,P|427:176|476:210,1,107.999996704102,10|0,0:0|1:0,0:0:0:0:
356,365,14862,1,8,0:0:0:0:
227,235,15023,1,10,1:2:0:0:
314,29,15185,6,0,P|381:82|375:168,1,180,4|0,1:2|0:0,0:0:0:0:
305,238,15588,1,0,0:0:0:0:
270,246,15669,2,0,L|211:231,1,45,8|0,0:0|0:0,0:0:0:0:
481,194,15830,5,2,1:3:0:0:
486,168,16152,1,10,1:3:0:0:
491,142,16475,1,12,1:2:0:0:
254,26,16636,5,12,0:0:0:0:
389,96,16798,1,2,0:3:0:0:
216,123,16959,1,8,0:0:0:0:
395,184,17120,1,2,1:3:0:0:
180,222,17282,1,8,0:0:0:0:
401,274,17443,1,2,1:3:0:0:
143,320,17604,1,8,0:0:0:0:
407,364,17765,1,2,1:3:0:0:
165,187,17927,5,10,0:0:0:0:
216,373,18088,1,2,1:3:0:0:
353,146,18249,1,8,0:0:0:0:
316,331,18411,1,2,1:3:0:0:
81,211,18572,5,8,0:0:0:0:
112,179,18652,1,0,0:0:0:0:
154,163,18733,1,2,1:3:0:0:
199,165,18813,1,0,0:0:0:0:
239,183,18894,1,10,0:0:0:0:
259,165,18975,1,0,0:0:0:0:
271,141,19056,1,2,1:3:0:0:
276,115,19136,1,0,0:0:0:0:
271,88,19217,6,0,P|246:169|327:238,1,180,12|0,1:2|0:0,0:0:0:0:
450,55,19701,2,0,P|406:46|362:44,1,90,12|0,0:0|1:0,0:0:0:0:
157,94,20023,1,8,0:0:0:0:
153,61,20103,1,8,0:0:0:0:
149,27,20184,1,8,1:2:0:0:
304,233,20346,1,14,0:0:0:0:
256,192,20427,12,0,21636,0:0:0:0:
192,256,21959,5,2,0:0:0:0:
166,169,22120,1,2,0:0:0:0:
255,191,22282,1,2,0:0:0:0:
192,256,22443,5,2,0:0:0:0:
228,105,22604,1,2,0:0:0:0:
342,211,22765,1,2,0:0:0:0:
255,191,22927,5,2,0:0:0:0:
316,125,23088,1,2,0:0:0:0:
280,276,23249,1,2,0:0:0:0:
166,169,23411,5,2,0:0:0:0:
342,211,23572,1,2,0:0:0:0:
24,50,24378,6,0,P|100:38|141:112,1,144,2|2,1:1|0:0,0:0:0:0:
166,169,24862,2,0,B|217:181|217:181|316:144,1,144,2|0,0:0|0:0,0:0:0:0:
354,79,25346,2,0,P|323:62|267:75,1,72
388,159,25669,5,2,0:1:0:0:
491,25,25830,2,0,L|473:168,1,144,2|2,0:0|0:0,0:0:0:0:
397,230,26314,2,0,L|388:159,1,72
490,265,26636,1,0,0:0:0:0:
432,346,26798,1,0,0:0:0:0:
311,241,26959,6,0,P|277:244|235:271,1,72,2|0,0:1|0:0,0:0:0:0:
181,341,27282,2,0,P|145:341|113:325,1,72,2|0,0:0|0:0,0:0:0:0:
50,196,27604,2,0,P|83:180|138:187,1,72
217,165,27927,2,0,P|234:133|238:98,1,72,2|0,0:0|0:0,0:0:0:0:
139,75,28249,5,2,0:1:0:0:
181,260,28411,2,0,P|254:258|308:209,1,144,2|2,0:0|0:0,0:0:0:0:
265,77,28894,1,0,0:0:0:0:
217,165,29056,1,0,0:0:0:0:
305,213,29217,1,0,0:0:0:0:
353,125,29378,1,0,0:0:0:0:
177,29,29540,6,0,P|141:80|110:176,1,144,2|2,1:1|0:0,0:0:0:0:
8,243,30023,2,0,P|68:243|140:304,1,144,2|0,0:0|0:0,0:0:0:0:
206,360,30507,2,0,P|236:343|272:339,1,72
363,295,30830,5,2,0:1:0:0:
363,295,30991,1,0,0:0:0:0:
305,213,31152,1,0,0:0:0:0:
467,171,31314,2,0,P|463:206|444:236,1,72,2|0,0:0|0:0,0:0:0:0:
305,213,31636,2,0,B|288:181|289:142|328:106|328:106|300:124|269:119,1,180
283,34,32120,6,0,P|316:21|359:28,1,72,2|2,0:1|0:0,0:0:0:0:
442,70,32443,1,2,0:0:0:0:
374,225,32604,2,0,B|302:183|301:242|235:204,1,144
167,131,33088,1,2,0:0:0:0:
60,332,33411,6,0,P|120:295|139:228,2,144,2|0|0,0:1|0:0|0:0,0:0:0:0:
68,155,34217,1,2,0:0:0:0:
209,229,34378,2,0,P|173:235|139:227,1,72,2|0,0:0|0:0,0:0:0:0:
17,67,34701,6,0,P|90:54|157:109,1,144,2|2,1:1|0:0,0:0:0:0:
68,155,35185,2,0,P|37:226|63:293,1,144,2|0,1:2|0:0,0:0:0:0:
208,239,35669,2,0,P|174:231|138:227,1,72,0|0,0:0|1:0,0:0:0:0:
230,337,35991,5,10,0:1:0:0:
272,160,36152,2,0,P|346:188|433:200,1,144,8|4,0:3|3:0,0:0:0:0:
424,59,36636,1,0,0:0:0:0:
325,74,36798,1,4,0:3:0:0:
272,160,36959,2,0,P|272:199|284:232,1,72,0|0,0:0|3:0,0:0:0:0:
401,287,37282,6,0,P|351:235|281:230,1,144,2|2,1:1|0:0,0:0:0:0:
153,280,37765,2,0,P|181:238|170:126,1,144,2|0,1:2|0:0,0:0:0:0:
118,67,38249,1,0,1:0:0:0:
94,48,38572,6,0,P|178:77|220:150,1,144,2|0,0:1|0:0,0:0:0:0:
329,89,39056,2,0,P|345:176|303:249,1,144,0|0,1:0|0:0,0:0:0:0:
178,311,39540,2,0,P|135:296|114:259,1,72,0|0,1:0|0:0,0:0:0:0:
34,121,39862,6,0,L|26:212,1,80.9999975280763,2|2,1:1|0:0,0:0:0:0:
142,86,40185,2,0,L|134:177,1,80.9999975280763,2|0,1:2|0:0,0:0:0:0:
295,326,40507,2,0,L|287:235,1,80.9999975280763,0|2,1:0|0:0,0:0:0:0:
403,361,40830,2,0,L|395:270,1,80.9999975280763,2|0,1:2|0:0,0:0:0:0:
504,168,41152,5,10,1:1:0:0:
318,44,41314,2,0,L|329:142,1,80.9999975280763,10|0,0:0|0:0,0:0:0:0:
194,268,41636,2,0,P|255:217|334:217,1,161.999995056153,10|2,0:0|1:2,0:0:0:0:
205,142,42120,2,0,P|162:131|117:87,1,80.9999975280763,0|0,0:0|1:0,0:0:0:0:
285,23,42443,5,10,0:1:0:0:
326,186,42604,1,0,1:0:0:0:
410,67,42765,1,0,1:0:0:0:
220,116,42927,1,10,0:0:0:0:
400,220,43088,1,0,0:0:0:0:
318,44,43249,1,0,1:0:0:0:
291,276,43411,1,10,0:0:0:0:
486,181,43572,1,2,1:2:0:0:
220,116,43733,5,4,1:2:0:0:
373,13,43894,2,0,P|391:48|394:89,1,80.9999975280763,8|0,0:3|0:0,0:0:0:0:
325,312,44217,1,2,1:2:0:0:
302,278,44298,1,0,3:0:0:0:
292,239,44378,1,2,3:2:0:0:
296,199,44458,1,0,3:0:0:0:
313,163,44540,6,0,L|364:156,1,40.4999987640381,0|0,3:0|3:0,0:0:0:0:
257,259,44701,2,0,L|206:266,1,40.4999987640381,2|0,3:2|3:0,0:0:0:0:
151,126,44862,2,0,L|202:119,1,40.4999987640381,0|0,3:0|3:0,0:0:0:0:
82,322,45023,6,0,P|8:266|23:182,1,180,4|8,1:2|0:0,0:0:0:0:
125,109,45507,1,2,0:0:0:0:
257,259,45669,2,0,P|301:248|360:239,1,90,0|0,0:0|1:0,0:0:0:0:
142,210,45991,1,8,0:0:0:0:
168,361,46152,1,0,0:0:0:0:
242,136,46314,6,0,P|152:120|63:98,1,180,2|8,1:2|0:0,0:0:0:0:
142,210,46798,1,0,1:0:0:0:
302,60,46959,2,0,P|335:113|334:163,1,90,2|0,0:0|1:0,0:0:0:0:
279,285,47282,1,8,0:0:0:0:
469,217,47443,1,0,0:0:0:0:
242,136,47604,6,0,P|224:176|221:221,1,90,2|0,1:2|0:0,0:0:0:0:
344,346,47927,2,0,P|362:306|365:261,1,90,8|2,0:0|0:0,0:0:0:0:
242,136,48249,2,0,P|198:140|157:160,1,90,0|0,3:0|1:0,0:0:0:0:
344,346,48572,2,0,P|387:341|428:321,1,90,8|0,0:0|0:0,0:0:0:0:
419,65,48894,6,0,P|354:149|366:241,1,180,2|8,1:2|0:0,0:0:0:0:
203,151,49378,2,0,P|243:132|272:98,1,90,2|0,1:2|0:0,0:0:0:0:
453,172,49701,1,0,1:0:0:0:
330,316,49862,2,0,P|324:272|314:228,1,90,8|0,0:0|0:0,0:0:0:0:
407,34,50185,6,0,P|336:87|248:83,1,180,2|8,1:2|0:0,0:0:0:0:
124,147,50669,2,0,P|107:103|104:58,1,90,2|0,0:0|0:0,0:0:0:0:
241,222,50991,1,0,1:0:0:0:
0,161,51152,2,0,P|59:132|124:146,1,135,8|0,0:0|0:0,0:0:0:0:
159,216,51475,6,0,L|166:316,1,90,2|0,1:2|0:0,0:0:0:0:
308,352,51798,1,8,0:0:0:0:
395,145,51959,2,0,P|356:119|296:116,1,90,0|2,1:2|3:2,0:0:0:0:
427,265,52282,2,0,P|469:244|501:193,2,90,0|8|0,1:2|0:0|0:0,0:0:0:0:
198,182,52765,6,0,P|263:182|307:232,1,135,2|0,1:2|0:0,0:0:0:0:
316,266,53088,1,8,0:0:0:0:
126,121,53249,2,0,P|170:92|226:90,1,90,0|0,0:0|1:0,0:0:0:0:
212,300,53572,1,2,1:2:0:0:
37,219,53733,2,0,P|30:175|26:130,1,90,8|0,0:0|0:0,0:0:0:0:
214,195,54056,5,2,1:2:0:0:
102,64,54217,1,8,0:0:0:0:
138,260,54378,1,8,0:3:0:0:
196,97,54540,1,0,1:0:0:0:
25,129,54701,5,4,0:3:0:0:
43,227,54862,1,4,0:3:0:0:
138,260,55023,1,0,1:0:0:0:
214,195,55185,2,0,P|237:193|259:196,1,45,8|8,0:0|0:0,0:0:0:0:
388,328,55346,6,0,L|488:306,1,90,2|0,1:3|0:0,0:1:0:0:
241,311,55669,2,0,L|141:333,1,90,10|0,0:3|0:0,0:1:0:0:
365,217,55991,2,0,L|465:195,1,90,2|0,0:3|1:0,0:1:0:0:
214,195,56314,1,10,0:3:0:0:
342,106,56475,1,0,1:0:0:0:
140,41,56636,6,0,P|135:87|154:132,1,90,2|0,1:2|0:0,0:1:0:0:
330,224,56959,2,0,P|292:196|244:190,1,90,8|0,0:2|1:0,0:1:0:0:
75,297,57282,2,0,P|117:278|146:239,1,90,2|0,0:2|1:0,0:1:0:0:
32,124,57604,1,8,0:0:0:0:
75,297,57765,1,0,1:0:0:0:
250,189,57927,6,0,B|309:138|377:166,1,135,2|0,1:2|0:0,0:0:0:0:
407,182,58249,1,8,0:0:0:0:
484,339,58411,2,0,P|398:347|353:274,1,180,0|0,1:0|1:0,0:0:0:0:
486,117,58894,2,0,P|500:159|504:219,1,90,8|2,0:0|0:0,0:0:0:0:
313,63,59217,6,0,P|223:64|153:118,1,180,2|8,1:2|0:0,0:0:0:0:
299,321,59701,2,0,P|309:275|315:232,2,90,0|2|0,1:0|0:0|1:0,0:0:0:0:
256,159,60185,2,0,P|300:150|348:138,1,90,10|0,0:0|1:0,0:0:0:0:
182,297,60507,5,10,0:0:0:0:
3,243,60669,1,2,1:2:0:0:
167,139,60830,1,2,1:2:0:0:
98,364,60991,2,0,L|88:180,1,180,8|2,0:0|1:2,0:0:0:0:
182,297,61475,2,0,P|226:295|263:270,1,90,10|0,0:0|1:0,0:0:0:0:
268,70,61798,5,10,0:0:0:0:
73,117,61959,1,0,1:0:0:0:
198,205,62120,1,0,1:0:0:0:
40,32,62282,2,0,P|-9:97|33:203,1,180,10|2,0:0|1:2,0:0:0:0:
157,245,62765,2,0,L|248:234,1,90,8|0,0:0|0:0,0:0:0:0:
462,142,63088,6,0,P|396:154|339:122,1,135,0|0,1:0|0:0,0:0:0:0:
318,91,63411,1,10,0:0:0:0:
421,258,63572,2,0,P|401:297|363:320,1,90,0|0,1:0|3:0,0:0:0:0:
246,233,63894,1,0,1:0:0:0:
95,377,64056,2,0,L|82:274,1,90,8|0,3:2|1:0,0:0:0:0:
164,75,64378,6,0,L|151:178,1,90,10|0,0:2|1:0,0:0:0:0:
152,164,64620,1,8,0:3:0:0:
152,164,64701,1,4,0:3:0:0:
19,121,64862,1,0,3:0:0:0:
83,287,65023,5,2,0:0:0:0:
196,254,65185,1,0,3:0:0:0:
310,286,65346,1,8,0:3:0:0:
391,374,65507,1,4,0:3:0:0:
391,374,65588,1,0,0:0:0:0:
391,374,65669,6,0,L|470:361,1,76.5000014591217,6|0,1:2|0:0,0:0:0:0:
507,249,65991,2,0,L|428:262,1,76.5000014591217,0|0,1:0|0:0,0:0:0:0:
341,177,66314,2,0,P|325:140|332:95,1,76.5000014591217,2|0,1:3|0:0,0:0:0:0:
436,47,66636,2,0,P|452:84|445:129,1,76.5000014591217,2|0,1:3|0:0,0:0:0:0:
358,203,66959,6,0,L|281:196,1,76.5000014591217,2|2,1:1|0:1,0:0:0:0:
163,162,67282,2,0,L|86:168,1,76.5000014591217,2|0,1:0|0:0,0:0:0:0:
122,279,67604,2,0,P|160:287|197:281,1,76.5000014591217,2|2,1:2|0:0,0:0:0:0:
280,196,67927,2,0,P|286:158|277:121,1,76.5000014591217,2|0,1:2|0:0,0:0:0:0:
186,39,68249,6,0,P|142:38|96:57,1,76.5000014591217,2|0,1:3|0:0,0:0:0:0:
15,124,68572,2,0,P|56:138|93:171,1,76.5000014591217,2|0,1:3|0:0,0:0:0:0:
188,218,68894,2,0,P|154:245|130:288,1,76.5000014591217,2|0,1:2|0:0,0:0:0:0:
38,365,69217,2,0,P|28:328|7:295,1,76.5000014591217,2|0,1:3|0:0,0:0:0:0:
192,363,69540,5,8,1:2:0:0:
256,144,69701,1,8,0:0:0:0:
112,181,69862,1,0,1:0:0:0:
357,119,70023,1,10,0:0:0:0:
357,119,70104,1,8,0:0:0:0:
357,119,70185,1,2,1:2:0:0:
312,272,70346,1,8,0:0:0:0:
172,77,70507,1,10,0:0:0:0:
199,70,70587,1,8,0:0:0:0:
227,63,70668,1,8,0:0:0:0:
255,56,70748,1,8,0:0:0:0:
283,49,70829,5,6,1:2:0:0:
229,335,72120,1,2,0:1:0:0:
256,192,73169,2,0,L|316:204,2,38.2500007295609
131,155,73411,5,12,1:2:0:0:
358,103,73572,1,0,1:0:0:0:
289,325,73733,1,0,3:0:0:0:
229,63,73894,1,12,0:0:0:0:
387,233,74056,1,0,1:0:0:0:
160,285,74217,1,2,3:2:0:0:
358,103,74378,1,8,0:0:0:0:
288,363,74540,6,0,B|255:359|238:327|247:278|289:270|318:239|349:168|306:115|248:118|220:133|203:164|212:209|258:191,1,360,10|4,1:0|0:0,0:0:0:0:
285,130,76959,6,0,B|274:67|228:34|228:34|196:81|207:144,1,230.175007199993
267,259,77282,6,0,B|314:302|372:302|372:302|370:245|323:200,1,230.175007199993
207,144,77765,6,0,B|144:136|97:170|97:170|133:215|196:224,1,230.175007199993
324,201,78249,6,0,B|381:170|398:117|398:117|343:100|286:129,1,230.850007221108
195,223,78572,6,0,B|167:280|184:334|184:334|239:315|267:259,1,230.4,4|8,1:2|0:0,0:0:0:0:
285,129,79056,1,2,0:0:0:0:
102,202,79217,2,0,P|52:189|4:180,1,99.0000030212403,0|2,1:0|3:2,0:0:0:0:
193,64,79540,1,8,0:0:0:0:
221,258,79701,1,0,0:0:0:0:
384,149,79862,6,0,P|432:158|480:169,1,99.0000030212403,2|0,1:2|0:0,0:0:0:0:
317,57,80185,2,0,P|272:114|278:187,1,148.50000453186,8|8,0:0|0:0,0:0:0:0:
224,127,80507,2,0,P|178:108|129:98,1,99.0000030212403,0|0,1:0|3:0,0:0:0:0:
221,258,80830,1,8,0:0:0:0:
317,57,80991,1,0,0:0:0:0:
102,201,81152,6,0,P|75:293|139:363,1,198.000006042481,2|8,1:2|0:0,0:0:0:0:
314,294,81636,1,2,0:0:0:0:
224,127,81798,2,0,L|103:117,1,99.0000030212403,0|2,1:0|0:0,0:0:0:0:
206,236,82120,1,8,0:0:0:0:
14,297,82282,1,0,0:0:0:0:
125,118,82443,5,4,1:2:0:0:
252,347,82604,1,8,0:0:0:0:
252,347,82685,1,8,0:0:0:0:
252,347,82765,1,8,0:0:0:0:
379,182,82927,1,0,1:0:0:0:
187,243,83088,1,2,0:0:0:0:
477,360,83249,2,0,L|457:209,1,148.50000453186,8|0,1:2|0:0,0:0:0:0:
379,182,83572,2,0,P|372:212|377:242,1,49.5000015106202,0|8,1:0|0:0,0:0:0:0:
252,347,83733,6,0,L|132:331,1,99.0000030212403,4|2,1:2|0:0,0:0:0:0:
17,194,84056,2,0,P|60:171|118:174,1,99.0000030212403,8|0,0:0|0:0,0:0:0:0:
271,216,84378,1,2,1:2:0:0:
153,333,84540,1,2,0:0:0:0:
211,127,84701,2,0,P|256:107|306:113,1,99.0000030212403,8|0,0:0|0:0,0:0:0:0:
489,162,85023,6,0,P|501:110|505:55,1,99.0000030212403,2|0,1:2|0:2,0:0:0:0:
271,216,85346,2,0,P|275:265|286:313,1,99.0000030212403,10|0,0:2|0:2,0:0:0:0:
344,127,85669,1,2,1:2:0:0:
199,92,85830,1,0,0:0:0:0:
399,216,85991,1,10,0:0:0:0:
434,71,86152,1,0,0:0:0:0:
305,290,86314,6,0,P|362:332|442:327,1,148.50000453186,10|0,0:0|0:0,0:0:0:0:
469,306,86636,1,8,0:0:0:0:
315,114,86798,2,0,P|265:106|218:119,1,99.0000030212403,2|8,3:2|0:0,0:0:0:0:
57,265,87120,1,10,0:0:0:0:
40,224,87200,1,8,0:0:0:0:
47,181,87281,1,10,0:0:0:0:
213,345,87443,6,0,P|285:355|349:320,1,148.50000453186,10|0,1:3|0:0,0:0:0:0:
398,230,87765,2,0,L|389:174,1,49.5000015106202,10|0,0:3|0:0,0:0:0:0:
243,94,87927,2,0,L|121:113,1,99.0000030212403,0|14,1:0|0:0,0:0:0:0:
269,251,88249,2,0,L|391:232,1,99.0000030212403,0|8,1:0|0:0,0:0:0:0:
398,230,88491,1,8,0:0:0:0:
398,230,88572,1,0,1:0:0:0:
172,192,88733,2,0,L|181:248,1,49.5000015106202,8|8,0:0|0:0,0:0:0:0:
317,53,88894,5,0,0:0:0:0:
292,27,89217,2,0,P|265:110|332:207,1,198.000006042481,12|2,1:2|1:2,0:0:0:0:
388,100,89701,1,2,0:0:0:0:
164,165,89862,2,0,L|65:144,1,99.0000030212403,8|2,0:0|0:0,0:0:0:0:
267,1,90185,6,0,P|286:43|282:101,1,99.0000030212403,2|0,1:2|1:2,0:0:0:0:
175,264,90507,2,0,P|219:243|271:243,1,99.0000030212403,8|2,0:0|1:2,0:0:0:0:
388,362,90830,1,0,0:0:0:0:
435,163,90991,1,0,1:0:0:0:
508,294,91152,1,8,0:0:0:0:
305,235,91314,1,0,0:0:0:0:
373,48,91475,6,0,P|396:130|408:250,1,198.000006042481,2|8,1:2|0:0,0:0:0:0:
293,346,91959,1,0,3:0:0:0:
149,218,92120,2,0,P|128:263|129:323,1,99.0000030212403,0|0,1:0|1:0,0:0:0:0:
268,157,92443,1,10,0:0:0:0:
87,97,92604,1,0,1:0:0:0:
282,251,92765,6,0,P|334:244|378:218,1,99.0000030212403,12|8,1:2|0:0,0:0:0:0:
396,182,93007,1,8,0:0:0:0:
407,139,93088,1,8,0:0:0:0:
403,94,93168,1,8,0:0:0:0:
385,53,93249,2,0,L|485:42,1,99.0000030212403,14|0,0:3|0:0,0:0:0:0:
288,129,93572,2,0,L|188:118,1,99.0000030212403,10|0,1:3|0:0,0:0:0:0:
94,12,93894,1,10,1:3:0:0:
54,287,94056,5,4,0:0:0:0:
3,122,94217,1,0,1:0:0:0:
151,271,94378,1,10,0:3:0:0:
159,73,94540,1,0,1:0:0:0:
246,295,94701,1,10,0:3:0:0:
321,93,94862,1,0,1:0:0:0:
325,353,95023,1,10,0:3:0:0:
461,179,95184,1,0,1:0:0:0:
218,216,95346,5,10,0:3:0:0:
425,304,95507,1,0,1:0:0:0:
151,271,95669,1,10,0:3:0:0:
390,228,95830,1,0,1:0:0:0:
136,185,95991,1,10,0:3:0:0:
384,143,96152,1,0,1:0:0:0:
233,302,96314,1,10,0:3:0:0:
288,73,96475,1,8,0:0:0:0:
288,73,96556,1,8,0:0:0:0:
288,73,96636,6,0,P|338:155|306:246,1,198.000006042481,2|0,1:2|0:0,0:0:0:0:
136,185,97120,2,0,P|184:165|242:171,1,99.0000030212403,2|8,1:2|0:0,0:0:0:0:
201,276,97443,1,0,1:0:0:0:
78,110,97604,1,2,0:0:0:0:
42,336,97765,6,0,L|189:321,1,148.50000453186,6|0,1:2|0:0,0:0:0:0:
233,302,98088,2,0,P|245:280|252:256,1,49.5000015106202,2|0,3:2|0:0,0:0:0:0:
136,185,98249,2,0,P|127:160|125:136,1,49.5000015106202,2|0,3:2|0:0,0:0:0:0:
199,26,98411,1,2,3:2:0:0:
199,26,98733,5,0,0:0:0:0:
321,75,98894,1,0,0:0:0:0:
153,129,99056,1,0,0:0:0:0:
251,339,99217,6,0,B|306:249|216:232|271:134,1,198.000006042481,14|0,1:2|1:0,0:0:0:0:
369,194,99701,1,2,0:0:0:0:
153,280,99862,1,0,1:0:0:0:
229,60,100023,2,0,P|277:55|322:76,1,99.0000030212403,10|0,0:0|0:0,0:0:0:0:
48,153,100346,1,14,0:0:0:0:
314,105,101798,6,0,L|428:87,1,99.0000030212403,6|0,1:2|0:0,0:0:0:0:
211,31,102120,1,8,0:0:0:0:
326,179,102282,2,0,L|440:161,1,99.0000030212403,2|0,1:2|0:0,0:0:0:0:
223,105,102604,1,8,0:0:0:0:
338,253,102765,6,0,B|494:228|494:228|445:277,1,198.000006042481,6|8,1:2|0:0,0:0:0:0:
263,355,103249,1,8,0:3:0:0:
229,319,103329,1,0,0:0:0:0:
212,272,103410,1,0,3:0:0:0:
214,223,103490,1,0,0:0:0:0:
235,179,103571,6,2,L|283:171,1,49.5000015106202,2|0,1:2|0:0,0:1:0:0:
489,138,103733,2,2,L|439:144,1,49.5000015106202,10|0,0:0|0:0,0:1:0:0:
280,57,103894,2,0,L|310:95,1,49.5000015106202,2|0,1:2|0:0,0:0:0:0:
442,258,104056,2,2,L|410:218,1,49.5000015106202,4|0,0:3|0:0,0:1:0:0:
407,37,104217,2,2,L|388:82,1,49.5000015106202,2|0,1:2|0:0,0:1:0:0:
315,278,104378,6,0,P|210:292|134:228,1,198.000006042481,6|0,1:2|1:0,0:0:0:0:
51,38,104862,2,0,P|25:79|26:128,1,99.0000030212403,2|0,1:2|0:0,0:0:0:0:
244,190,105185,2,0,P|270:149|269:100,1,99.0000030212403,14|0,0:0|0:0,0:0:0:0:
81,347,105507,1,14,1:2:0:0:
149,115,105669,5,0,0:0:0:0:
174,121,106314,1,0,0:0:0:0:
198,128,106959,6,0,P|243:123|287:113,1,90,6|0,1:2|3:0,0:0:0:0:
453,231,107282,2,0,P|408:228|375:199,1,90,10|0,0:0|3:0,0:0:0:0:
407,0,107604,1,0,1:0:0:0:
442,146,107765,1,0,3:0:0:0:
265,90,107927,2,0,P|248:136|245:186,1,90,10|0,0:0|3:0,0:0:0:0:
330,345,108249,5,2,1:2:0:0:
375,199,108411,1,0,3:0:0:0:
195,284,108572,2,0,P|151:284|94:249,1,90,8|0,0:0|3:0,0:0:0:0:
80,238,108814,1,8,0:0:0:0:
80,238,108894,2,0,L|66:340,1,90,2|0,1:2|0:0,0:0:0:0:
176,163,109217,2,0,L|162:61,1,90,8|0,3:2|0:0,0:0:0:0:
327,253,109540,6,0,P|372:250|412:230,1,90,2|0,1:2|0:0,0:0:0:0:
246,185,109862,1,8,0:0:0:0:
290,351,110023,1,0,3:0:0:0:
376,121,110185,2,0,L|288:106,1,90,2|0,1:2|0:0,0:0:0:0:
411,230,110507,2,0,L|499:215,1,90,8|0,3:2|0:0,0:0:0:0:
229,17,110830,6,0,P|178:87|202:170,1,180,2|8,1:2|0:0,0:0:0:0:
395,128,111314,1,0,3:0:0:0:
395,128,111394,1,8,0:0:0:0:
395,128,111475,2,0,P|354:115|285:105,1,90,2|0,1:2|3:0,0:0:0:0:
156,249,111798,2,0,P|198:264|241:253,1,90,8|0,0:0|0:0,0:0:0:0:
301,196,112040,1,8,0:0:0:0:
301,196,112120,6,0,L|309:76,1,90,2|0,0:0|3:0,0:0:0:0:
396,307,112443,1,8,0:0:0:0:
241,253,112604,1,0,3:0:0:0:
474,275,112765,2,0,P|477:325|455:365,1,90,2|0,1:2|3:0,0:0:0:0:
361,139,113088,2,0,L|450:128,1,90,10|0,0:0|3:0,0:0:0:0:
238,295,113411,5,2,1:2:0:0:
399,221,113572,1,0,3:0:0:0:
169,161,113733,1,10,0:0:0:0:
318,257,113894,1,0,3:2:0:0:
97,289,114056,1,2,1:2:0:0:
256,182,114217,1,0,3:0:0:0:
82,140,114378,1,10,0:0:0:0:
197,258,114540,1,0,3:0:0:0:
0,197,114701,5,10,1:2:0:0:
189,32,114862,2,0,L|173:151,1,107.999996704102,2|8,3:2|1:2,0:0:0:0:
255,345,115185,2,0,P|303:327|361:316,1,90,2|8,3:2|1:2,0:0:0:0:
459,226,115507,1,8,0:0:0:0:
459,226,115588,1,8,0:0:0:0:
459,226,115669,1,8,0:0:0:0:
283,154,115830,1,10,0:3:0:0:
255,345,115991,5,2,1:2:0:0:
65,264,116152,1,10,0:3:0:0:
82,258,116233,1,0,0:0:0:0:
100,257,116314,2,0,P|129:260|152:276,1,45,0|0,1:0|0:0,0:0:0:0:
291,226,116475,5,14,0:2:0:0:
270,199,116556,1,0,0:0:0:0:
240,185,116636,2,0,P|211:176|184:182,1,45,0|0,1:0|0:0,0:0:0:0:
88,74,116798,5,8,0:0:0:0:
126,52,116878,1,8,0:0:0:0:
170,52,116959,2,0,P|193:53|214:62,1,45,8|0,0:0|0:0,0:0:0:0:
314,158,117120,2,0,P|323:178|326:200,1,45,8|8,1:2|1:2,0:0:0:0:
225,327,117282,5,6,1:2:0:0:
199,312,117362,1,0,0:0:0:0:
170,302,117443,1,0,0:0:0:0:
139,299,117523,1,0,0:0:0:0:
108,301,117604,1,8,0:0:0:0:
79,310,117685,1,0,0:0:0:0:
52,325,117765,1,2,0:2:0:0:
28,345,117846,1,0,0:0:0:0:
9,370,117927,5,0,1:0:0:0:
37,351,118007,1,0,0:0:0:0:
60,327,118088,1,0,0:0:0:0:
77,298,118168,1,0,0:0:0:0:
88,266,118249,1,8,0:0:0:0:
91,232,118330,1,0,0:0:0:0:
86,199,118410,1,0,1:0:0:0:
75,167,118491,1,0,0:0:0:0:
56,139,118572,6,0,P|31:124|8:123,3,45,2|0|0|0,1:2|0:0|0:0|0:0,0:0:0:0:
157,85,118894,2,0,P|171:60|172:37,3,45,8|0|2|8,0:0|0:0|0:0|0:0,0:0:0:0:
189,194,119217,5,0,1:0:0:0:
217,212,119297,1,0,0:0:0:0:
249,220,119378,1,0,0:0:0:0:
283,217,119458,1,0,0:0:0:0:
313,203,119539,1,8,0:0:0:0:
347,174,119620,1,0,0:0:0:0:
389,160,119701,1,2,0:0:0:0:
434,164,119781,1,0,0:0:0:0:
473,184,119862,6,0,P|499:139|505:77,1,90,2|0,1:2|3:0,0:0:0:0:
394,273,120185,2,0,L|404:362,1,90,8|0,0:0|3:0,0:0:0:0:
311,145,120507,1,0,1:2:0:0:
473,184,120669,1,2,3:2:0:0:
259,309,120830,2,0,L|249:220,1,90,8|2,0:0|3:2,0:0:0:0:
145,384,121152,5,2,1:2:0:0:
332,337,121314,1,0,3:0:0:0:
172,152,121475,2,0,P|146:192|152:242,1,90,8|2,0:0|3:2,0:0:0:0:
92,287,121717,1,8,0:0:0:0:
92,287,121798,2,0,L|0:275,1,90,0|2,1:0|3:2,0:0:0:0:
94,84,122120,1,8,0:0:0:0:
248,219,122282,1,2,0:0:0:0:
248,219,122362,1,8,0:0:0:0:
248,219,122443,6,0,P|288:200|332:200,1,90,14|0,1:2|0:0,0:0:0:0:
374,213,122685,1,0,0:0:0:0:
399,188,122765,1,0,0:0:0:0:
417,157,122846,1,0,0:0:0:0:
426,122,122926,1,10,0:3:0:0:
424,86,123007,1,0,0:0:0:0:
412,52,123088,6,0,L|364:44,1,45,6|0,0:3|0:0,0:0:0:0:
233,74,123249,2,0,L|223:3,1,45,6|0,0:3|0:0,0:0:0:0:
307,192,123411,2,0,L|300:236,1,45,2|0,1:2|0:0,0:0:0:0:
96,153,123572,2,0,L|144:145,1,45,10|0,0:0|0:0,0:0:0:0:
309,112,123733,1,12,1:2:0:0:
242,364,123894,6,0,L|232:307,1,45,10|8,0:0|0:0,0:0:0:0:
214,211,124056,1,8,1:2:0:0:
335,345,124217,2,0,L|325:288,1,45,8|8,0:0|0:0,0:0:0:0:
307,192,124379,1,10,1:2:0:0:
428,326,124540,2,0,L|488:314,1,45,10|8,0:0|0:0,0:0:0:0:
351,183,124701,2,0,L|291:195,1,45,10|8,1:2|0:0,0:0:0:0:
242,364,124862,1,10,0:0:0:0:
58,177,125023,6,0,P|128:125|215:134,1,180,4|0,1:2|1:0,0:0:0:0:
396,202,125507,2,0,L|410:83,1,90,10|8,0:0|0:3,0:0:0:0:
243,149,125830,1,4,0:3:0:0:
396,235,125991,1,0,3:0:0:0:
175,317,126152,1,6,1:2:0:0:
256,192,126233,12,0,132765,0:0:0:0:
