osu file format v14

[General]
AudioFilename: Euphoriam.mp3
AudioLeadIn: 900
PreviewTime: 76878
Countdown: 0
SampleSet: Soft
StackLeniency: 0.7
Mode: 0
LetterboxInBreaks: 0
WidescreenStoryboard: 0

[Editor]
DistanceSpacing: 1
BeatDivisor: 2
GridSize: 4
TimelineZoom: 1

[Metadata]
Title:Euphorium
TitleUnicode:ユーフォリアム
Artist:Suzuyu
ArtistUnicode:鈴湯
Creator:Homura-
Version:Easy
Source:アストラエアの白き永遠 Finale -白き星の夢-
Tags:astralair no shiroki towa hoshi no yume favorite opening eroge Meg image-- ShiraKai kaCha -lolist- Nanashima Asami
BeatmapID:1154872
BeatmapSetID:544197

[Difficulty]
HPDrainRate:3
CircleSize:3
OverallDifficulty:2
ApproachRate:3
SliderMultiplier:0.799999999999999
SliderTickRate:1

[Events]
//Background and Video events
0,0,"BG.jpg",0,0
Video,0,"finale.avi"
//Break Periods
2,21836,22938
//Storyboard Layer 0 (Background)
//Storyboard Layer 1 (Fail)
//Storyboard Layer 2 (Pass)
//Storyboard Layer 3 (Foreground)
//Storyboard Sound Samples

[TimingPoints]
1153,322.58064516129,4,2,4,40,1,0
2443,-100,4,2,4,45,0,0
3733,-100,4,2,4,50,0,0
5023,-100,4,2,4,55,0,0
6314,-100,4,2,4,65,0,0
7443,-100,4,2,9,65,0,0
7927,-100,4,2,4,65,0,0
11798,-100,4,2,21,65,0,0
12120,-100,4,2,4,65,0,0
15830,-100,4,2,8,65,0,0
16475,-100,4,2,4,65,0,0
16959,-100,4,2,21,65,0,0
17120,-100,4,2,4,65,0,0
21636,-100,4,2,4,40,0,0
24378,-100,4,2,5,50,0,0
25669,-100,4,2,8,50,0,0
26959,-100,4,2,5,50,0,0
28249,-100,4,2,8,50,0,0
29540,-100,4,2,5,50,0,0
30830,-100,4,2,8,50,0,0
31314,-100,4,2,4,50,0,0
32120,-100,4,2,5,50,0,0
33411,-100,4,2,8,50,0,0
34378,-100,4,2,4,50,0,0
34701,-100,4,2,5,50,0,0
35991,-100,4,2,8,50,0,0
37282,-100,4,2,5,50,0,0
38572,-100,4,2,8,50,0,0
39056,-100,4,2,4,50,0,0
39862,-100,4,2,5,50,0,0
41152,-100,4,2,8,50,0,0
41636,-100,4,2,4,50,0,0
42443,-100,4,2,8,55,0,0
42927,-100,4,2,4,55,0,0
45023,-100,4,2,4,60,0,0
45346,-100,4,2,21,60,0,0
45669,-100,4,2,4,60,0,0
46636,-100,4,2,21,60,0,0
46959,-100,4,2,4,60,0,0
47927,-100,4,2,21,60,0,0
48894,-100,4,2,4,60,0,0
50507,-100,4,2,21,60,0,0
50830,-100,4,2,4,60,0,0
51798,-100,4,2,21,60,0,0
51959,-100,4,2,4,60,0,0
53088,-100,4,2,21,60,0,0
53249,-100,4,2,4,60,0,0
55346,-100,4,2,5,60,0,0
55991,-100,4,2,8,60,0,0
56636,-100,4,2,4,60,0,0
58249,-100,4,2,21,60,0,0
58411,-100,4,2,4,60,0,0
59540,-100,4,2,21,60,0,0
59701,-100,4,2,4,60,0,0
63733,-100,4,2,5,60,0,0
63894,-100,4,2,4,60,0,0
64056,-100,4,2,5,60,0,0
64217,-100,4,2,4,60,0,0
66314,-100,4,2,8,60,0,0
66959,-100,4,2,5,60,0,0
68249,-100,4,2,8,60,0,0
72120,-100,4,2,8,45,0,0
73169,-100,4,2,8,50,0,0
73249,-100,4,2,8,55,0,0
73330,-100,4,2,8,60,0,0
73411,-100,4,2,8,65,0,0
74540,-100,4,2,4,65,0,0
75991,-100,4,2,24,55,0,0
78572,-100,4,2,8,75,0,1
78894,-100,4,2,21,75,0,1
79217,-100,4,2,8,75,0,1
81475,-100,4,2,21,75,0,1
81798,-100,4,2,8,75,0,1
82765,-100,4,2,21,75,0,1
82927,-100,4,2,8,75,0,1
86636,-100,4,2,21,75,0,1
86798,-100,4,2,8,75,0,1
87765,-100,4,2,21,75,0,1
87927,-100,4,2,8,75,0,1
88894,-100,4,2,8,60,0,0
89217,-100,4,2,8,75,0,1
91798,-100,4,2,21,75,0,1
92120,-100,4,2,8,75,0,1
103249,-100,4,2,4,75,0,1
105669,-100,4,2,5,65,0,0
107282,-100,4,2,21,65,0,0
107604,-100,4,2,5,65,0,0
112443,-100,4,2,21,65,0,0
112765,-100,4,2,5,65,0,0
114056,-100,4,2,5,60,0,0
114701,-100,4,2,5,65,0,0
115830,-100,4,2,8,65,0,0
116475,-100,4,2,21,65,0,0
116636,-100,4,2,8,65,0,0
117282,-100,4,2,5,65,0,0
120185,-100,4,2,21,65,0,0
120507,-100,4,2,5,65,0,0
121475,-100,4,2,21,65,0,0
121798,-100,4,2,5,65,0,0
122927,-100,4,2,9,65,0,0
123411,-100,4,2,5,65,0,0
125991,-100,4,2,4,65,0,0
126152,-100,4,2,5,65,0,0
126314,-100,4,2,5,50,0,0
127604,-100,4,2,5,40,0,0
128894,-100,4,2,5,30,0,0
130185,-100,4,2,5,20,0,0
131475,-100,4,2,5,10,0,0
132765,-100,4,2,5,5,0,0

[Colours]
Combo1 : 0,128,255
Combo2 : 255,206,255
Combo3 : 151,255,255
Combo4 : 255,70,131

[HitObjects]
284,48,1153,6,0,L|125:28,1,160,2|0,0:2|0:2,0:0:0:0:
228,152,2443,2,0,L|387:132,1,160,2|0,0:0|0:0,0:0:0:0:
284,256,3733,2,0,L|125:236,1,160,2|0,0:0|0:0,0:0:0:0:
42,99,5023,2,0,P|97:74|167:82,2,120,2|2|2,0:0|0:0|0:1,0:0:0:0:
15,174,6314,6,0,L|37:345,1,160,12|2,1:2|0:0,0:0:0:0:
151,302,7443,2,0,B|203:292|203:292|266:317,1,120,14|8,0:0|0:0,0:0:0:0:
340,343,8249,2,0,L|426:310,1,79.9999999999999,2|2,0:0|0:0,0:0:0:0:
482,270,8894,6,0,P|506:193|470:109,1,160,12|2,1:2|0:0,0:0:0:0:
386,196,10023,2,0,P|326:191|253:152,1,120,14|0,1:2|1:0,0:0:0:0:
207,118,10830,2,0,P|169:104|130:108,1,79.9999999999999,10|10,0:0|0:0,0:0:0:0:
61,150,11475,6,0,P|120:201|198:197,1,160,6|0,1:2|1:0,0:0:0:0:
271,166,12443,1,10,0:0:0:0:
337,121,12765,2,0,P|375:107|414:111,1,79.9999999999999,2|10,1:2|0:0,0:0:0:0:
476,161,13411,2,0,L|468:252,1,79.9999999999999,2|10,1:2|0:0,0:0:0:0:
458,319,14056,6,0,P|407:291|347:293,1,120,2|10,1:2|0:0,0:0:0:0:
275,330,14862,1,8,0:0:0:0:
207,286,15185,2,0,P|170:207|199:129,1,160,4|2,1:2|1:3,0:0:0:0:
263,109,16152,1,10,1:3:0:0:
382,102,16636,6,0,P|414:151|413:210,1,120,12|2,0:0|1:3,0:0:0:0:
371,279,17443,1,2,1:3:0:0:
291,273,17765,2,0,L|150:261,1,120,2|8,1:3|0:0,0:0:0:0:
105,308,18572,2,0,P|89:271|96:232,1,79.9999999999999,8|10,0:0|0:0,0:0:0:0:
159,181,19217,6,0,B|238:188|238:188|275:172,1,120,12|12,1:2|0:0,0:0:0:0:
345,134,20023,1,8,0:0:0:0:
386,65,20346,2,0,P|457:97|485:169,2,160,14|2|0,0:0|0:0|0:0,0:0:0:0:
208,230,24378,6,0,P|130:237|67:190,1,160,2|0,1:1|0:0,0:0:0:0:
44,113,25346,1,0,0:0:0:0:
103,58,25669,2,0,P|180:50|243:97,1,160,2|0,0:1|0:0,0:0:0:0:
266,174,26636,1,0,0:0:0:0:
207,229,26959,6,0,P|188:195|188:155,1,79.9999999999999,2|2,0:1|0:0,0:0:0:0:
243,97,27604,2,0,P|282:95|318:113,1,79.9999999999999,0|2,0:0|0:0,0:0:0:0:
345,189,28249,1,2,0:1:0:0:
239,309,28894,2,0,L|131:297,1,79.9999999999999,0|0,0:0|0:0,0:0:0:0:
78,289,29540,6,0,P|39:222|56:146,1,160,2|0,1:1|0:0,0:0:0:0:
116,93,30507,1,2,0:0:0:0:
190,123,30830,2,0,P|249:122|301:95,1,120,2|2,0:1|0:0,0:0:0:0:
359,38,31636,2,0,P|412:59|423:115,1,120,0|2,0:0|0:1,0:0:0:0:
345,207,32604,6,0,P|357:265|392:313,1,120,0|2,0:0|0:0,0:0:0:0:
332,367,33411,2,0,P|259:331|153:317,1,160,2|0,0:1|0:0,0:0:0:0:
103,329,34378,1,2,0:0:0:0:
50,268,34701,6,0,B|39:189|39:189|50:150,2,120,2|2|0,1:1|1:2|0:0,0:0:0:0:
103,329,35991,2,0,P|180:338|245:293,1,160,10|0,0:1|0:0,0:0:0:0:
263,215,36959,1,0,0:0:0:0:
328,167,37282,6,0,P|387:170|443:190,2,120,2|2|0,1:1|1:2|1:0,0:0:0:0:
262,215,38572,2,0,P|203:212|147:192,2,120,2|0|0,0:1|1:0|1:0,0:0:0:0:
328,167,39862,6,0,P|342:131|341:91,1,79.9999999999999,2|2,1:1|1:2,0:0:0:0:
284,35,40507,2,0,L|205:20,1,79.9999999999999,0|2,1:0|1:2,0:0:0:0:
129,44,41152,2,0,B|50:55|50:55|11:42,2,120,10|10|0,1:1|0:0|0:0,0:0:0:0:
188,98,42443,6,0,P|202:151|178:212,1,120,10|10,0:1|0:0,0:0:0:0:
71,264,43411,1,10,0:0:0:0:
104,336,43733,2,0,L|263:327,1,160,4|2,1:2|3:2,0:0:0:0:
344,322,44701,1,2,3:2:0:0:
423,312,45023,6,0,P|456:241|439:164,1,160,4|0,1:2|0:0,0:0:0:0:
370,125,45991,1,8,0:0:0:0:
295,156,46314,2,0,P|216:156|148:117,1,160,2|2,1:2|0:0,0:0:0:0:
100,51,47282,1,8,0:0:0:0:
32,93,47604,6,0,P|7:163|69:205,2,160,2|0|2,1:2|3:0|1:2,0:0:0:0:
100,51,49217,1,8,0:0:0:0:
147,116,49540,2,0,P|190:112|245:94,1,79.9999999999999,0|8,0:0|0:0,0:0:0:0:
298,70,50185,6,0,P|339:124|341:217,1,160,2|0,1:2|0:0,0:0:0:0:
283,267,51152,1,8,0:0:0:0:
205,240,51475,2,0,P|147:248|109:292,1,120,2|0,1:2|1:2,0:0:0:0:
6,229,52443,1,8,0:2:0:0:
59,169,52765,6,0,P|71:104|38:42,2,120,2|0|8,1:2|0:0|0:0,0:0:0:0:
85,245,54056,2,0,L|167:257,1,79.9999999999999,2|0,1:2|1:0,0:0:0:0:
230,211,54701,2,0,L|309:199,1,79.9999999999999,4|0,0:3|1:0,0:0:0:0:
369,252,55346,6,0,P|384:172|327:121,1,160,2|2,1:3|0:3,0:0:0:0:
254,103,56314,1,10,0:3:0:0:
308,44,56636,2,0,P|346:43|401:71,1,79.9999999999999,2|8,1:2|0:2,0:0:0:0:
445,110,57282,2,0,P|465:144|471:188,1,79.9999999999999,2|8,0:2|0:0,0:0:0:0:
448,260,57927,6,0,P|422:312|367:332,1,120,2|0,1:2|1:0,0:0:0:0:
289,241,58894,1,8,0:0:0:0:
338,178,59217,2,0,L|313:44,2,120,2|0|10,1:2|1:0|0:0,0:0:0:0:
289,241,60507,6,0,B|241:227|241:227|175:250,1,120,10|8,0:0|0:0,0:0:0:0:
78,322,61475,1,10,0:0:0:0:
36,252,61798,2,0,B|16:194|16:194|32:137,1,120,10|10,0:0|0:0,0:0:0:0:
115,51,62765,1,8,0:0:0:0:
155,120,63088,6,0,L|252:109,1,79.9999999999999,0|10,1:0|0:0,0:0:0:0:
314,101,63733,2,0,L|325:198,1,79.9999999999999,0|8,3:0|3:2,0:0:0:0:
335,258,64378,2,0,P|406:225|484:233,2,160,10|2|6,0:2|0:0|1:2,0:0:0:0:
286,323,65991,5,0,1:0:0:0:
206,312,66314,2,0,L|97:295,1,79.9999999999999,2|2,1:3|1:3,0:0:0:0:
96,225,66959,2,0,L|146:162,1,79.9999999999999,2|2,1:1|1:0,0:0:0:0:
226,173,67604,2,0,L|254:247,1,79.9999999999999,2|2,1:2|1:2,0:0:0:0:
335,257,68249,6,0,P|400:216|417:140,1,160,2|2,1:3|1:2,0:0:0:0:
362,82,69217,1,2,1:3:0:0:
294,36,69540,2,0,B|200:12|232:72|136:44,2,160,8|2|6,1:2|1:2|1:2,0:0:0:0:
372,302,72120,5,2,0:1:0:0:
101,236,73411,6,0,P|149:202|208:202,1,120,12|12,1:2|0:0,0:0:0:0:
279,239,74217,1,2,3:2:0:0:
350,274,74540,2,0,P|476:191|343:139,1,360,10|4,1:0|0:0,0:0:0:0:
353,192,78572,6,0,P|377:238|326:346,1,160,4|0,1:2|1:0,0:0:0:0:
265,353,79540,1,8,0:0:0:0:
197,310,79862,2,0,P|157:307|119:321,1,79.9999999999999,2|8,1:2|0:0,0:0:0:0:
45,351,80507,2,0,L|36:255,1,79.9999999999999,0|8,1:0|0:0,0:0:0:0:
33,191,81152,6,0,P|112:190|183:155,1,160,2|0,1:2|1:0,0:0:0:0:
232,92,82120,1,8,0:0:0:0:
236,12,82443,2,0,P|180:29|152:80,1,120,4|0,1:2|1:0,0:0:0:0:
183,155,83249,2,0,P|198:212|191:271,1,120,8|4,1:2|1:2,0:0:0:0:
236,338,84056,5,8,0:0:0:0:
311,362,84378,2,0,P|350:360|386:343,1,79.9999999999999,2|8,1:2|0:0,0:0:0:0:
446,290,85023,1,2,1:2:0:0:
467,212,85346,1,10,0:2:0:0:
429,141,85669,2,0,P|393:123|353:122,1,79.9999999999999,2|10,1:2|0:0,0:0:0:0:
294,175,86314,6,0,L|166:158,1,120,10|0,0:0|3:0,0:0:0:0:
134,90,87120,1,10,0:0:0:0:
193,36,87443,2,0,L|321:53,1,120,10|0,1:3|1:0,0:0:0:0:
353,121,88249,2,0,L|433:110,2,79.9999999999999,0|0|0,1:0|1:0|0:0,0:0:0:0:
294,175,89217,6,0,L|306:254,1,79.9999999999999,12|2,1:2|1:2,0:0:0:0:
294,333,89862,1,8,0:0:0:0:
220,363,90185,2,0,P|182:344|143:341,1,79.9999999999999,2|8,1:2|0:0,0:0:0:0:
73,305,90830,2,0,P|57:268|67:218,1,79.9999999999999,0|8,0:0|0:0,0:0:0:0:
120,174,91475,6,0,P|154:112|88:84,1,160,2|0,1:2|1:0,0:0:0:0:
43,150,92443,1,10,0:0:0:0:
61,229,92765,2,0,P|114:253|171:237,1,120,12|14,1:2|0:3,0:0:0:0:
238,192,93572,2,0,L|247:97,1,79.9999999999999,10|10,1:3|1:3,0:0:0:0:
252,72,94056,6,0,P|289:58|334:65,1,79.9999999999999,4|10,0:0|0:3,0:0:0:0:
399,100,94701,2,0,L|408:195,1,79.9999999999999,10|10,0:3|0:3,0:0:0:0:
363,247,95346,2,0,P|325:260|280:253,1,79.9999999999999,10|10,0:3|0:3,0:0:0:0:
238,192,95991,2,0,L|229:97,1,79.9999999999999,10|10,0:3|0:3,0:0:0:0:
183,45,96636,6,0,P|125:35|72:61,1,120,2|2,1:2|1:2,0:0:0:0:
32,131,97443,1,0,1:0:0:0:
63,204,97765,2,0,B|88:240|146:243|174:224|174:224|210:229,1,160,6|2,1:2|3:2,0:0:0:0:
270,282,98733,2,0,L|357:273,1,79.9999999999999
389,270,99217,6,0,P|433:232|436:174,1,120,14|2,1:2|0:0,0:0:0:0:
392,108,100023,1,10,0:0:0:0:
312,116,100346,1,14,0:0:0:0:
104,70,101798,6,0,P|167:58|254:51,2,120,6|2|6,1:2|1:2|1:2,0:0:0:0:
30,165,103249,2,0,P|93:169|164:187,1,120,8|10,0:3|0:0,0:0:0:0:
219,219,104056,1,4,0:3:0:0:
272,277,104378,6,0,L|294:158,1,120,6|2,1:2|1:2,0:0:0:0:
336,91,105185,1,14,0:0:0:0:
403,49,105507,1,14,1:2:0:0:
144,300,106959,6,0,P|212:261|288:277,1,160,6|0,1:2|1:0,0:0:0:0:
350,328,107927,1,10,0:0:0:0:
418,286,108249,2,0,L|426:203,1,79.9999999999999,2|8,1:2|0:0,0:0:0:0:
480,147,108894,2,0,L|472:64,1,79.9999999999999,2|8,1:2|3:2,0:0:0:0:
399,30,109540,6,0,P|361:33|319:58,1,79.9999999999999,2|8,1:2|0:0,0:0:0:0:
280,118,110185,1,2,1:2:0:0:
200,108,110507,1,8,3:2:0:0:
120,96,110830,2,0,P|81:95|42:115,1,79.9999999999999,2|8,1:2|0:0,0:0:0:0:
35,192,111475,2,0,L|45:300,1,79.9999999999999,2|8,1:2|0:0,0:0:0:0:
90,335,112120,6,0,P|168:293|239:306,1,160,2|2,0:0|1:2,0:0:0:0:
304,345,113088,1,10,0:0:0:0:
371,302,113411,2,0,L|383:204,1,79.9999999999999,2|10,1:2|0:0,0:0:0:0:
330,159,114056,2,0,P|315:122|321:82,2,79.9999999999999,2|10|10,1:2|0:0|1:2,0:0:0:0:
448,177,115185,6,0,P|462:213|456:253,2,79.9999999999999,2|8|10,3:2|0:0|0:3,0:0:0:0:
379,222,116152,2,0,P|323:237|270:213,1,120,10|0,0:3|1:0,0:0:0:0:
232,142,116959,1,8,0:0:0:0:
259,66,117282,6,0,L|338:57,1,79.9999999999999,6|8,1:2|0:0,0:0:0:0:
416,83,117927,2,0,P|432:119|430:158,1,79.9999999999999,0|8,1:0|0:0,0:0:0:0:
379,222,118572,2,0,L|299:213,1,79.9999999999999,2|8,1:2|0:0,0:0:0:0:
219,221,119217,2,0,P|202:257|204:296,1,79.9999999999999,0|8,1:0|0:0,0:0:0:0:
138,342,119862,6,0,P|63:336|39:238,1,160,2|0,1:2|1:2,0:0:0:0:
59,190,120830,1,8,0:0:0:0:
124,143,121152,2,0,B|213:124|197:187|311:158,1,160,2|0,1:2|1:0,0:0:0:0:
354,138,122120,1,8,0:0:0:0:
427,103,122443,6,0,P|365:58|293:85,1,160,14|6,1:2|0:3,0:0:0:0:
279,164,123411,1,2,1:2:0:0:
339,215,123733,2,0,P|353:251|349:291,1,79.9999999999999,12|8,1:2|1:2,0:0:0:0:
282,334,124378,2,0,L|174:348,1,79.9999999999999,10|10,1:2|1:2,0:0:0:0:
125,323,125023,6,0,P|99:269|114:212,2,120,4|10|0,1:2|0:0|3:0,0:0:0:0:
161,339,126152,1,6,1:2:0:0:
256,192,126314,12,0,132765,0:0:0:0:
