osu file format v12

[General]
AudioFilename: boisubiisumairu.mp3
AudioLeadIn: 0
PreviewTime: 33207
Countdown: 0
SampleSet: Soft
StackLeniency: 0.7
Mode: 0
LetterboxInBreaks: 0
WidescreenStoryboard: 0

[Editor]
Bookmarks: 35167,76767
DistanceSpacing: 0.8
BeatDivisor: 4
GridSize: 4
TimelineZoom: 1

[Metadata]
Title:Boys be Smile (TV Size)
TitleUnicode:Boys be Smile (TV Size)
Artist:Suzuyu
ArtistUnicode:鈴湯
Creator:CXu
Version:Normal
Source:リトルバスターズ!~Refrain~
Tags:Little Busters! LB! KEY Maeda Jun don't cry natsume kyousuke rin naoe riki ritoru basutaazu! inohara masato miyazawa kengo MANYO JC Staff Frostmourne KanaRin climbb65588
BeatmapID:308823
BeatmapSetID:120431

[Difficulty]
HPDrainRate:3
CircleSize:3
OverallDifficulty:3
ApproachRate:4
SliderMultiplier:1.4
SliderTickRate:2

[Events]
//Background and Video events
Video,0,"boisubiisumairu.avi"
0,0,"BG.jpg",0,0
//Break Periods
//Storyboard Layer 0 (Background)
//Storyboard Layer 1 (Fail)
//Storyboard Layer 2 (Pass)
//Storyboard Layer 3 (Foreground)
//Storyboard Sound Samples
//Background Colour Transformations
3,100,163,162,255

[TimingPoints]
607,400,4,2,1,30,1,0
607,-133.333333333333,4,2,1,30,0,0
2007,-133.333333333333,4,2,1,40,0,0
5407,-133.333333333333,4,2,1,20,0,0
6207,-133.333333333333,4,2,1,30,0,0
7007,-133.333333333333,4,2,1,12,0,0
7207,-133.333333333333,4,2,1,14,0,0
7407,-133.333333333333,4,2,1,16,0,0
7607,-133.333333333333,4,2,1,18,0,0
7807,-133.333333333333,4,2,1,20,0,0
8007,-133.333333333333,4,2,1,22,0,0
8207,-133.333333333333,4,2,1,24,0,0
8607,-133.333333333333,4,2,1,26,0,0
8807,-133.333333333333,4,2,1,28,0,0
9007,-133.333333333333,4,2,1,30,0,0
9207,-133.333333333333,4,2,1,32,0,0
9407,-133.333333333333,4,2,1,34,0,0
9607,-133.333333333333,4,2,1,36,0,0
9807,-133.333333333333,4,2,1,38,0,0
10207,-133.333333333333,4,2,1,40,0,0
22207,400,4,2,1,50,1,0
22207,-133.333333333333,4,2,1,50,0,0
34007,-133.333333333333,4,2,1,55,0,0
35007,-117.647058823529,4,2,1,55,0,0
47407,-117.647058823529,4,2,1,60,0,0
47807,-100,4,2,1,70,0,1
49807,-100,4,3,1,70,0,1
50007,-100,4,2,1,70,0,1
59407,-100,4,3,1,70,0,1
59607,-100,4,2,1,70,0,1
70007,-133.333333333333,4,2,1,50,0,1
73207,-133.333333333333,4,2,1,5,0,1
73407,-100,4,2,1,20,0,0
75807,-100,4,2,1,10,0,0
76207,-100,4,2,1,5,0,0
76607,428.571428571429,4,2,1,50,1,0
76607,-133.333333333333,4,2,1,30,0,0
85178,-133.333333333333,4,2,1,10,0,0

[Colours]
Combo1 : 128,0,255
Combo2 : 128,64,64
Combo3 : 255,255,91
Combo4 : 192,192,192
Combo5 : 255,32,255
Combo6 : 94,94,94
Combo7 : 0,118,236
Combo8 : 255,128,255

[HitObjects]
104,192,607,6,0,B|68:256|168:344|184:256|236:296,1,210.000008010865,2|2,0:0|0:0,0:0:0:0:
384,348,2007,2,0,P|394:284|377:235,1,105.000004005432,2|2,0:0|0:0,0:0:0:0:
360,144,2807,1,2,0:0:0:0:
272,84,3207,2,0,B|224:68|212:104|169:85,1,105.000004005432,2|2,0:0|0:0,0:0:0:0:
256,192,3807,12,2,5407,0:0:0:0:
256,192,6207,5,2,0:0:0:0:
392,192,7007,6,0,B|464:192|480:124|448:52|368:48|340:128|260:76,1,315.000012016297,2|2,0:0|0:0,0:0:0:0:
156,60,8607,2,0,B|156:8|52:4|52:104|128:124|140:196|60:272,1,315.000012016297,2|2,0:0|0:0,0:0:0:0:
44,368,10207,6,0,P|120:352|160:320,1,105.000004005432,2|2,0:0|0:0,0:0:0:0:
200,248,11007,2,0,P|256:240|312:260,1,105.000004005432,2|0,0:0|0:0,0:0:0:0:
340,288,11607,2,0,B|376:332|460:312|488:248|416:208|452:136,1,262.500010013581,2|0,0:0|0:0,0:0:0:0:
484,96,12807,1,2,0:0:0:0:
484,44,13007,1,0,0:0:0:0:
380,60,13407,6,0,P|324:72|256:56,1,105.000004005432,2|2,0:0|0:0,0:0:0:0:
172,48,14207,2,0,B|108:48|108:188|32:188,1,210.000008010865,2|2,0:0|0:0,0:0:0:0:
16,240,15207,2,0,L|12:304,2,52.5000020027161,0|2|2,0:0|0:0|0:0,0:0:0:0:
116,264,16007,1,0,0:0:0:0:
116,264,16207,2,0,P|160:288|228:288,1,105.000004005432,2|2,0:0|0:0,0:0:0:0:
308,340,17007,5,2,0:0:0:0:
404,300,17407,2,0,P|428:256|420:192,1,105.000004005432,2|0,0:0|0:0,0:0:0:0:
388,164,18007,2,0,B|324:136|308:208|176:204|136:132,1,262.500010013581,2|0,0:0|0:0,0:0:0:0:
142,89,19207,2,0,P|217:56|251:63,1,105.000004005432,0|0,0:0|0:0,0:0:0:0:
288,72,19807,6,0,P|321:79|388:63,1,105.000004005432,2|2,0:0|0:0,0:0:0:0:
432,36,20407,1,2,0:0:0:0:
480,128,20807,1,2,0:0:0:0:
452,228,21207,2,0,P|420:288|328:320,1,157.500006008148,0|2,0:0|0:0,0:0:0:0:
236,336,22207,6,0,P|160:332|112:312,1,105.000004005432,2|2,0:0|0:0,0:0:0:0:
44,264,23007,2,0,P|16:204|16:160,1,105.000004005432,2|0,0:0|0:0,0:0:0:0:
24,116,23607,2,0,P|104:44|248:80,1,262.500010013581,2|0,0:0|0:0,0:0:0:0:
252,128,24807,1,2,0:0:0:0:
240,180,25007,1,0,0:0:0:0:
192,272,25407,6,0,P|248:316|304:320,1,105.000004005432,2|2,0:0|0:0,0:0:0:0:
384,324,26207,2,0,B|444:328|480:280|456:196|384:188|316:220,1,262.500010013581,2|0,0:0|0:0,0:0:0:0:
272,244,27407,1,2,0:0:0:0:
224,228,27607,1,0,0:0:0:0:
124,192,28007,2,0,P|80:128|96:48,1,157.500006008148,0|2,0:0|0:0,0:0:0:0:
186,106,29007,5,2,0:0:0:0:
288,72,29407,2,0,P|352:72|408:96,1,105.000004005432,2|0,0:0|0:0,0:0:0:0:
416,120,30007,2,0,B|440:160|384:196|408:280|464:288|500:240,2,210.000008010865,2|2|2,0:0|0:0|0:0,0:0:0:0:
364,132,31807,1,2,0:0:0:0:
316,152,32007,1,0,0:0:0:0:
256,64,32407,1,2,0:0:0:0:
48,80,33207,6,0,P|28:128|36:192,1,105.000004005432,2|0,0:0|0:0,0:0:0:0:
76,276,34007,1,8,0:0:0:0:
176,312,34407,1,8,0:0:0:0:
280,304,34807,5,8,0:0:0:0:
280,304,35007,2,0,B|316:340|376:336|420:292|376:240|395:192|456:192,1,238.00000453949,4|8,0:0|0:0,0:0:0:0:
340,44,36407,2,0,P|288:76|264:128,1,119.000002269745,4|2,0:0|0:0,0:0:0:0:
228,240,37207,2,0,P|172:220|136:174,1,119.000002269745,2|0,0:2|0:0,3:0:0:0:
136,116,37807,2,0,P|108:92|72:88,1,59.5000011348725,8|8,0:0|0:0,0:0:0:0:
32,116,38207,6,0,B|-8:180|12:268|102:273|71:343,1,238.00000453949,4|8,0:0|0:0,0:0:0:0:
252,356,39607,2,0,P|312:348|368:320,1,119.000002269745,4|2,0:0|0:0,0:0:0:0:
472,268,40407,2,0,P|440:192|440:136,1,119.000002269745,2|8,0:2|0:0,3:0:0:0:
416,100,41007,2,0,L|364:48,1,59.5000011348725,8|0,0:0|0:0,0:0:0:0:
316,56,41407,6,0,P|212:112|96:68,1,238.00000453949,4|8,0:0|0:0,0:0:0:0:
40,244,42807,2,0,P|96:280|160:288,1,119.000002269745,4|2,0:0|0:0,0:0:0:0:
264,264,43607,2,0,P|344:252|392:268,1,119.000002269745,10|0,0:2|0:0,0:0:0:0:
480,328,44407,1,8,0:0:0:0:
480,328,44607,2,0,P|504:252|420:124,1,238.00000453949,4|8,0:0|0:0,0:0:0:0:
252,172,46007,6,0,B|214:211|168:218|138:198|129:157|167:127,1,178.500003404617,4|12,0:0|0:0,0:0:0:0:
236,36,47007,1,8,0:0:0:0:
356,52,47407,1,8,0:0:0:0:
436,140,47807,6,0,P|456:200|420:280,1,140,4|8,0:0|0:0,0:0:0:0:
340,344,48607,2,0,B|280:308|260:364|204:340,1,140,2|8,0:0|0:0,0:0:0:0:
152,316,49207,1,2,0:0:0:0:
84,216,49607,2,0,B|32:120|40:36|128:36|156:72|136:136,1,280,0|2,0:0|0:0,0:0:0:0:
212,228,50807,6,0,P|244:180|252:92,1,140,2|0,0:0|0:0,0:0:0:0:
220,52,51407,1,8,0:0:0:0:
328,100,51807,2,0,P|384:108|468:84,1,140,2|8,0:0|0:0,0:0:0:0:
492,140,52407,2,0,P|512:192|492:280,1,140,2|0,0:0|0:0,0:0:0:0:
452,312,53007,2,0,B|436:352|324:360|348:256|256:292,1,210,8|2,0:0|0:0,0:0:0:0:
144,288,54007,6,0,P|60:252|36:212,1,140,2|2,0:0|0:0,0:0:0:0:
104,116,54807,2,0,P|188:152|212:192,1,140,2|2,0:0|0:0,0:0:0:0:
328,220,55607,2,0,P|384:208|448:148,1,140,2|2,0:0|0:0,0:0:0:0:
404,44,56407,1,2,0:0:0:0:
292,84,56807,2,0,P|252:80|224:60,1,70,8|8,0:0|0:0,0:0:0:0:
112,40,57407,6,0,P|56:84|44:160,1,140,4|8,0:0|0:0,0:0:0:0:
160,148,58207,2,0,P|170:218|229:266,1,140,2|8,0:0|0:0,0:0:0:0:
276,272,58807,1,2,0:0:0:0:
396,284,59207,2,0,B|476:296|516:212|488:136|400:132|432:60|432:56,1,280,0|2,0:0|0:0,0:0:0:0:
316,28,60407,6,0,P|305:96|325:163,1,140,2|0,0:0|0:0,0:0:0:0:
356,216,61007,1,8,0:0:0:0:
248,268,61407,2,0,P|192:288|88:284,1,140,2|8,0:0|0:0,0:0:0:0:
64,256,62007,2,0,P|124:221|170:169,1,140,2|0,0:0|0:0,0:0:0:0:
172,108,62607,5,8,0:0:0:0:
276,48,63007,1,2,0:0:0:0:
380,108,63407,1,8,0:0:0:0:
484,48,63807,6,0,P|504:124|480:184,1,140,2|8,0:0|0:0,0:0:0:0:
412,276,64607,2,0,B|352:276|352:344|292:344,1,140,2|8,0:0|0:0,0:0:0:0:
236,344,65207,2,0,P|116:336|80:256,1,210,2|8,0:0|0:0,0:0:0:0:
92,148,66207,2,0,P|120:128|140:84,1,70,8|8,0:0|0:0,0:0:0:0:
236,32,66807,6,0,P|312:56|364:180,1,210,12|0,0:0|0:0,0:0:0:0:
360,228,67607,1,2,0:0:0:0:
256,284,68007,2,0,P|208:296|184:316,1,70,8|8,0:0|0:0,0:0:0:0:
144,344,68407,5,4,0:0:0:0:
52,272,68807,1,8,0:0:0:0:
100,164,69207,1,8,0:0:0:0:
216,184,69607,1,8,0:0:0:0:
264,272,70007,6,0,B|324:304|460:280|504:260|536:148|536:44|476:-8|316:-16|296:44|380:152|204:204|176:-16|24:72,1,840.000032043458,12|0,0:0|0:0,0:0:0:0:
256,192,73407,12,2,76607,0:0:0:0:
256,192,77464,5,2,0:0:0:0:
144,156,78321,2,0,P|140:220|244:312,1,210.000008010865,0|2,0:0|0:0,0:0:0:0:
368,228,80035,2,0,P|372:164|268:72,1,210.000008010865,0|2,0:0|0:0,0:0:0:0:
256,192,81749,1,2,0:0:0:0:
184,320,83464,6,0,P|256:348|328:320,1,157.500006008148,2|2,0:0|0:0,0:0:0:0:
306,232,84535,2,0,P|255:219|206:232,1,105.000004005432,2|2,0:0|0:0,0:0:0:0:
256,192,85178,12,2,86892,0:0:0:0:
