osu file format v12

[General]
AudioFilename: boisubiisumairu.mp3
AudioLeadIn: 0
PreviewTime: 33207
Countdown: 0
SampleSet: Soft
StackLeniency: 0.7
Mode: 0
LetterboxInBreaks: 0
WidescreenStoryboard: 0

[Editor]
Bookmarks: 35167,76767
DistanceSpacing: 0.8
BeatDivisor: 4
GridSize: 4
TimelineZoom: 1

[Metadata]
Title:Boys be Smile (TV Size)
TitleUnicode:Boys be Smile (TV Size)
Artist:Suzuyu
ArtistUnicode:鈴湯
Creator:CXu
Version:Hard
Source:リトルバスターズ!~Refrain~
Tags:Little Busters! LB! KEY Maeda Jun don't cry natsume kyousuke rin naoe riki ritoru basutaazu! inohara masato miyazawa kengo MANYO JC Staff Frostmourne KanaRin climbb65588
BeatmapID:308741
BeatmapSetID:120431

[Difficulty]
HPDrainRate:6
CircleSize:4
OverallDifficulty:6
ApproachRate:6
SliderMultiplier:1.7
SliderTickRate:2

[Events]
//Background and Video events
Video,0,"boisubiisumairu.avi"
0,0,"BG.jpg",0,0
//Break Periods
//Storyboard Layer 0 (Background)
//Storyboard Layer 1 (Fail)
//Storyboard Layer 2 (Pass)
//Storyboard Layer 3 (Foreground)
//Storyboard Sound Samples
//Background Colour Transformations
3,100,163,162,255

[TimingPoints]
607,400,4,2,1,30,1,0
607,-133.333333333333,4,2,1,30,0,0
2007,-133.333333333333,4,2,1,40,0,0
5407,-133.333333333333,4,2,1,20,0,0
6207,-133.333333333333,4,2,1,30,0,0
7007,-133.333333333333,4,2,1,12,0,0
7207,-133.333333333333,4,2,1,14,0,0
7407,-133.333333333333,4,2,1,16,0,0
7607,-133.333333333333,4,2,1,18,0,0
7807,-133.333333333333,4,2,1,20,0,0
8007,-133.333333333333,4,2,1,22,0,0
8207,-133.333333333333,4,2,1,24,0,0
8607,-133.333333333333,4,2,1,26,0,0
8807,-133.333333333333,4,2,1,28,0,0
9007,-133.333333333333,4,2,1,30,0,0
9207,-133.333333333333,4,2,1,32,0,0
9407,-133.333333333333,4,2,1,34,0,0
9607,-133.333333333333,4,2,1,36,0,0
9807,-133.333333333333,4,2,1,38,0,0
10207,-133.333333333333,4,2,1,40,0,0
22207,400,4,2,1,50,1,0
22207,-133.333333333333,4,2,1,50,0,0
34007,-133.333333333333,4,2,1,55,0,0
35007,-117.647058823529,4,2,1,55,0,0
47407,-117.647058823529,4,2,1,60,0,0
47607,-117.647058823529,4,2,1,65,0,0
47807,-100,4,2,1,70,0,1
70007,-133.333333333333,4,2,1,50,0,1
73207,-133.333333333333,4,2,1,5,0,1
73407,-100,4,2,1,20,0,0
75807,-100,4,2,1,10,0,0
76207,-100,4,2,1,5,0,0
76607,428.571428571429,4,2,1,50,1,0
76607,-133.333333333333,4,2,1,30,0,0
85178,-133.333333333333,4,2,1,10,0,0

[Colours]
Combo1 : 128,0,255
Combo2 : 128,64,64
Combo3 : 255,255,91
Combo4 : 192,192,192
Combo5 : 255,32,255
Combo6 : 94,94,94
Combo7 : 0,118,236
Combo8 : 255,128,255

[HitObjects]
100,352,607,6,0,B|68:348|28:316|60:244|116:252|172:264,1,191.250007295609,2|0,0:0|0:0,0:0:0:0:
212,316,1407,2,0,B|254:325|310:333|342:261|302:229|270:225,1,191.250007295609,2|2,0:0|0:0,0:0:0:0:
156,172,2407,1,2,0:0:0:0:
212,56,2807,1,2,0:0:0:0:
320,124,3207,2,0,L|352:124,6,21.2500008106232,0|0|0|2|2|2|2,0:0|0:0|0:0|0:0|0:0|0:0|0:0,0:0:0:0:
256,192,3807,12,2,5407,0:0:0:0:
256,192,6207,5,2,0:0:0:0:
162,106,7007,6,0,P|138:142|142:230,1,127.500004863739,0|2,0:0|0:0,0:0:0:0:
234,310,7807,2,0,P|258:274|254:186,1,127.500004863739,0|2,0:0|0:0,0:0:0:0:
256,64,8607,2,0,P|308:68|384:124,1,127.500004863739,0|2,0:0|0:0,0:0:0:0:
428,220,9407,2,0,P|428:296|396:368,1,127.500004863739,0|2,0:0|0:0,0:0:0:0:
288,312,10207,6,0,P|248:308|212:320,1,63.7500024318696,2|0,0:0|0:0,0:0:0:0:
160,340,10607,2,0,P|128:336|96:312,1,63.7500024318696,2|0,0:0|0:0,0:0:0:0:
48,272,11007,1,2,0:0:0:0:
48,272,11407,2,0,P|69:241|80:192,1,63.7500024318696
60,148,11807,2,0,B|36:76|108:40|156:44|192:112|248:68,1,255.000009727478,2|0,0:0|0:0,0:0:0:0:
312,40,12807,2,0,L|348:100,1,63.7500024318696,2|0,0:0|0:0,0:0:0:0:
344,94,13407,5,2,0:0:0:0:
392,148,13607,2,0,P|416:188|408:272,1,127.500004863739,0|0,0:0|0:0,0:0:0:0:
376,328,14207,2,0,B|320:376|256:328|192:280|136:328,1,255.000009727478,2|2,0:0|0:0,0:0:0:0:
88,344,15207,1,0,0:0:0:0:
40,332,15407,1,2,0:0:0:0:
12,288,15607,1,2,0:0:0:0:
48,164,16007,1,0,0:0:0:0:
48,164,16207,1,2,0:0:0:0:
112,52,16607,6,0,P|148:40|184:48,1,63.7500024318696,2|0,0:0|0:0,0:0:0:0:
238,72,17007,2,0,P|278:84|318:80,1,63.7500024318696,2|0,0:0|0:0,0:0:0:0:
368,64,17407,1,2,0:0:0:0:
368,64,17807,2,0,L|424:116,1,63.7500024318696
468,156,18207,2,0,B|520:180|528:244|484:300|424:292|412:244|348:268,1,255.000009727478,2|0,0:0|0:0,0:0:0:0:
296,304,19207,1,0,0:0:0:0:
156,316,19607,1,0,0:0:0:0:
116,260,19807,6,0,P|108:216|112:192,1,63.7500024318696,2|0,0:0|0:0,0:0:0:0:
128,128,20207,1,2,0:0:0:0:
176,72,20407,2,0,P|232:60|264:68,1,63.7500024318696,0|2,0:0|0:0,0:0:0:0:
296,100,20807,2,0,P|350:117|400:184,1,127.500004863739
380,240,21407,6,0,L|364:308,2,42.5000016212464,2|0|0,0:0|0:0|0:0,0:0:0:0:
424,260,21807,2,0,L|456:320,2,42.5000016212464,2|0|2,0:0|0:0|0:0,0:0:0:0:
468,232,22207,6,0,P|488:172|464:108,1,127.500004863739,2|2,0:0|0:0,0:0:0:0:
352,44,23007,1,2,0:0:0:0:
352,44,23407,2,0,L|267:64,1,63.7500024318696
220,56,23807,2,0,B|156:40|72:28|56:88|72:152|136:152,1,255.000009727478,2|0,0:0|0:0,0:0:0:0:
180,204,24807,1,2,0:0:0:0:
148,264,25007,1,0,0:0:0:0:
148,264,25407,6,0,P|126:303|121:343,1,63.7500024318696,2|0,0:0|0:0,0:0:0:0:
196,320,25807,2,0,P|219:358|251:382,1,63.7500024318696,2|0,0:0|0:0,0:0:0:0:
300,348,26207,2,0,P|388:336|436:188,1,255.000009727478,2|0,0:0|0:0,0:0:0:0:
396,164,27207,1,2,0:0:0:0:
368,120,27407,1,0,0:0:0:0:
368,68,27607,1,0,0:0:0:0:
228,104,28007,2,0,P|176:108|96:48,1,127.500004863739
48,44,28607,6,0,P|28:96|28:128,1,63.7500024318696,2|0,0:0|0:0,0:0:0:0:
60,168,29007,2,0,P|53:199|39:227,1,63.7500024318696,2|0,0:0|0:0,0:0:0:0:
28,296,29407,1,2,0:0:0:0:
28,296,29807,2,0,P|64:316|92:320,1,63.7500024318696
148,288,30207,2,0,B|232:236|316:372|416:296|440:212|408:160|364:144,1,382.500014591218,2|0,0:0|0:0,0:0:0:0:
304,144,31607,1,0,0:0:0:0:
256,92,31807,5,2,0:0:0:0:
256,92,32007,1,0,0:0:0:0:
256,92,32407,1,2,0:0:0:0:
96,72,33207,5,0,0:0:0:0:
60,132,33407,1,2,0:0:0:0:
68,200,33607,1,0,0:0:0:0:
144,320,34007,2,0,L|216:344,1,63.7500024318696,8|12,0:0|0:0,0:0:0:0:
272,360,34407,1,8,0:0:0:0:
340,352,34607,1,8,0:0:0:0:
388,300,34807,1,0,0:0:0:0:
416,232,35007,6,0,B|476:160|388:56|348:132|284:132|252:64,1,289.000005512238,4|8,0:0|0:0,0:0:0:0:
254,69,36007,1,8,0:0:0:0:
100,44,36407,2,0,P|112:108|168:180,1,144.500002756119,4|2,0:0|0:0,0:0:0:0:
104,320,37207,2,0,P|165:341|255:329,1,144.500002756119,2|0,0:2|0:0,3:0:0:0:
284,272,37807,1,8,0:0:0:0:
352,252,38007,1,8,0:0:0:0:
424,264,38207,6,0,B|468:304|525:269|540:176|449:118|394:182|352:136,1,289.000005512238,4|8,0:0|0:0,0:0:0:0:
357,141,39207,1,8,0:0:0:0:
312,84,39407,1,8,0:0:0:0:
244,56,39607,2,0,P|168:40|104:68,1,144.500002756119,4|2,0:0|0:0,0:0:0:0:
24,184,40407,2,0,P|100:200|164:172,1,144.500002756119,2|8,0:2|0:0,3:0:0:0:
216,128,41007,2,0,P|232:168|224:208,1,72.2500013780594,0|2,0:0|0:0,0:0:0:0:
220,268,41407,6,0,B|244:336|328:336|340:272|436:260|468:356,1,289.000005512238,4|8,0:0|0:0,0:0:0:0:
463,344,42407,1,0,0:0:0:0:
488,204,42807,2,0,P|428:176|340:180,1,144.500002756119,4|2,0:0|0:0,0:0:0:0:
352,28,43607,2,0,P|286:33|211:81,1,144.500002756119,10|0,0:2|0:0,3:0:0:0:
220,144,44207,1,8,0:0:0:0:
160,184,44407,1,8,0:0:0:0:
88,192,44607,6,0,B|24:256|64:340|152:368|176:280|240:336,1,289.000005512238,4|8,0:0|0:0,0:0:0:0:
235,332,45607,1,0,0:0:0:0:
300,364,45807,1,2,0:0:0:0:
372,360,46007,6,0,P|448:340|484:216,1,216.750004134178,4|12,0:0|0:0,0:0:0:0:
456,76,47007,1,8,0:0:0:0:
392,112,47207,2,8,P|371:112|348:102,5,36.1250006890297
316,92,47807,6,0,P|272:108|244:144,1,85,4|0,0:0|0:0,0:0:0:0:
200,208,48207,2,0,P|171:238|131:252,1,85,8|0,0:0|0:0,0:0:0:0:
124,168,48607,2,0,P|82:158|51:130,1,85,2|0,0:0|0:0,0:0:0:0:
92,56,49007,2,0,P|133:65|164:93,1,85,8|0,0:0|0:0,0:0:0:0:
244,128,49407,2,0,B|296:160|364:112|408:152,1,170,2|8,0:0|0:0,0:0:0:0:
408,236,50007,2,0,B|360:188|288:236|240:208,1,170,2|0,0:0|0:0,0:0:0:0:
160,212,50607,1,8,0:0:0:0:
100,272,50807,1,0,0:0:0:0:
144,344,51007,6,0,P|188:356|236:340,1,85,2|0,0:0|0:0,0:0:0:0:
308,360,51407,2,0,P|352:348|385:310,1,85,8|0,0:0|0:0,0:0:0:0:
458,291,51807,2,0,P|490:258|500:209,1,85,2|0,0:0|0:0,0:0:0:0:
484,140,52207,1,8,0:0:0:0:
408,176,52407,2,0,B|348:244|236:212|248:132|296:100|336:124,1,255,2|8,0:0|0:0,0:0:0:0:
412,84,53207,2,0,P|356:40|248:48,1,170,2|0,0:0|0:0,0:0:0:0:
196,96,53807,1,8,0:0:0:0:
116,68,54007,6,0,P|59:86|25:136,1,85,2|0,0:0|0:0,0:0:0:0:
112,156,54407,2,0,P|99:214|125:268,1,85,2|8,0:0|0:0,0:0:0:0:
186,203,54807,2,0,P|230:243|289:247,1,85,2|0,0:0|0:0,0:0:0:0:
263,162,55207,2,0,P|319:143|353:93,1,85,2|8,0:0|0:0,0:0:0:0:
364,36,55607,6,0,P|456:52|496:128,1,170,2|2,0:0|0:0,0:0:0:0:
448,184,56207,1,8,0:0:0:0:
400,252,56407,2,0,P|404:312|436:344,1,85,2|8,0:0|0:0,0:0:0:0:
480,272,56807,1,8,0:0:0:0:
480,272,57007,2,8,L|504:220,3,42.5,8|8|8|8,0:0|0:0|0:0|0:0,0:0:0:0:
500,192,57407,6,0,P|456:172|432:128,1,85,4|0,0:0|0:0,0:0:0:0:
400,64,57807,2,0,P|374:30|336:14,1,85,8|0,0:0|0:0,0:0:0:0:
320,96,58207,2,0,P|278:100|245:126,1,85,2|0,0:0|0:0,0:0:0:0:
307,181,58607,2,0,P|289:219|295:260,1,85,8|0,0:0|0:0,0:0:0:0:
320,344,59007,2,0,P|232:368|160:308,1,170,2|8,0:0|0:0,0:0:0:0:
88,304,59607,2,0,B|92:244|168:256|168:184|132:148,1,170,2|0,0:0|0:0,0:0:0:0:
88,92,60207,1,8,0:0:0:0:
144,28,60407,1,0,0:0:0:0:
228,20,60607,6,0,P|270:21|308:38,1,85,2|0,0:0|0:0,0:0:0:0:
360,107,61007,2,0,P|395:129|420:163,1,85,8|0,0:0|0:0,0:0:0:0:
429,250,61407,2,0,P|448:287|452:329,1,85,2|0,0:0|0:0,0:0:0:0:
368,336,61807,1,8,0:0:0:0:
296,376,62007,2,0,P|218:382|146:322,1,170,2|0,0:0|0:0,0:0:0:0:
208,264,62607,2,0,B|218:303|254:328|312:307|360:256|284:224|296:188|320:164|352:160,1,255,8|0,0:0|0:0,0:0:0:0:
300,88,63407,2,0,P|254:114|227:168,1,85,8|0,0:0|0:0,0:0:0:0:
168,188,63807,6,0,P|108:180|76:152,1,85,2|0,0:0|0:0,0:0:0:0:
68,84,64207,2,0,P|128:92|160:120,1,85,8|0,0:0|0:0,0:0:0:0:
208,44,64607,2,0,P|256:12|384:20,1,170,2|8,0:0|0:0,0:0:0:0:
428,68,65207,2,0,B|432:140|496:140|496:220,1,170,2|0,0:0|0:0,0:0:0:0:
412,212,65807,1,8,0:0:0:0:
444,292,66007,2,8,P|480:308|512:308,2,42.5
360,272,66407,1,8,0:0:0:0:
276,272,66607,1,8,0:0:0:0:
196,300,66807,1,8,0:0:0:0:
128,348,67007,6,0,B|88:376|20:332|32:272|96:232|84:180|52:144,1,255,4|0,0:0|0:0,0:0:0:0:
72,72,67807,2,0,P|120:96|140:132,1,85,8|8,0:0|0:0,0:0:0:0:
152,204,68207,1,8,0:0:0:0:
232,228,68407,6,0,P|273:232|320:202,1,85,4|0,0:0|0:0,0:0:0:0:
260,148,68807,2,0,P|284:114|282:58,1,85,8|0,0:0|0:0,0:0:0:0:
204,88,69207,1,8,0:0:0:0:
204,88,69607,2,8,L|168:48,2,42.5
164,164,70007,6,0,B|92:152|8:192|0:312|84:376|184:360|252:352|304:268|164:152|216:48|344:16|536:32|624:212|496:368|420:380|336:384|272:300,1,1020.00003890991,12|0,0:0|0:0,0:0:0:0:
256,192,73407,12,2,76607,0:0:0:0:
92,192,77035,5,2,0:0:0:0:
92,192,77249,2,0,P|148:220|204:192,1,127.500004863739,0|2,0:0|0:0,0:0:0:0:
256,80,78107,2,0,P|317:85|350:136,1,127.500004863739,0|2,0:0|0:0,0:0:0:0:
350,136,78964,1,0,0:0:0:0:
356,208,79178,2,0,P|368:232|408:256,1,63.7500024318696,2|0,0:0|0:0,0:0:0:0:
460,284,79607,2,0,P|384:352|244:312,1,255.000009727478,0|2,0:0|0:0,0:0:0:0:
88,116,81321,5,2,0:0:0:0:
200,56,81749,1,2,0:0:0:0:
200,56,82178,2,0,P|240:72|264:96,1,63.7500024318696,2|0,0:0|0:0,0:0:0:0:
292,144,82607,1,2,0:0:0:0:
352,180,82821,1,0,0:0:0:0:
424,180,83035,1,2,0:0:0:0:
424,180,83464,6,0,P|440:244|420:320,1,127.500004863739,2|0,0:0|0:0,0:0:0:0:
372,348,84107,1,2,0:0:0:0:
256,272,84535,1,2,0:0:0:0:
140,348,84964,1,2,0:0:0:0:
256,192,85178,12,2,86892,0:0:0:0:
