osu file format v12

[General]
AudioFilename: boisubiisumairu.mp3
AudioLeadIn: 0
PreviewTime: 33207
Countdown: 0
SampleSet: Soft
StackLeniency: 0.7
Mode: 0
LetterboxInBreaks: 0
WidescreenStoryboard: 0

[Editor]
Bookmarks: 35167,76767
DistanceSpacing: 0.8
BeatDivisor: 4
GridSize: 4
TimelineZoom: 1

[Metadata]
Title:Boys be Smile (TV Size)
TitleUnicode:Boys be Smile (TV Size)
Artist:Suzuyu
ArtistUnicode:鈴湯
Creator:CXu
Version:Easy
Source:リトルバスターズ!~Refrain~
Tags:Little Busters! LB! KEY Maeda Jun don't cry natsume kyousuke rin naoe riki ritoru basutaazu! inohara masato miyazawa kengo MANYO JC Staff Frostmourne KanaRin climbb65588
BeatmapID:308837
BeatmapSetID:120431

[Difficulty]
HPDrainRate:2
CircleSize:3
OverallDifficulty:2
ApproachRate:3
SliderMultiplier:1.1
SliderTickRate:2

[Events]
//Background and Video events
Video,0,"boisubiisumairu.avi"
0,0,"BG.jpg",0,0
//Break Periods
//Storyboard Layer 0 (Background)
//Storyboard Layer 1 (Fail)
//Storyboard Layer 2 (Pass)
//Storyboard Layer 3 (Foreground)
//Storyboard Sound Samples
//Background Colour Transformations
3,100,163,162,255

[TimingPoints]
607,400,4,2,1,30,1,0
2007,-100,4,2,1,40,0,0
5407,-100,4,2,1,20,0,0
6207,-100,4,2,1,30,0,0
10207,-100,4,2,1,40,0,0
22207,400,4,2,1,50,1,0
34007,-100,4,2,1,55,0,0
40607,-100,4,3,1,55,0,0
40807,-100,4,2,1,55,0,0
42007,-100,4,3,1,55,0,0
42107,-100,4,2,1,55,0,0
44407,-100,4,3,1,55,0,0
44507,-100,4,2,1,55,0,0
47407,-100,4,2,1,60,0,0
47807,-100,4,2,1,70,0,1
48207,-100,4,3,1,70,0,1
48407,-100,4,2,1,70,0,1
49007,-100,4,3,1,70,0,1
49207,-100,4,2,1,70,0,1
51407,-100,4,3,1,70,0,1
51607,-100,4,2,1,70,0,1
52207,-100,4,3,1,70,0,1
52407,-100,4,2,1,70,0,1
52807,-100,4,2,1,50,0,1
53407,-100,4,2,1,70,0,1
53807,-100,4,3,1,70,0,1
54007,-100,4,2,1,70,0,1
55407,-100,4,3,1,70,0,1
55607,-100,4,2,1,70,0,1
57807,-100,4,3,1,70,0,1
58007,-100,4,2,1,70,0,1
58607,-100,4,3,1,70,0,1
58807,-100,4,2,1,70,0,1
61007,-100,4,3,1,70,0,1
61207,-100,4,2,1,70,0,1
65007,-100,4,3,1,70,0,1
65207,-100,4,2,1,70,0,1
65807,-100,4,3,1,70,0,1
66007,-100,4,2,1,70,0,1
70007,-100,4,2,1,50,0,1
73207,-100,4,2,1,5,0,1
73407,-100,4,2,1,20,0,0
75807,-100,4,2,1,10,0,0
76207,-100,4,2,1,5,0,0
76607,428.571428571429,4,2,1,50,1,0
76607,-100,4,2,1,30,0,0
85178,-100,4,2,1,10,0,0

[Colours]
Combo1 : 128,0,255
Combo2 : 128,64,64
Combo3 : 255,255,91
Combo4 : 192,192,192
Combo5 : 255,32,255
Combo6 : 94,94,94
Combo7 : 0,118,236
Combo8 : 255,128,255

[HitObjects]
64,200,607,6,0,B|156:200|156:312|248:312,1,220,2|0,0:0|0:0,0:0:0:0:
248,180,2007,2,0,P|200:128|148:100,2,110,2|2|2,0:0|0:0|0:0,0:0:0:0:
320,228,3207,2,0,P|380:248|432:236,1,110,2|2,0:0|0:0,0:0:0:0:
256,192,3807,12,2,6207,0:0:0:0:
256,76,7007,5,2,0:0:0:0:
256,308,8607,1,2,0:0:0:0:
44,192,10207,6,0,P|80:164|144:156,1,110,2|2,0:0|0:0,0:0:0:0:
120,240,11007,2,0,B|168:352|380:288|260:168|312:64|392:76|432:92,1,440,2|0,0:0|0:0,0:0:0:0:
404,176,13007,2,0,L|364:284,1,110,0|2,0:0|0:0,0:0:0:0:
304,340,13807,5,2,0:0:0:0:
220,360,14207,2,0,B|156:400|96:332|76:256|124:216|260:204|188:144|152:128,1,330,2|2,0:0|0:0,0:0:0:0:
340,88,16207,1,2,0:0:0:0:
412,136,16607,6,0,P|440:188|444:248,1,110,2|2,0:0|0:0,0:0:0:0:
412,320,17407,2,0,B|375:398|255:393|255:320|255:245|134:241|97:320,1,385,2|2,0:0|0:0,0:0:0:0:
8,312,19207,2,0,P|56:228|116:192,1,165,0|2,0:0|0:0,0:0:0:0:
244,188,20407,6,0,L|336:272,1,110,2|2,0:0|0:0,0:0:0:0:
400,212,21207,2,0,B|456:224|492:192|488:104|432:72|376:148|316:92,1,275,0|2,0:0|0:0,0:0:0:0:
244,56,22607,5,2,0:0:0:0:
180,116,23007,2,0,P|116:132|64:116,1,110,2|0,0:0|0:0,0:0:0:0:
32,200,23807,2,0,B|140:260|205:214|260:156|336:184|348:248,1,330,0|0,0:0|0:0,0:0:0:0:
272,280,25407,6,0,P|224:300|156:312,1,110,2|2,0:0|0:0,0:0:0:0:
80,312,26207,2,0,P|40:208|188:72,1,330,2|2,0:0|0:0,0:0:0:0:
356,268,28607,6,0,P|316:308|264:324,1,110,2|2,0:0|0:0,0:0:0:0:
184,360,29407,1,2,0:0:0:0:
132,292,29807,2,0,B|108:232|132:176|200:184|224:120|232:44|164:16|92:16|40:72|84:156,1,440,0|0,0:0|0:0,0:0:0:0:
40,228,31807,2,0,P|40:304|92:380,1,165,2|2,0:0|0:0,0:0:0:0:
256,308,33207,6,0,P|320:308|380:344,1,110,2|0,0:0|0:0,0:0:0:0:
448,332,34007,2,0,L|484:220,1,110,8|8,0:2|0:2,3:0:0:0:
488,140,34807,6,0,B|516:84|404:32|408:124|308:144|248:64,1,275,8|8,0:0|0:0,0:0:0:0:
136,112,36407,2,0,P|80:180|76:224,2,110,4|2|2,0:0|0:0|0:2,0:0:0:0:
216,152,37607,2,0,P|240:224|308:288,1,165,0|4,0:0|0:2,3:0:0:0:
452,192,39007,6,0,P|428:120|360:56,1,165,8|4,0:2|0:2,3:0:0:0:
280,80,40007,2,0,P|228:92|172:80,2,110,2|2|8,0:0|0:2|0:0,0:0:0:0:
280,168,41207,6,0,B|248:192|176:192|136:172|96:104|8:192|56:236,1,275,8|8,0:0|0:0,0:0:0:0:
104,336,42807,2,0,P|164:356|220:336,2,110,4|2|8,0:0|0:0|0:2,0:0:0:0:
160,268,44007,2,0,P|232:256|300:332,1,165,2|4,0:0|0:0,0:0:0:0:
456,236,45407,6,0,P|376:252|312:176,2,165,8|4|12,0:0|0:0|0:0,0:0:0:0:
400,168,47007,1,8,0:0:0:0:
464,108,47407,1,8,0:0:0:0:
396,52,47807,6,0,P|324:20|172:56,2,220,4|2|2,0:0|0:0|0:0,0:0:0:0:
336,116,49807,2,0,P|272:104|200:176,1,165,8|2,0:0|0:0,0:0:0:0:
288,192,50807,6,0,B|356:212|302:281|374:317|422:309|473:265|436:200,2,275,2|2|2,0:0|0:0|0:0,0:0:0:0:
232,124,53207,1,2,0:0:0:0:
164,68,53607,6,0,P|104:64|48:88,2,110,2|2|2,0:0|0:0|0:0,0:0:0:0:
124,148,54807,2,0,P|82:183|59:233,2,110,2|2|2,0:0|0:0|0:0,0:0:0:0:
148,232,56007,1,2,0:0:0:0:
208,296,56407,2,0,P|284:324|376:300,1,165,2|8,0:2|0:2,3:2:0:0:
424,244,57407,6,0,B|424:140|492:140|492:36,2,220,4|2|2,0:0|0:0|0:0,0:0:0:0:
336,244,59407,2,0,P|344:180|392:84,1,165,8|2,0:0|0:0,0:0:0:0:
320,32,60407,6,0,B|276:24|228:56|200:112|112:84|72:20,1,275,2|2,0:0|0:0,0:0:0:0:
60,152,62007,2,0,P|137:186|232:175,1,165,2|8,0:0|0:0,0:0:0:0:
296,144,63007,1,2,0:0:0:0:
376,176,63407,1,8,0:0:0:0:
412,256,63807,6,0,P|376:328|344:344,1,110,2|8,0:0|0:0,0:0:0:0:
268,312,64607,2,0,P|184:292|112:344,1,165,2|2,0:0|0:0,0:0:0:0:
64,264,65607,2,0,P|112:224|180:208,1,110,2|8,0:0|0:0,0:0:0:0:
244,208,66407,6,0,P|304:228|372:308,2,165,8|4|2,0:0|0:0|0:0,0:0:0:0:
188,140,68007,2,0,P|172:92|192:20,1,110,8|4,0:0|0:0,0:0:0:0:
256,84,68807,2,0,P|289:46|361:27,1,110,8|8,0:0|0:0,0:0:0:0:
338,114,69607,1,8,0:0:0:0:
408,168,70007,6,0,B|530:218|511:375|400:425|324:414|248:374|180:311|188:188|384:208|400:28|260:-4|164:0|100:96|200:200,1,880,12|0,0:0|0:0,0:0:0:0:
256,192,73407,12,2,76607,0:0:0:0:
492,192,77464,6,0,B|388:140|388:248|284:192,1,220,2|0,0:0|0:0,0:0:0:0:
128,108,79178,2,0,B|232:160|232:52|336:108,1,220,2|0,0:0|0:0,0:0:0:0:
188,204,80892,2,0,P|88:184|28:88,1,220,2|2,0:0|0:0,0:0:0:0:
380,52,83464,6,0,P|408:112|368:200,1,165,2|2,0:0|0:0,0:0:0:0:
300,252,84535,2,0,P|281:201|297:149,1,110,2|2,0:0|0:0,0:0:0:0:
256,192,85178,12,2,86892,0:0:0:0:
