osu file format v13

[General]
AudioFilename: ALIVE.mp3
AudioLeadIn: 0
PreviewTime: 58995
Countdown: 0
SampleSet: Soft
StackLeniency: 0.7
Mode: 3
LetterboxInBreaks: 0
SpecialStyle: 0
WidescreenStoryboard: 1

[Editor]
DistanceSpacing: 0.8
BeatDivisor: 4
GridSize: 32
TimelineZoom: 1.7

[Metadata]
Title:ALIVE (Cut Ver)
TitleUnicode:アライブ (Cut Ver)
Artist:Suzuno Ito, Takanashi Otoha (CV. Komatsu Mikako, Goto Saori)
ArtistUnicode:涼野 いと, 小鳥遊 おとは (CV. 小松 未可子, 後藤 沙緒里)
Creator:ShiinoYuuki
Version:MX
Source:Pretty Rhythm Rainbow Live
Tags:Takanashi Otoha Suzuno Ito Anime Jpop Mikako Komatsu Gotou Saori KazuhikoRei arviejhay
BeatmapID:454735
BeatmapSetID:190748

[Difficulty]
HPDrainRate:8
CircleSize:4
OverallDifficulty:8
ApproachRate:8
SliderMultiplier:1.4
SliderTickRate:1

[Events]
//Background and Video events
0,0,"vlcsnap-2014-07-08-21h21m59s41.png",0,0
//Break Periods
//Storyboard Layer 0 (Background)
//Storyboard Layer 1 (Fail)
//Storyboard Layer 2 (Pass)
//Storyboard Layer 3 (Foreground)
//Storyboard Sound Samples
//Background Colour Transformations
3,100,163,162,255

[TimingPoints]
563,447.761194029851,4,2,0,21,1,0
59667,-100,4,2,0,21,0,1
91906,-100,4,2,0,21,0,0

[HitObjects]
64,192,563,128,0,1234:0:0:0:0:
320,192,563,128,0,1234:0:0:0:0:
192,192,1234,128,0,1906:0:0:0:0:
448,192,1906,128,0,2354:0:0:0:0:
64,192,1906,128,0,2354:0:0:0:0:
320,192,2354,128,0,3025:0:0:0:0:
64,192,3025,128,0,3697:0:0:0:0:
448,192,3697,128,0,4145:0:0:0:0:
320,192,4145,128,0,4816:0:0:0:0:
64,192,4145,128,0,4817:0:0:0:0:
192,192,4817,128,0,5488:0:0:0:0:
448,192,5488,128,0,5936:0:0:0:0:
320,192,5936,128,0,7279:0:0:0:0:
64,192,5936,1,0,0:0:0:0:
192,192,6160,1,0,0:0:0:0:
448,192,6383,1,0,0:0:0:0:
64,192,6383,1,0,0:0:0:0:
192,192,6607,1,0,0:0:0:0:
448,192,6831,1,0,0:0:0:0:
192,192,7055,1,0,0:0:0:0:
448,192,7279,1,0,0:0:0:0:
64,192,7279,1,0,0:0:0:0:
64,192,7727,1,0,0:0:0:0:
320,192,7727,1,0,0:0:0:0:
192,192,7727,128,0,11309:0:0:0:0:
448,192,7951,1,0,0:0:0:0:
320,192,8174,1,0,0:0:0:0:
64,192,8398,128,0,9294:0:0:0:0:
320,192,9294,1,0,0:0:0:0:
448,192,9518,1,0,0:0:0:0:
64,192,9742,1,0,0:0:0:0:
320,192,9742,1,0,0:0:0:0:
448,192,9965,1,0,0:0:0:0:
320,192,10189,1,0,0:0:0:0:
64,192,10189,1,0,0:0:0:0:
320,192,10413,1,0,0:0:0:0:
448,192,10637,1,0,0:0:0:0:
64,192,10637,1,0,0:0:0:0:
64,192,11309,1,0,0:0:0:0:
320,192,11309,1,0,0:0:0:0:
448,192,11309,1,0,0:0:0:0:
320,192,11533,1,0,0:0:0:0:
448,192,11757,1,0,0:0:0:0:
192,192,11757,1,0,0:0:0:0:
64,192,11980,1,4,0:0:0:0:
320,192,11980,1,0,0:0:0:0:
448,192,11980,1,0,0:0:0:0:
192,192,12204,1,0,0:0:0:0:
64,192,12204,1,0,0:0:0:0:
192,192,12428,1,0,0:0:0:0:
320,192,12428,1,0,0:0:0:0:
320,192,12652,1,0,0:0:0:0:
64,192,12652,1,0,0:0:0:0:
192,192,12876,1,8,0:0:0:0:
448,192,12876,1,8,0:0:0:0:
448,192,13100,1,8,0:0:0:0:
64,192,13100,1,8,0:0:0:0:
192,192,13324,1,2,0:0:0:0:
448,192,13324,1,2,0:0:0:0:
320,192,13548,1,0,0:0:0:0:
64,192,13548,1,0,0:0:0:0:
192,192,13771,1,0,0:0:0:0:
448,192,13771,1,0,0:0:0:0:
448,192,13995,1,0,0:0:0:0:
320,192,13995,1,0,0:0:0:0:
192,192,14219,1,0,0:0:0:0:
320,192,14219,1,0,0:0:0:0:
64,192,14443,1,0,0:0:0:0:
448,192,14443,1,0,0:0:0:0:
320,192,14667,1,0,0:0:0:0:
192,192,14667,1,0,0:0:0:0:
64,192,14891,128,8,17130:0:0:0:0:
192,192,14891,1,0,0:0:0:0:
448,192,14891,1,0,0:0:0:0:
320,192,15115,1,2,0:0:0:0:
192,192,15115,1,2,0:0:0:0:
448,192,15339,1,2,0:0:0:0:
192,192,15339,1,0,0:0:0:0:
448,192,15563,128,8,16682:0:0:0:0:
320,192,15786,1,2,0:0:0:0:
192,192,15786,1,0,0:0:0:0:
192,192,16010,1,0,0:0:0:0:
320,192,16234,1,2,0:0:0:0:
320,192,16458,1,0,0:0:0:0:
192,192,16682,1,2,0:0:0:0:
320,192,16682,1,2,0:0:0:0:
320,192,16906,1,0,0:0:0:0:
192,192,17130,1,0,0:0:0:0:
448,192,17130,1,0,0:0:0:0:
448,192,17354,128,8,21160:0:0:0:0:
192,192,17354,1,0,0:0:0:0:
64,192,17577,1,2,0:0:0:0:
320,192,17577,1,0,0:0:0:0:
192,192,17801,1,2,0:0:0:0:
320,192,18025,1,2,0:0:0:0:
64,192,18025,1,2,0:0:0:0:
192,192,18249,1,0,0:0:0:0:
192,192,18473,128,0,18697:0:0:0:0:
64,192,18473,1,0,0:0:0:0:
320,192,18473,1,0,0:0:0:0:
320,192,18697,1,0,0:0:0:0:
320,192,18921,1,2,0:0:0:0:
64,192,18921,1,2,0:0:0:0:
192,192,19145,1,0,0:0:0:0:
64,192,19368,1,2,0:0:0:0:
320,192,19368,1,2,0:0:0:0:
192,192,19592,1,0,0:0:0:0:
64,192,19816,1,0,0:0:0:0:
320,192,19816,1,0,0:0:0:0:
192,192,20040,1,0,0:0:0:0:
320,192,20152,1,0,0:0:0:0:
192,192,20264,1,0,0:0:0:0:
64,192,20264,1,0,0:0:0:0:
320,192,20376,1,0,0:0:0:0:
192,192,20488,1,0,0:0:0:0:
192,192,20712,1,0,0:0:0:0:
320,192,20712,128,0,21160:0:0:0:0:
64,192,20936,1,0,0:0:0:0:
192,192,21160,1,4,0:0:0:0:
64,192,21160,1,0,0:0:0:0:
192,192,21495,1,0,0:0:0:0:
64,192,21607,1,0,0:0:0:0:
448,192,21607,128,8,24294:0:0:0:0:
192,192,21831,1,0,0:0:0:0:
320,192,21831,1,0,0:0:0:0:
64,192,22055,1,0,0:0:0:0:
320,192,22055,1,0,0:0:0:0:
192,192,22279,1,0,0:0:0:0:
320,192,22391,1,0,0:0:0:0:
192,192,22503,1,0,0:0:0:0:
64,192,22727,128,8,24294:0:0:0:0:
320,192,22727,1,0,0:0:0:0:
192,192,22951,1,0,0:0:0:0:
320,192,23174,1,2,0:0:0:0:
192,192,23398,1,2,0:0:0:0:
320,192,23622,1,2,0:0:0:0:
192,192,23846,1,2,0:0:0:0:
320,192,24070,1,2,0:0:0:0:
192,192,24294,1,4,0:0:0:0:
448,192,24518,1,0,0:0:0:0:
320,192,24630,1,0,0:0:0:0:
64,192,24742,1,0,0:0:0:0:
448,192,24742,128,8,28324:0:0:0:0:
192,192,24854,1,0,0:0:0:0:
320,192,24965,1,0,0:0:0:0:
64,192,25189,1,0,0:0:0:0:
320,192,25189,1,0,0:0:0:0:
192,192,25413,1,0,0:0:0:0:
64,192,25637,128,0,26085:0:0:0:0:
320,192,25637,1,0,0:0:0:0:
192,192,25637,1,0,0:0:0:0:
192,192,25749,1,0,0:0:0:0:
320,192,25861,1,0,0:0:0:0:
192,192,25973,1,0,0:0:0:0:
192,192,26197,1,0,0:0:0:0:
320,192,26309,1,0,0:0:0:0:
320,192,26533,1,0,0:0:0:0:
192,192,26533,128,0,28324:0:0:0:0:
64,192,26757,1,0,0:0:0:0:
320,192,26980,1,8,0:0:0:0:
64,192,27204,1,0,0:0:0:0:
320,192,27428,1,8,0:0:0:0:
64,192,27652,1,0,0:0:0:0:
320,192,27652,1,0,0:0:0:0:
320,192,27876,1,0,0:0:0:0:
64,192,28100,1,0,0:0:0:0:
320,192,28324,1,4,0:0:0:0:
64,192,28324,1,0,0:0:0:0:
64,192,28771,1,0,0:0:0:0:
448,192,28771,128,0,29219:0:0:0:0:
192,192,28995,1,0,0:0:0:0:
320,192,29219,128,0,30115:0:0:0:0:
64,192,29219,1,0,0:0:0:0:
192,192,29443,1,0,0:0:0:0:
64,192,29555,1,0,0:0:0:0:
192,192,29667,1,0,0:0:0:0:
448,192,29891,1,4,0:0:0:0:
192,192,30115,128,8,31458:0:0:0:0:
64,192,30115,1,0,0:0:0:0:
448,192,30339,1,0,0:0:0:0:
320,192,30563,1,8,0:0:0:0:
64,192,30674,1,0,0:0:0:0:
320,192,30786,1,8,0:0:0:0:
64,192,31010,1,8,0:0:0:0:
448,192,31010,1,0,0:0:0:0:
320,192,31234,1,0,0:0:0:0:
64,192,31346,1,0,0:0:0:0:
320,192,31458,1,4,0:0:0:0:
448,192,31458,1,0,0:0:0:0:
448,192,31682,128,8,35040:0:0:0:0:
64,192,31682,1,8,0:0:0:0:
192,192,31794,1,2,0:0:0:0:
64,192,31906,1,2,0:0:0:0:
320,192,32130,1,2,0:0:0:0:
64,192,32130,128,0,32801:0:0:0:0:
192,192,32354,1,0,0:0:0:0:
320,192,32354,1,0,0:0:0:0:
320,192,32577,1,0,0:0:0:0:
192,192,32801,128,8,33249:0:0:0:0:
320,192,32801,1,0,0:0:0:0:
64,192,33025,1,2,0:0:0:0:
320,192,33249,1,4,0:0:0:0:
64,192,33473,128,8,35040:0:0:0:0:
192,192,33697,1,2,0:0:0:0:
320,192,33921,1,0,0:0:0:0:
192,192,34145,1,8,0:0:0:0:
320,192,34368,1,8,0:0:0:0:
192,192,34592,1,8,0:0:0:0:
320,192,34816,1,0,0:0:0:0:
192,192,34928,1,0,0:0:0:0:
320,192,35040,1,4,0:0:0:0:
448,192,35264,1,0,0:0:0:0:
192,192,35264,1,0,0:0:0:0:
448,192,35488,128,8,36831:0:0:0:0:
64,192,35488,1,2,0:0:0:0:
320,192,35488,1,0,0:0:0:0:
192,192,35600,1,2,0:0:0:0:
64,192,35712,1,2,0:0:0:0:
192,192,35936,1,2,0:0:0:0:
64,192,35936,1,2,0:0:0:0:
320,192,36160,1,8,0:0:0:0:
192,192,36383,128,4,36831:0:0:0:0:
64,192,36383,1,0,0:0:0:0:
320,192,36383,1,0,0:0:0:0:
320,192,36607,1,0,0:0:0:0:
320,192,36831,1,8,0:0:0:0:
64,192,36831,1,8,0:0:0:0:
320,192,37055,1,0,0:0:0:0:
448,192,37279,128,8,38174:0:0:0:0:
64,192,37279,1,2,0:0:0:0:
192,192,37279,1,0,0:0:0:0:
320,192,37503,1,2,0:0:0:0:
192,192,37503,1,2,0:0:0:0:
64,192,37727,1,8,0:0:0:0:
320,192,37727,1,8,0:0:0:0:
192,192,37951,1,2,0:0:0:0:
320,192,38063,1,2,0:0:0:0:
64,192,38174,128,4,39070:0:0:0:0:
192,192,38174,1,0,0:0:0:0:
192,192,38398,1,2,0:0:0:0:
320,192,38398,1,0,0:0:0:0:
448,192,38622,1,2,0:0:0:0:
320,192,38622,1,0,0:0:0:0:
192,192,38622,1,0,0:0:0:0:
192,192,38846,1,8,0:0:0:0:
448,192,38846,1,8,0:0:0:0:
448,192,39070,128,4,39965:0:0:0:0:
320,192,39070,1,2,0:0:0:0:
64,192,39294,1,2,0:0:0:0:
320,192,39518,1,8,0:0:0:0:
192,192,39518,1,8,0:0:0:0:
64,192,39742,1,2,0:0:0:0:
192,192,39854,1,2,0:0:0:0:
320,192,39965,128,4,40637:0:0:0:0:
192,192,40189,1,8,0:0:0:0:
64,192,40413,1,0,0:0:0:0:
448,192,40413,1,0,0:0:0:0:
192,192,40637,128,4,43100:0:0:0:0:
64,192,40637,1,0,0:0:0:0:
320,192,40861,1,0,0:0:0:0:
64,192,41085,1,0,0:0:0:0:
320,192,41309,1,0,0:0:0:0:
320,192,41533,1,0,0:0:0:0:
64,192,41757,1,0,0:0:0:0:
448,192,41868,1,0,0:0:0:0:
320,192,41980,1,0,0:0:0:0:
448,192,42092,1,0,0:0:0:0:
64,192,42204,1,0,0:0:0:0:
448,192,42428,1,0,0:0:0:0:
64,192,42428,1,8,0:0:0:0:
448,192,42652,1,8,0:0:0:0:
320,192,42876,1,8,0:0:0:0:
64,192,43100,1,4,0:0:0:0:
448,192,43100,1,0,0:0:0:0:
320,192,43100,1,0,0:0:0:0:
448,192,43324,1,0,0:0:0:0:
192,192,43436,1,0,0:0:0:0:
64,192,43548,1,0,0:0:0:0:
320,192,43548,1,0,0:0:0:0:
192,192,43771,1,0,0:0:0:0:
320,192,43883,1,0,0:0:0:0:
192,192,43995,1,4,0:0:0:0:
448,192,43995,128,0,44443:0:0:0:0:
320,192,44219,1,2,0:0:0:0:
192,192,44443,1,0,0:0:0:0:
64,192,44443,128,0,45339:0:0:0:0:
448,192,44667,1,2,0:0:0:0:
320,192,44891,1,2,0:0:0:0:
448,192,44891,1,0,0:0:0:0:
192,192,45003,1,0,0:0:0:0:
448,192,45115,1,8,0:0:0:0:
192,192,45227,1,0,0:0:0:0:
320,192,45339,128,4,47130:0:0:0:0:
448,192,45339,1,0,0:0:0:0:
192,192,45563,1,2,0:0:0:0:
448,192,45786,1,2,0:0:0:0:
64,192,45786,1,0,0:0:0:0:
448,192,46010,1,2,0:0:0:0:
192,192,46122,1,2,0:0:0:0:
64,192,46234,1,2,0:0:0:0:
448,192,46234,1,0,0:0:0:0:
448,192,46458,1,0,0:0:0:0:
64,192,46570,1,0,0:0:0:0:
192,192,46682,1,0,0:0:0:0:
192,192,46906,1,0,0:0:0:0:
64,192,47018,1,0,0:0:0:0:
192,192,47130,1,4,0:0:0:0:
448,192,47130,1,4,0:0:0:0:
192,192,47354,1,0,0:0:0:0:
448,192,47354,1,0,0:0:0:0:
320,192,47577,1,0,0:0:0:0:
448,192,47577,128,0,47801:0:0:0:0:
64,192,47577,1,0,0:0:0:0:
192,192,47801,1,0,0:0:0:0:
64,192,47801,128,0,48249:0:0:0:0:
320,192,47801,1,0,0:0:0:0:
192,192,48025,1,0,0:0:0:0:
448,192,48025,1,0,0:0:0:0:
320,192,48137,1,0,0:0:0:0:
192,192,48249,1,0,0:0:0:0:
448,192,48249,128,0,48921:0:0:0:0:
320,192,48361,1,0,0:0:0:0:
192,192,48473,1,0,0:0:0:0:
64,192,48473,1,0,0:0:0:0:
192,192,48697,1,0,0:0:0:0:
64,192,48921,1,0,0:0:0:0:
320,192,48921,128,0,49816:0:0:0:0:
192,192,49145,1,0,0:0:0:0:
64,192,49368,1,0,0:0:0:0:
448,192,49368,1,0,0:0:0:0:
192,192,49480,1,0,0:0:0:0:
64,192,49592,1,0,0:0:0:0:
192,192,49816,1,0,0:0:0:0:
448,192,49816,128,8,50712:0:0:0:0:
64,192,49928,1,0,0:0:0:0:
192,192,50040,1,0,0:0:0:0:
64,192,50264,1,0,0:0:0:0:
320,192,50264,1,0,0:0:0:0:
192,192,50264,1,0,0:0:0:0:
64,192,50488,1,0,0:0:0:0:
192,192,50600,1,0,0:0:0:0:
320,192,50712,1,4,0:0:0:0:
64,192,50712,1,0,0:0:0:0:
320,192,50936,1,0,0:0:0:0:
448,192,51048,1,0,0:0:0:0:
192,192,51160,1,0,0:0:0:0:
64,192,51160,1,0,0:0:0:0:
64,192,51383,1,0,0:0:0:0:
448,192,51607,1,0,0:0:0:0:
192,192,51607,1,0,0:0:0:0:
192,192,51831,128,8,52951:0:0:0:0:
64,192,51831,1,0,0:0:0:0:
320,192,52055,1,0,0:0:0:0:
448,192,52055,1,0,0:0:0:0:
64,192,52279,1,8,0:0:0:0:
448,192,52503,1,8,0:0:0:0:
320,192,52503,1,0,0:0:0:0:
64,192,52727,1,0,0:0:0:0:
448,192,52839,1,0,0:0:0:0:
320,192,52951,1,0,0:0:0:0:
448,192,52951,1,0,0:0:0:0:
64,192,53174,128,0,54294:0:0:0:0:
320,192,53174,1,0,0:0:0:0:
192,192,53398,1,0,0:0:0:0:
448,192,53398,1,0,0:0:0:0:
320,192,53622,1,0,0:0:0:0:
448,192,53846,1,0,0:0:0:0:
192,192,53846,1,0,0:0:0:0:
192,192,54070,1,0,0:0:0:0:
320,192,54182,1,0,0:0:0:0:
448,192,54294,1,4,0:0:0:0:
192,192,54294,1,0,0:0:0:0:
192,192,54518,1,0,0:0:0:0:
448,192,54518,1,0,0:0:0:0:
320,192,54518,1,0,0:0:0:0:
64,192,54742,1,0,0:0:0:0:
320,192,54742,1,0,0:0:0:0:
192,192,54965,1,0,0:0:0:0:
448,192,54965,1,0,0:0:0:0:
64,192,54965,1,0,0:0:0:0:
192,192,55189,128,8,57876:0:0:0:0:
320,192,55189,1,0,0:0:0:0:
64,192,55413,1,0,0:0:0:0:
448,192,55413,1,0,0:0:0:0:
320,192,55637,1,0,0:0:0:0:
64,192,55861,1,0,0:0:0:0:
448,192,55861,1,0,0:0:0:0:
320,192,56085,1,0,0:0:0:0:
448,192,56309,1,0,0:0:0:0:
64,192,56421,1,0,0:0:0:0:
448,192,56533,1,0,0:0:0:0:
320,192,56757,1,0,0:0:0:0:
448,192,56980,1,0,0:0:0:0:
64,192,57092,1,0,0:0:0:0:
448,192,57204,1,0,0:0:0:0:
320,192,57428,1,0,0:0:0:0:
64,192,57652,1,0,0:0:0:0:
448,192,57876,1,0,0:0:0:0:
320,192,57988,1,0,0:0:0:0:
448,192,58100,1,0,0:0:0:0:
320,192,58212,1,0,0:0:0:0:
192,192,58324,1,0,0:0:0:0:
64,192,58436,1,0,0:0:0:0:
192,192,58548,1,0,0:0:0:0:
320,192,58660,1,0,0:0:0:0:
192,192,58771,1,4,0:0:0:0:
64,192,58995,1,4,0:0:0:0:
448,192,58995,128,8,59667:0:0:0:0:
320,192,59219,1,2,0:0:0:0:
192,192,59219,1,2,0:0:0:0:
64,192,59443,1,2,0:0:0:0:
64,192,59667,1,8,0:0:0:0:
192,192,59667,1,8,0:0:0:0:
320,192,59667,128,4,60339:0:0:0:0:
448,192,59891,1,8,0:0:0:0:
64,192,60115,1,0,0:0:0:0:
192,192,60115,1,0,0:0:0:0:
448,192,60339,128,0,61458:0:0:0:0:
192,192,60339,128,0,61458:0:0:0:0:
64,192,60563,1,2,0:0:0:0:
320,192,60563,1,0,0:0:0:0:
320,192,60786,1,2,0:0:0:0:
64,192,61010,1,2,0:0:0:0:
320,192,61010,1,0,0:0:0:0:
320,192,61234,1,0,0:0:0:0:
320,192,61458,128,4,61906:0:0:0:0:
64,192,61458,1,0,0:0:0:0:
64,192,61682,1,0,0:0:0:0:
192,192,61794,1,0,0:0:0:0:
448,192,61906,128,0,62354:0:0:0:0:
64,192,61906,1,0,0:0:0:0:
64,192,62130,1,0,0:0:0:0:
320,192,62242,1,0,0:0:0:0:
192,192,62354,128,0,62801:0:0:0:0:
64,192,62354,1,0,0:0:0:0:
448,192,62577,1,0,0:0:0:0:
64,192,62801,128,0,63921:0:0:0:0:
320,192,62801,1,0,0:0:0:0:
448,192,63025,1,0,0:0:0:0:
320,192,63137,1,0,0:0:0:0:
448,192,63249,128,4,65936:0:0:0:0:
192,192,63249,1,0,0:0:0:0:
320,192,63473,1,0,0:0:0:0:
192,192,63697,1,0,0:0:0:0:
320,192,63809,1,0,0:0:0:0:
192,192,63921,1,0,0:0:0:0:
320,192,64033,1,0,0:0:0:0:
64,192,64145,1,8,0:0:0:0:
192,192,64145,1,0,0:0:0:0:
192,192,64368,1,8,0:0:0:0:
64,192,64592,1,8,0:0:0:0:
320,192,64592,1,0,0:0:0:0:
192,192,64704,1,0,0:0:0:0:
320,192,64816,1,2,0:0:0:0:
192,192,64928,1,0,0:0:0:0:
320,192,65040,1,2,0:0:0:0:
64,192,65040,1,0,0:0:0:0:
64,192,65264,1,8,0:0:0:0:
192,192,65376,1,0,0:0:0:0:
320,192,65488,1,2,0:0:0:0:
192,192,65600,1,0,0:0:0:0:
320,192,65712,1,2,0:0:0:0:
320,192,65936,1,4,0:0:0:0:
64,192,65936,1,4,0:0:0:0:
192,192,65936,1,0,0:0:0:0:
192,192,66160,1,2,0:0:0:0:
320,192,66271,1,0,0:0:0:0:
192,192,66383,1,2,0:0:0:0:
320,192,66495,1,0,0:0:0:0:
64,192,66607,1,0,0:0:0:0:
448,192,66607,128,0,67279:0:0:0:0:
192,192,66831,1,0,0:0:0:0:
320,192,66831,1,0,0:0:0:0:
320,192,67055,1,0,0:0:0:0:
192,192,67279,1,0,0:0:0:0:
64,192,67279,128,0,68398:0:0:0:0:
320,192,67503,1,8,0:0:0:0:
192,192,67615,1,0,0:0:0:0:
320,192,67727,1,4,0:0:0:0:
448,192,67727,1,0,0:0:0:0:
192,192,67839,1,0,0:0:0:0:
448,192,67951,1,0,0:0:0:0:
320,192,68174,1,8,0:0:0:0:
448,192,68174,1,0,0:0:0:0:
192,192,68398,128,4,70189:0:0:0:0:
448,192,68398,1,0,0:0:0:0:
320,192,68622,1,4,0:0:0:0:
448,192,68846,1,2,0:0:0:0:
64,192,68846,1,2,0:0:0:0:
320,192,69070,1,2,0:0:0:0:
64,192,69070,1,2,0:0:0:0:
448,192,69182,1,0,0:0:0:0:
320,192,69294,1,2,0:0:0:0:
448,192,69518,1,4,0:0:0:0:
64,192,69518,1,8,0:0:0:0:
64,192,69742,1,8,0:0:0:0:
320,192,69742,1,8,0:0:0:0:
320,192,69965,1,2,0:0:0:0:
448,192,70077,1,0,0:0:0:0:
320,192,70189,1,0,0:0:0:0:
64,192,70189,1,0,0:0:0:0:
448,192,70413,128,0,71309:0:0:0:0:
64,192,70413,1,8,0:0:0:0:
320,192,70413,1,0,0:0:0:0:
192,192,70525,1,0,0:0:0:0:
64,192,70637,1,8,0:0:0:0:
320,192,70749,1,0,0:0:0:0:
192,192,70861,128,0,73100:0:0:0:0:
64,192,71085,1,8,0:0:0:0:
320,192,71309,1,8,0:0:0:0:
64,192,71309,1,0,0:0:0:0:
64,192,71533,1,2,0:0:0:0:
448,192,71645,1,0,0:0:0:0:
320,192,71757,1,2,0:0:0:0:
64,192,71757,1,0,0:0:0:0:
320,192,71980,1,0,0:0:0:0:
320,192,72204,1,4,0:0:0:0:
448,192,72204,1,0,0:0:0:0:
448,192,72428,1,0,0:0:0:0:
320,192,72540,1,0,0:0:0:0:
64,192,72540,1,0,0:0:0:0:
448,192,72652,1,4,0:0:0:0:
320,192,72876,1,0,0:0:0:0:
448,192,72876,1,0,0:0:0:0:
320,192,73100,1,4,0:0:0:0:
64,192,73100,1,4,0:0:0:0:
448,192,73212,1,0,0:0:0:0:
320,192,73324,1,0,0:0:0:0:
192,192,73324,1,0,0:0:0:0:
64,192,73548,1,0,0:0:0:0:
448,192,73548,128,4,74891:0:0:0:0:
320,192,73548,1,0,0:0:0:0:
192,192,73771,1,8,0:0:0:0:
320,192,73883,1,0,0:0:0:0:
192,192,73995,1,8,0:0:0:0:
64,192,73995,1,0,0:0:0:0:
320,192,74219,1,8,0:0:0:0:
64,192,74219,1,10,0:0:0:0:
320,192,74443,1,2,0:0:0:0:
192,192,74443,1,0,0:0:0:0:
64,192,74555,1,0,0:0:0:0:
320,192,74667,1,2,0:0:0:0:
64,192,74779,1,0,0:0:0:0:
320,192,74891,128,4,75786:0:0:0:0:
192,192,74891,1,0,0:0:0:0:
64,192,75115,1,0,0:0:0:0:
448,192,75115,1,0,0:0:0:0:
192,192,75339,1,2,0:0:0:0:
448,192,75339,1,0,0:0:0:0:
64,192,75563,1,0,0:0:0:0:
448,192,75563,1,0,0:0:0:0:
192,192,75674,1,0,0:0:0:0:
64,192,75786,128,4,76234:0:0:0:0:
448,192,75786,1,0,0:0:0:0:
192,192,76010,1,0,0:0:0:0:
320,192,76122,1,0,0:0:0:0:
448,192,76234,1,0,0:0:0:0:
192,192,76234,1,0,0:0:0:0:
192,192,76458,1,8,0:0:0:0:
320,192,76458,128,0,77130:0:0:0:0:
64,192,76570,1,8,0:0:0:0:
192,192,76682,1,8,0:0:0:0:
448,192,76682,1,0,0:0:0:0:
64,192,76794,1,0,0:0:0:0:
192,192,76906,1,8,0:0:0:0:
448,192,77018,1,0,0:0:0:0:
64,192,77130,128,0,77577:0:0:0:0:
192,192,77130,1,0,0:0:0:0:
448,192,77242,1,0,0:0:0:0:
192,192,77354,1,2,0:0:0:0:
448,192,77577,1,0,0:0:0:0:
320,192,77577,128,0,78249:0:0:0:0:
192,192,77689,1,0,0:0:0:0:
448,192,77801,1,2,0:0:0:0:
192,192,77913,1,0,0:0:0:0:
64,192,78025,1,2,0:0:0:0:
448,192,78025,1,0,0:0:0:0:
192,192,78249,128,4,80264:0:0:0:0:
448,192,78473,1,4,0:0:0:0:
320,192,78473,1,0,0:0:0:0:
64,192,78585,1,0,0:0:0:0:
320,192,78697,1,0,0:0:0:0:
448,192,78809,1,0,0:0:0:0:
320,192,78921,1,0,0:0:0:0:
320,192,79145,1,0,0:0:0:0:
64,192,79145,1,0,0:0:0:0:
448,192,79368,1,2,0:0:0:0:
320,192,79368,1,2,0:0:0:0:
64,192,79480,1,0,0:0:0:0:
320,192,79592,1,2,0:0:0:0:
448,192,79592,1,2,0:0:0:0:
448,192,79816,1,0,0:0:0:0:
64,192,79816,1,0,0:0:0:0:
320,192,80040,1,0,0:0:0:0:
64,192,80152,1,0,0:0:0:0:
320,192,80264,1,4,0:0:0:0:
448,192,80264,128,8,81383:0:0:0:0:
64,192,80488,1,2,0:0:0:0:
320,192,80488,1,2,0:0:0:0:
192,192,80600,1,0,0:0:0:0:
64,192,80712,1,2,0:0:0:0:
320,192,80712,1,2,0:0:0:0:
320,192,80936,1,2,0:0:0:0:
192,192,80936,1,2,0:0:0:0:
64,192,81160,128,8,82055:0:0:0:0:
320,192,81160,1,0,0:0:0:0:
192,192,81271,1,0,0:0:0:0:
320,192,81383,1,0,0:0:0:0:
192,192,81607,1,2,0:0:0:0:
448,192,81607,1,2,0:0:0:0:
320,192,81831,1,2,0:0:0:0:
192,192,82055,1,8,0:0:0:0:
448,192,82055,128,0,82503:0:0:0:0:
320,192,82055,1,0,0:0:0:0:
320,192,82279,1,0,0:0:0:0:
64,192,82279,1,0,0:0:0:0:
192,192,82503,128,0,83846:0:0:0:0:
320,192,82503,1,0,0:0:0:0:
64,192,82615,1,0,0:0:0:0:
448,192,82727,1,0,0:0:0:0:
64,192,82951,128,8,84294:0:0:0:0:
320,192,82951,1,0,0:0:0:0:
448,192,82951,1,0,0:0:0:0:
448,192,83174,1,0,0:0:0:0:
320,192,83398,1,2,0:0:0:0:
448,192,83398,1,0,0:0:0:0:
448,192,83510,1,0,0:0:0:0:
320,192,83622,1,2,0:0:0:0:
448,192,83846,1,8,0:0:0:0:
320,192,83846,1,8,0:0:0:0:
448,192,84070,1,0,0:0:0:0:
320,192,84182,1,0,0:0:0:0:
448,192,84294,128,8,85413:0:0:0:0:
192,192,84294,1,0,0:0:0:0:
320,192,84518,1,0,0:0:0:0:
64,192,84630,1,0,0:0:0:0:
192,192,84742,1,0,0:0:0:0:
320,192,84742,1,0,0:0:0:0:
320,192,84965,1,0,0:0:0:0:
64,192,84965,1,0,0:0:0:0:
192,192,85189,128,8,86309:0:0:0:0:
320,192,85189,1,0,0:0:0:0:
64,192,85301,1,0,0:0:0:0:
320,192,85413,1,0,0:0:0:0:
64,192,85525,1,0,0:0:0:0:
320,192,85637,1,0,0:0:0:0:
448,192,85637,1,0,0:0:0:0:
320,192,85861,1,0,0:0:0:0:
64,192,85861,1,0,0:0:0:0:
320,192,86085,1,0,0:0:0:0:
64,192,86085,1,0,0:0:0:0:
448,192,86197,1,0,0:0:0:0:
320,192,86309,1,0,0:0:0:0:
64,192,86533,128,4,91906:0:0:0:0:
192,192,86533,1,4,0:0:0:0:
448,192,86533,1,4,0:0:0:0:
320,192,86757,1,0,0:0:0:0:
448,192,86757,1,0,0:0:0:0:
192,192,86980,1,2,0:0:0:0:
320,192,86980,1,2,0:0:0:0:
448,192,87204,1,0,0:0:0:0:
192,192,87204,1,0,0:0:0:0:
320,192,87428,1,2,0:0:0:0:
192,192,87428,1,2,0:0:0:0:
192,192,87652,1,2,0:0:0:0:
448,192,87652,1,2,0:0:0:0:
320,192,87764,1,0,0:0:0:0:
192,192,87876,1,2,0:0:0:0:
448,192,87876,1,2,0:0:0:0:
192,192,88100,1,0,0:0:0:0:
320,192,88100,1,0,0:0:0:0:
320,192,88324,1,2,0:0:0:0:
448,192,88324,128,0,88995:0:0:0:0:
192,192,88324,1,0,0:0:0:0:
192,192,88548,1,2,0:0:0:0:
320,192,88548,1,2,0:0:0:0:
192,192,88771,1,0,0:0:0:0:
320,192,88771,1,0,0:0:0:0:
320,192,88883,1,0,0:0:0:0:
192,192,88995,1,0,0:0:0:0:
192,192,89219,128,0,91906:0:0:0:0:
320,192,89219,1,0,0:0:0:0:
448,192,89219,1,0,0:0:0:0:
320,192,89667,1,2,0:0:0:0:
448,192,89667,1,2,0:0:0:0:
448,192,89891,1,0,0:0:0:0:
320,192,90115,1,2,0:0:0:0:
448,192,90115,1,2,0:0:0:0:
320,192,90339,1,0,0:0:0:0:
448,192,90339,1,0,0:0:0:0:
320,192,90563,1,2,0:0:0:0:
448,192,90674,1,0,0:0:0:0:
320,192,90786,1,0,0:0:0:0:
320,192,91010,1,2,0:0:0:0:
448,192,91010,1,2,0:0:0:0:
320,192,91234,1,0,0:0:0:0:
448,192,91234,1,0,0:0:0:0:
320,192,91458,1,2,0:0:0:0:
448,192,91570,1,0,0:0:0:0:
320,192,91682,1,0,0:0:0:0:
320,192,91906,1,2,0:0:0:0:
448,192,91906,128,0,92577:0:0:0:0:
192,192,92130,1,0,0:0:0:0:
64,192,92130,1,0,0:0:0:0:
64,192,92354,1,0,0:0:0:0:
320,192,92354,1,0,0:0:0:0:
192,192,92354,1,0,0:0:0:0:
192,192,92577,128,0,93249:0:0:0:0:
320,192,92801,1,0,0:0:0:0:
448,192,92801,1,0,0:0:0:0:
320,192,93025,1,0,0:0:0:0:
64,192,93249,128,0,93697:0:0:0:0:
320,192,93249,1,0,0:0:0:0:
448,192,93249,1,0,0:0:0:0:
192,192,93473,1,0,0:0:0:0:
320,192,93473,1,0,0:0:0:0:
192,192,93697,1,0,0:0:0:0:
320,192,93697,128,0,95488:0:0:0:0:
448,192,93697,1,0,0:0:0:0:
192,192,93921,1,0,0:0:0:0:
64,192,94145,1,0,0:0:0:0:
192,192,94145,1,0,0:0:0:0:
448,192,94257,1,0,0:0:0:0:
192,192,94368,1,0,0:0:0:0:
64,192,94592,128,0,95488:0:0:0:0:
448,192,94592,1,0,0:0:0:0:
192,192,94592,1,0,0:0:0:0:
448,192,94928,1,0,0:0:0:0:
192,192,95152,1,0,0:0:0:0:
448,192,95264,1,0,0:0:0:0:
192,192,95488,1,0,0:0:0:0:
448,192,95488,1,0,0:0:0:0:
