osu file format v13

[General]
AudioFilename: ALIVE.mp3
AudioLeadIn: 0
PreviewTime: 58995
Countdown: 0
SampleSet: Soft
StackLeniency: 0.7
Mode: 3
LetterboxInBreaks: 0
SpecialStyle: 0
WidescreenStoryboard: 1

[Editor]
DistanceSpacing: 0.8
BeatDivisor: 4
GridSize: 32
TimelineZoom: 1

[Metadata]
Title:ALIVE (Cut Ver)
TitleUnicode:アライブ (Cut Ver)
Artist:Suzuno Ito, Takanashi Otoha (CV. Komatsu Mikako, Goto Saori)
ArtistUnicode:涼野 いと, 小鳥遊 おとは (CV. 小松 未可子, 後藤 沙緒里)
Creator:ShiinoYuuki
Version:EZ+
Source:Pretty Rhythm Rainbow Live
Tags:Takanashi Otoha Suzuno Ito Anime Jpop Mikako Komatsu Gotou Saori KazuhikoRei arviejhay
BeatmapID:454696
BeatmapSetID:190748

[Difficulty]
HPDrainRate:6
CircleSize:4
OverallDifficulty:6
ApproachRate:5
SliderMultiplier:1.4
SliderTickRate:1

[Events]
//Background and Video events
0,0,"vlcsnap-2014-07-06-12h15m10s151.png",0,0
//Break Periods
//Storyboard Layer 0 (Background)
//Storyboard Layer 1 (Fail)
//Storyboard Layer 2 (Pass)
//Storyboard Layer 3 (Foreground)
//Storyboard Sound Samples

[TimingPoints]
563,447.761194029851,4,2,0,27,1,0
59667,-100,4,2,0,27,0,1
91906,-100,4,2,0,27,0,0

[HitObjects]
64,192,563,128,0,1234:2:2:0:0:
320,192,1234,128,0,1906:2:2:0:0:
192,192,1906,128,0,2354:2:2:0:0:
448,192,2354,128,0,3025:2:2:0:0:
320,192,3025,128,0,3697:2:2:0:0:
192,192,3697,128,0,4145:2:2:0:0:
64,192,4145,128,0,4816:2:2:0:0:
448,192,4816,128,0,5488:2:2:0:0:
192,192,5488,128,0,5936:2:2:0:0:
320,192,5936,128,0,7279:2:2:0:0:
64,192,6160,1,0,2:2:0:0:
448,192,6383,1,0,2:2:0:0:
64,192,6607,1,0,2:2:0:0:
192,192,6831,1,0,2:2:0:0:
448,192,7055,1,0,2:2:0:0:
192,192,7279,1,0,2:2:0:0:
448,192,7727,1,0,2:2:0:0:
192,192,7727,128,0,8398:2:2:0:0:
320,192,8398,128,0,9294:2:2:0:0:
64,192,9294,1,0,2:2:0:0:
192,192,9518,1,0,2:2:0:0:
64,192,9742,1,0,2:2:0:0:
192,192,9965,1,0,2:2:0:0:
320,192,10189,1,0,2:2:0:0:
448,192,10413,1,0,2:2:0:0:
320,192,10637,128,0,11309:2:2:0:0:
64,192,11309,1,0,2:2:0:0:
192,192,11309,1,0,2:2:0:0:
192,192,11980,1,0,2:2:0:0:
320,192,11980,1,0,2:2:0:0:
64,192,12876,1,0,2:2:0:0:
192,192,13100,128,0,14891:2:2:0:0:
448,192,14891,1,0,2:2:0:0:
64,192,15115,1,0,2:2:0:0:
192,192,15339,1,0,2:2:0:0:
448,192,15339,128,0,16682:0:0:0:0:
320,192,15786,1,0,0:0:0:0:
64,192,16234,1,0,0:0:0:0:
192,192,16682,1,0,0:0:0:0:
64,192,16906,1,0,0:0:0:0:
192,192,17130,1,0,0:0:0:0:
320,192,17354,1,0,0:0:0:0:
448,192,17577,1,0,0:0:0:0:
64,192,17801,1,0,0:0:0:0:
192,192,18025,1,0,0:0:0:0:
64,192,18249,1,0,0:0:0:0:
320,192,18473,1,0,0:0:0:0:
448,192,18473,1,0,0:0:0:0:
192,192,18921,1,0,0:0:0:0:
320,192,19368,1,0,0:0:0:0:
64,192,19816,1,0,0:0:0:0:
192,192,20264,1,0,0:0:0:0:
320,192,20264,1,0,0:0:0:0:
448,192,20488,1,0,0:0:0:0:
320,192,20712,1,0,0:0:0:0:
192,192,20936,1,0,0:0:0:0:
64,192,21160,1,0,0:0:0:0:
448,192,21383,1,0,0:0:0:0:
192,192,21607,128,0,22055:0:0:0:0:
320,192,22055,1,0,0:0:0:0:
448,192,22055,1,0,0:0:0:0:
448,192,22503,1,0,0:0:0:0:
192,192,22727,1,0,0:0:0:0:
64,192,22951,1,0,0:0:0:0:
192,192,23174,1,0,0:0:0:0:
320,192,23398,1,0,0:0:0:0:
448,192,23622,1,0,0:0:0:0:
192,192,23846,1,0,0:0:0:0:
64,192,23846,1,0,0:0:0:0:
320,192,24070,1,0,0:0:0:0:
64,192,24294,1,0,0:0:0:0:
192,192,24518,1,0,0:0:0:0:
448,192,24742,1,0,0:0:0:0:
192,192,24965,1,0,0:0:0:0:
64,192,25189,1,0,0:0:0:0:
320,192,25637,1,0,0:0:0:0:
448,192,25637,1,0,0:0:0:0:
192,192,25861,1,0,0:0:0:0:
320,192,26085,1,0,0:0:0:0:
64,192,26309,1,0,0:0:0:0:
448,192,26533,1,0,0:0:0:0:
192,192,26757,1,0,0:0:0:0:
320,192,26980,1,0,0:0:0:0:
448,192,27204,1,0,0:0:0:0:
192,192,27428,1,0,0:0:0:0:
64,192,27428,1,0,0:0:0:0:
448,192,27652,1,0,0:0:0:0:
192,192,27876,1,0,0:0:0:0:
448,192,28100,1,0,0:0:0:0:
64,192,28324,1,0,0:0:0:0:
192,192,28771,128,0,29219:0:0:0:0:
320,192,29219,1,0,0:0:0:0:
64,192,29219,1,0,0:0:0:0:
448,192,29667,1,0,0:0:0:0:
192,192,29891,1,0,0:0:0:0:
320,192,30115,1,0,0:0:0:0:
64,192,30339,1,0,0:0:0:0:
320,192,30563,1,0,0:0:0:0:
448,192,30786,1,0,0:0:0:0:
192,192,31010,1,0,0:0:0:0:
64,192,31010,1,0,0:0:0:0:
320,192,31234,1,0,0:0:0:0:
448,192,31458,1,0,0:0:0:0:
320,192,31682,1,0,0:0:0:0:
192,192,31906,1,0,0:0:0:0:
64,192,32130,1,0,0:0:0:0:
448,192,32354,128,0,32801:0:0:0:0:
192,192,32801,1,0,0:0:0:0:
64,192,32801,1,0,0:0:0:0:
320,192,33025,1,0,0:0:0:0:
192,192,33249,1,0,0:0:0:0:
320,192,33473,1,0,0:0:0:0:
64,192,33697,1,0,0:0:0:0:
448,192,33921,1,0,0:0:0:0:
192,192,34145,1,0,0:0:0:0:
64,192,34368,1,0,0:0:0:0:
448,192,34592,1,0,0:0:0:0:
320,192,34592,1,0,0:0:0:0:
192,192,34816,1,0,0:0:0:0:
320,192,35040,1,0,0:0:0:0:
64,192,35264,1,0,0:0:0:0:
192,192,35488,128,0,35936:0:0:0:0:
448,192,35936,128,0,36383:0:0:0:0:
320,192,36383,1,0,0:0:0:0:
64,192,36383,1,0,0:0:0:0:
192,192,36831,128,0,37279:0:0:0:0:
320,192,37279,128,0,37727:0:0:0:0:
448,192,37727,128,0,38174:0:0:0:0:
64,192,38174,1,0,0:0:0:0:
192,192,38174,128,0,38622:0:0:0:0:
320,192,38622,128,0,39070:0:0:0:0:
448,192,39070,128,0,39518:0:0:0:0:
64,192,39518,128,0,39965:0:0:0:0:
320,192,39965,128,0,40637:0:0:0:0:
192,192,39965,1,0,0:0:0:0:
448,192,40637,128,0,41309:0:0:0:0:
320,192,41309,1,0,0:0:0:0:
192,192,41757,1,0,0:0:0:0:
320,192,42204,1,0,0:0:0:0:
64,192,42652,1,0,0:0:0:0:
192,192,43100,1,0,0:0:0:0:
320,192,43548,1,0,0:0:0:0:
64,192,43548,1,0,0:0:0:0:
192,192,43995,1,0,0:0:0:0:
448,192,44219,1,0,0:0:0:0:
192,192,44443,1,0,0:0:0:0:
64,192,44443,1,0,0:0:0:0:
320,192,44891,1,0,0:0:0:0:
192,192,44891,1,0,0:0:0:0:
448,192,45339,1,0,0:0:0:0:
320,192,45339,1,0,0:0:0:0:
64,192,45786,1,0,0:0:0:0:
192,192,45786,1,0,0:0:0:0:
320,192,46234,1,0,0:0:0:0:
448,192,46234,1,0,0:0:0:0:
192,192,46682,1,0,0:0:0:0:
320,192,46682,1,0,0:0:0:0:
192,192,47130,1,0,0:0:0:0:
64,192,47130,1,0,0:0:0:0:
320,192,47577,1,0,0:0:0:0:
192,192,47577,1,0,0:0:0:0:
64,192,48025,1,0,0:0:0:0:
192,192,48025,1,0,0:0:0:0:
192,192,48473,1,0,0:0:0:0:
448,192,48473,1,0,0:0:0:0:
320,192,48921,1,0,0:0:0:0:
64,192,48921,128,0,49592:0:0:0:0:
192,192,49368,1,0,0:0:0:0:
448,192,49592,128,0,50264:0:0:0:0:
320,192,49816,1,0,0:0:0:0:
192,192,50264,128,0,50712:0:0:0:0:
320,192,50712,1,0,0:0:0:0:
64,192,50712,1,0,0:0:0:0:
448,192,50936,1,0,0:0:0:0:
320,192,51160,1,0,0:0:0:0:
64,192,51160,1,0,0:0:0:0:
192,192,51383,1,0,0:0:0:0:
448,192,51607,1,0,0:0:0:0:
320,192,51607,1,0,0:0:0:0:
320,192,51831,1,0,0:0:0:0:
192,192,52055,1,0,0:0:0:0:
64,192,52055,1,0,0:0:0:0:
448,192,52503,128,0,53174:0:0:0:0:
192,192,52503,1,0,0:0:0:0:
320,192,52951,1,0,0:0:0:0:
192,192,53174,128,0,54294:0:0:0:0:
64,192,53398,1,0,0:0:0:0:
448,192,53846,1,0,0:0:0:0:
64,192,54294,1,0,0:0:0:0:
320,192,54294,1,0,0:0:0:0:
320,192,54742,1,0,0:0:0:0:
448,192,54742,1,0,0:0:0:0:
192,192,55189,1,0,0:0:0:0:
64,192,55189,1,0,0:0:0:0:
320,192,55637,1,0,0:0:0:0:
192,192,55637,1,0,0:0:0:0:
64,192,56085,1,0,0:0:0:0:
448,192,56085,1,0,0:0:0:0:
192,192,56533,1,0,0:0:0:0:
320,192,56980,1,0,0:0:0:0:
192,192,57428,128,0,57876:0:0:0:0:
320,192,57876,128,0,58100:0:0:0:0:
64,192,58100,128,0,58324:0:0:0:0:
192,192,58324,128,0,58548:0:0:0:0:
448,192,58548,128,0,58771:0:0:0:0:
320,192,58771,128,0,58995:0:0:0:0:
192,192,58995,128,0,59219:0:0:0:0:
64,192,59219,128,0,59443:0:0:0:0:
448,192,59443,128,0,59667:0:0:0:0:
192,192,59667,128,0,60115:0:0:0:0:
320,192,60115,1,0,0:0:0:0:
448,192,60339,1,0,0:0:0:0:
192,192,60563,1,0,0:0:0:0:
64,192,60563,1,0,0:0:0:0:
320,192,61010,1,0,0:0:0:0:
64,192,61010,1,0,0:0:0:0:
192,192,61234,1,0,0:0:0:0:
448,192,61458,1,0,0:0:0:0:
64,192,61458,1,0,0:0:0:0:
320,192,61906,1,0,0:0:0:0:
192,192,61906,1,0,0:0:0:0:
320,192,62354,1,0,0:0:0:0:
448,192,62354,1,0,0:0:0:0:
192,192,62801,1,0,0:0:0:0:
320,192,62801,1,0,0:0:0:0:
192,192,63249,1,0,0:0:0:0:
64,192,63249,128,0,63697:0:0:0:0:
320,192,63697,1,0,0:0:0:0:
448,192,63921,1,0,0:0:0:0:
192,192,64145,128,0,64592:0:0:0:0:
320,192,64592,1,0,0:0:0:0:
192,192,65040,1,0,0:0:0:0:
64,192,65040,1,0,0:0:0:0:
448,192,65488,1,0,0:0:0:0:
64,192,65488,1,0,0:0:0:0:
192,192,65712,1,0,0:0:0:0:
64,192,65936,1,0,0:0:0:0:
448,192,65936,1,0,0:0:0:0:
320,192,66160,1,0,0:0:0:0:
192,192,66383,1,0,0:0:0:0:
64,192,66383,1,0,0:0:0:0:
448,192,66831,1,0,0:0:0:0:
192,192,66831,1,0,0:0:0:0:
320,192,67279,1,0,0:0:0:0:
64,192,67279,1,0,0:0:0:0:
192,192,67727,1,0,0:0:0:0:
320,192,67727,1,0,0:0:0:0:
192,192,68174,1,0,0:0:0:0:
320,192,68174,1,0,0:0:0:0:
192,192,68622,1,0,0:0:0:0:
64,192,68622,1,0,0:0:0:0:
320,192,69070,128,0,69518:0:0:0:0:
192,192,69518,128,0,69965:0:0:0:0:
448,192,69965,128,0,70413:0:0:0:0:
320,192,70413,128,0,70861:0:0:0:0:
64,192,70861,1,0,0:0:0:0:
192,192,71309,1,0,0:0:0:0:
320,192,71309,1,0,0:0:0:0:
64,192,71757,1,0,0:0:0:0:
448,192,71757,1,0,0:0:0:0:
192,192,72204,1,0,0:0:0:0:
320,192,72204,1,0,0:0:0:0:
64,192,72652,1,0,0:0:0:0:
448,192,72652,1,0,0:0:0:0:
192,192,73100,1,0,0:0:0:0:
320,192,73100,1,0,0:0:0:0:
192,192,73548,1,0,0:0:0:0:
448,192,73548,1,0,0:0:0:0:
320,192,73995,1,0,0:0:0:0:
64,192,73995,128,0,74667:0:0:0:0:
320,192,74443,1,0,0:0:0:0:
192,192,74667,1,0,0:0:0:0:
448,192,74891,128,0,75563:0:0:0:0:
64,192,74891,1,0,0:0:0:0:
192,192,75339,1,0,0:0:0:0:
320,192,75563,1,0,0:0:0:0:
64,192,75786,128,0,76234:0:0:0:0:
192,192,76234,128,0,76682:0:0:0:0:
320,192,76682,128,0,77130:0:0:0:0:
192,192,77130,128,0,77577:0:0:0:0:
64,192,77577,1,0,0:0:0:0:
448,192,77577,128,0,78025:0:0:0:0:
320,192,78025,1,0,0:0:0:0:
192,192,78249,1,0,0:0:0:0:
64,192,78473,128,0,79368:0:0:0:0:
448,192,78473,1,0,0:0:0:0:
192,192,78921,1,0,0:0:0:0:
320,192,79368,128,0,79816:0:0:0:0:
192,192,79816,1,0,0:0:0:0:
448,192,79816,1,0,0:0:0:0:
64,192,80264,1,0,0:0:0:0:
192,192,80264,1,0,0:0:0:0:
320,192,80712,1,0,0:0:0:0:
448,192,80712,1,0,0:0:0:0:
320,192,81160,1,0,0:0:0:0:
192,192,81160,128,0,82055:0:0:0:0:
320,192,82055,1,0,0:0:0:0:
448,192,82279,1,0,0:0:0:0:
192,192,82503,1,0,0:0:0:0:
64,192,82727,1,0,0:0:0:0:
320,192,82951,128,0,83846:0:0:0:0:
448,192,82951,1,0,0:0:0:0:
192,192,83398,1,0,0:0:0:0:
64,192,83846,1,0,0:0:0:0:
192,192,84294,1,0,0:0:0:0:
448,192,84294,1,0,0:0:0:0:
320,192,84518,1,0,0:0:0:0:
64,192,84742,1,0,0:0:0:0:
192,192,84742,1,0,0:0:0:0:
320,192,85189,1,0,0:0:0:0:
192,192,85189,1,0,0:0:0:0:
192,192,85637,128,0,86085:0:0:0:0:
320,192,86085,128,0,86533:0:0:0:0:
448,192,86533,128,0,87428:0:0:0:0:
64,192,86980,1,0,0:0:0:0:
320,192,87428,128,0,88324:0:0:0:0:
192,192,87876,1,0,0:0:0:0:
64,192,88324,128,0,88771:0:0:0:0:
192,192,88771,1,0,0:0:0:0:
448,192,88995,1,0,0:0:0:0:
320,192,89219,1,0,0:0:0:0:
64,192,89667,1,0,0:0:0:0:
192,192,89667,1,0,0:0:0:0:
192,192,90115,1,0,0:0:0:0:
448,192,90115,1,0,0:0:0:0:
320,192,90563,1,0,0:0:0:0:
192,192,90563,1,0,0:0:0:0:
64,192,91010,1,0,0:0:0:0:
192,192,91010,1,0,0:0:0:0:
320,192,91458,1,0,0:0:0:0:
192,192,91458,1,0,0:0:0:0:
192,192,91906,1,0,0:0:0:0:
448,192,91906,1,0,0:0:0:0:
