osu file format v13

[General]
AudioFilename: Suzumura Kenichi Asunaro.mp3
AudioLeadIn: 0
PreviewTime: 52340
Countdown: 0
SampleSet: Soft
StackLeniency: 0.7
Mode: 0
LetterboxInBreaks: 1
WidescreenStoryboard: 0

[Editor]
Bookmarks: -22,4613,83157,89975
DistanceSpacing: 0.8
BeatDivisor: 2
GridSize: 8
TimelineZoom: 1.1

[Metadata]
Title:Asunaro (TV Size)
TitleUnicode:Asunaro (TV Size)
Artist:Suzumura Kenichi
ArtistUnicode:Suzumura Kenichi
Creator:Ediisme
Version:Normal
Source:Kamisama no Memo-chou
Tags:Anime tv ed ending
BeatmapID:506907
BeatmapSetID:215874

[Difficulty]
HPDrainRate:5
CircleSize:3.5
OverallDifficulty:4
ApproachRate:5
SliderMultiplier:0.8
SliderTickRate:1

[Events]
//Background and Video events
0,0,"BG.jpg",0,0
Video,-336,"video.avi"
//Break Periods
//Storyboard Layer 0 (Background)
//Storyboard Layer 1 (Fail)
//Storyboard Layer 2 (Pass)
//Storyboard Layer 3 (Foreground)
//Storyboard Sound Samples
//Background Colour Transformations
3,100,163,162,255

[TimingPoints]
250,272.727272727273,4,2,0,40,1,0
52612,-100,4,2,0,40,0,1
71977,-100,4,2,0,40,0,0

[Colours]
Combo1 : 0,213,213
Combo2 : 128,128,255
Combo3 : 18,124,255
Combo4 : 0,0,198

[HitObjects]
144,168,4613,6,0,B|160:96|144:88|119:80|216:48,1,160
304,48,5431,2,0,B|396:79|372:86|356:94|372:166,1,160
256,192,6249,1,8,0:0:0:0:
128,208,6795,6,0,P|184:296|256:312,1,160
296,304,7613,2,0,L|384:256,2,80,0|0|0,0:0|0:0|0:0,0:0:0:0:
296,224,8431,2,0,L|256:152,1,80
340,125,8977,6,0,P|272:64|208:80,1,160
150,135,9795,2,0,P|142:226|193:267,1,160
256,184,10613,1,8,0:0:0:0:
320,296,11158,5,0,0:0:0:0:
384,256,11431,1,0,0:0:0:0:
408,184,11704,1,0,0:0:0:0:
384,40,12522,1,4,0:0:0:0:
192,48,13340,6,0,B|120:120|105:102|88:80|96:144|72:248,2,240,0|0|0,0:0|0:0|0:0,0:0:0:0:
191,191,15522,2,0,L|247:119,1,80,0|0,0:0|0:0,0:0:0:0:
280,80,16067,1,8,0:0:0:0:
320,32,16340,2,0,B|413:56|413:56|413:40|412:138|511:166,1,240
366,315,17704,6,0,P|270:315|230:259,1,160
279,210,18522,2,0,P|181:152|61:168,1,240
153,28,19886,6,0,L|258:29,1,80
296,32,20431,2,0,P|375:77|372:145,2,160,0|0|0,0:0|0:0|0:0,0:0:0:0:
305,107,21795,5,8,0:0:0:0:
256,152,22067,2,0,L|121:276,1,160
136,328,22885,1,0,0:0:0:0:
136,328,23158,2,0,L|35:329,2,80,0|0|0,0:0|0:0|0:0,0:0:0:0:
257,304,24249,5,0,0:0:0:0:
296,240,24522,2,0,L|352:160,1,80
419,208,25067,2,0,P|387:104|275:128,1,240,0|0,0:0|0:0,0:0:0:0:
144,167,26431,6,0,B|127:202|127:202|144:263,2,80,0|0|0,0:0|0:0|0:0,0:0:0:0:
120,72,27249,2,0,B|194:63|216:40|216:40|284:77|371:72,1,240
432,120,28613,6,0,L|376:200,1,80
352,128,29158,2,0,L|280:216,1,80
256,144,29704,2,4,L|192:224,2,80,0|0|0,0:0|0:0|0:0,0:0:0:0:
144,64,30794,5,4,0:0:0:0:
224,64,31068,2,0,B|301:22|305:71|392:64,2,160,0|0|0,0:0|0:0|0:0,0:0:0:0:
144,64,32431,1,4,0:0:0:0:
144,208,32976,5,4,0:0:0:0:
224,208,33250,2,0,B|301:249|305:200|392:208,2,160,0|0|0,0:0|0:0|0:0,0:0:0:0:
144,208,34613,2,0,P|96:272|168:336,1,160
212,332,35431,5,0,0:0:0:0:
268,284,35703,1,0,0:0:0:0:
344,304,35976,2,0,P|328:232|240:208,1,160,0|0,0:0|0:0,0:0:0:0:
253,204,36794,1,0,0:0:0:0:
440,240,37340,6,0,B|417:162|466:158|440:80,1,160
368,80,38158,1,0,0:0:0:0:
288,81,38431,2,0,B|230:72|208:58|208:58|190:69|112:88,2,160,0|0|0,0:0|0:0|0:0,0:0:0:0:
312,152,39794,5,4,0:0:0:0:
312,224,40067,2,0,L|224:224,1,80
152,224,40613,2,0,P|64:168|56:120,2,160,0|0|0,0:0|0:0|0:0,0:0:0:0:
144,136,41977,6,4,L|216:64,1,80
272,80,42522,1,0,0:0:0:0:
344,80,42795,2,0,P|408:128|424:216,2,160,0|0|0,0:0|0:0|0:0,0:0:0:0:
328,171,44158,6,0,L|248:227,1,80,0|0,0:0|0:0,0:0:0:0:
192,232,44704,2,0,L|96:232,2,80,0|0|0,0:0|0:0|0:0,0:0:0:0:
264,232,45522,2,0,L|368:232,1,80
416,232,46067,6,0,P|448:157|416:64,1,160
371,44,46886,1,0,0:0:0:0:
304,24,47159,2,0,P|152:32|32:144,2,320,0|0|0,0:0|0:0|0:0,0:0:0:0:
256,192,49886,1,0,0:0:0:0:
256,192,50159,1,0,0:0:0:0:
256,192,50430,12,0,52067,0:0:0:0:
72,152,52613,6,0,P|128:88|232:64,1,160
192,232,53704,2,0,P|280:200|320:136,1,160
432,56,54794,1,0,0:0:0:0:
432,128,55067,2,0,L|432:240,2,80,0|0|0,0:0|0:0|0:0,0:0:0:0:
432,56,55885,2,0,P|328:56|256:112,1,160
280,160,56704,6,0,L|280:240,2,80,0|0|0,0:0|0:0|0:0,0:0:0:0:
208,160,57521,1,0,0:0:0:0:
136,160,57794,2,0,P|168:56|296:80,1,240
368,64,58885,6,0,L|440:144,2,80,0|0|0,0:0|0:0|0:0,0:0:0:0:
312,104,59703,1,0,0:0:0:0:
248,136,59976,2,0,P|157:169|175:310,1,240
232,304,61068,1,0,0:0:0:0:
304,304,61340,6,0,B|384:304|384:304|456:232,1,160
440,176,62158,1,0,0:0:0:0:
440,104,62431,2,0,L|504:48,2,80,0|0|0,0:0|0:0|0:0,0:0:0:0:
360,136,63250,6,0,L|280:88,1,80
288,176,63795,2,0,L|208:128,1,80,0|0,0:0|0:0,0:0:0:0:
216,216,64340,1,0,0:0:0:0:
160,176,64613,2,0,L|8:80,1,160
1,167,65430,5,0,0:0:0:0:
0,240,65704,2,0,P|96:304|168:304,1,160
208,312,66521,1,0,0:0:0:0:
280,303,66795,6,0,L|376:247,1,80
272,231,67340,2,0,L|368:175,1,80
272,152,67885,2,0,L|440:56,1,160
351,12,68703,2,0,B|269:57|269:57|215:12|215:12|119:12,1,240
104,88,69795,5,0,0:0:0:0:
104,160,70068,2,0,L|104:264,2,80,0|0|0,0:0|0:0|0:0,0:0:0:0:
216,88,71159,1,0,0:0:0:0:
288,88,71431,2,0,L|368:88,1,80
440,88,71976,1,0,0:0:0:0:
440,160,72250,2,0,P|400:248|320:264,1,160
296,176,73068,2,0,B|208:231|192:208|178:200|128:344,1,240
56,224,74431,6,0,P|24:136|32:72,1,160
104,56,75251,1,0,0:0:0:0:
104,56,75522,1,0,0:0:0:0:
177,57,75795,2,0,L|281:57,2,80,0|0|0,0:0|0:0|0:0,0:0:0:0:
272,168,76613,6,0,B|356:174|356:174|364:129|424:103,1,160
456,200,77431,2,0,P|400:280|320:320,1,160
272,320,78250,1,0,0:0:0:0:
120,320,78794,6,0,P|57:266|56:160,1,160
184,192,79613,2,0,P|176:112|104:72,1,160
113,72,80430,1,0,0:0:0:0:
304,56,80977,5,4,0:0:0:0:
304,56,81250,1,4,0:0:0:0:
304,56,81521,1,4,0:0:0:0:
64,56,82339,1,4,0:0:0:0:
56,280,83159,1,4,0:0:0:0:
