osu file format v13

[General]
AudioFilename: Suzumura Kenichi Asunaro.mp3
AudioLeadIn: 0
PreviewTime: 52340
Countdown: 0
SampleSet: Soft
StackLeniency: 0.7
Mode: 0
LetterboxInBreaks: 1
WidescreenStoryboard: 1

[Editor]
Bookmarks: -22,4613,83157,89975
DistanceSpacing: 0.8
BeatDivisor: 2
GridSize: 8
TimelineZoom: 1.1

[Metadata]
Title:Asunaro (TV Size)
TitleUnicode:Asunaro (TV Size)
Artist:Suzumura Kenichi
ArtistUnicode:Suzumura Kenichi
Creator:Ediisme
Version:Insane
Source:Kamisama no Memo-chou
Tags:Anime tv ed ending
BeatmapID:507858
BeatmapSetID:215874

[Difficulty]
HPDrainRate:8
CircleSize:4.5
OverallDifficulty:7
ApproachRate:9
SliderMultiplier:1.3
SliderTickRate:2

[Events]
//Background and Video events
0,0,"BG.jpg",0,0
Video,-336,"video.avi"
//Break Periods
//Storyboard Layer 0 (Background)
//Storyboard Layer 1 (Fail)
//Storyboard Layer 2 (Pass)
//Storyboard Layer 3 (Foreground)
//Storyboard Sound Samples
//Background Colour Transformations
3,100,163,162,255

[TimingPoints]
250,272.727272727273,4,2,0,40,1,0
52612,-100,4,2,0,40,0,1
71977,-100,4,2,0,40,0,0

[Colours]
Combo1 : 0,213,213
Combo2 : 128,128,255
Combo3 : 18,124,255
Combo4 : 0,0,198

[HitObjects]
136,160,4613,6,0,P|166:162|201:201,2,65,0|0|0,0:0|0:0|0:0,0:0:0:0:
136,256,5159,1,8,0:0:0:0:
240,256,5431,1,0,0:0:0:0:
288,240,5568,1,0,0:0:0:0:
328,208,5704,1,0,0:0:0:0:
360,168,5840,1,0,0:0:0:0:
376,120,5977,1,0,0:0:0:0:
264,168,6250,2,0,L|200:104,2,64.9999999999999,0|0|0,0:0|0:0|0:0,0:0:0:0:
376,272,6795,6,0,L|424:320,1,64.9999999999999
421,317,7204,1,0,0:0:0:0:
421,317,7340,1,0,0:0:0:0:
320,216,7613,1,0,0:0:0:0:
288,176,7750,1,0,0:0:0:0:
256,136,7886,1,0,0:0:0:0:
224,96,8022,1,0,0:0:0:0:
192,56,8159,1,0,0:0:0:0:
192,192,8431,2,0,P|168:213|128:200,2,65,0|0|0,0:0|0:0|0:0,0:0:0:0:
336,80,8977,6,0,P|369:62|411:82,3,65,0|0|0|0,0:0|0:0|0:0|0:0,0:0:0:0:
288,120,9522,1,8,0:0:0:0:
208,184,9795,2,0,L|136:248,4,64.9999999999999,0|0|0|0|0,0:0|0:0|0:0|0:0|0:0,0:0:0:0:
80,288,10613,1,8,0:0:0:0:
80,288,10886,1,8,0:0:0:0:
208,184,11159,5,8,0:0:0:0:
352,56,11431,1,8,0:0:0:0:
352,312,11704,1,8,0:0:0:0:
352,184,12522,2,0,P|412:159|479:202,2,130,0|0|0,0:0|0:0|0:0,0:0:0:0:
80,88,13340,5,0,0:0:0:0:
80,88,13613,2,0,B|129:48|176:122|212:80,1,130,0|0,0:0|0:0,0:0:0:0:
177,201,14159,1,0,0:0:0:0:
80,192,14431,1,0,0:0:0:0:
80,248,14568,1,0,0:0:0:0:
112,288,14704,1,0,0:0:0:0:
160,296,14840,1,0,0:0:0:0:
216,296,14977,1,0,0:0:0:0:
392,232,15522,6,0,P|376:194|342:187,1,65
392,232,15931,2,0,P|403:265|441:280,1,65,0|0,0:0|0:0,0:0:0:0:
288,232,16340,1,0,0:0:0:0:
192,232,16613,1,0,0:0:0:0:
144,208,16750,1,0,0:0:0:0:
112,168,16886,1,0,0:0:0:0:
96,120,17022,1,0,0:0:0:0:
96,64,17159,1,0,0:0:0:0:
296,64,17704,6,0,L|368:64,2,64.9999999999999,0|0|0,0:0|0:0|0:0,0:0:0:0:
256,64,18113,1,0,0:0:0:0:
216,64,18250,1,0,0:0:0:0:
96,64,18522,2,0,L|96:100|96:152,3,65,0|0|0|0,0:0|0:0|0:0|0:0,0:0:0:0:
96,184,19068,1,0,0:0:0:0:
96,232,19204,1,0,0:0:0:0:
96,280,19340,1,0,0:0:0:0:
328,216,19886,6,0,P|440:200|480:152,1,130
448,136,20295,1,0,0:0:0:0:
424,88,20431,2,0,P|336:96|272:160,1,130,0|0,0:0|0:0,0:0:0:0:
200,200,20977,1,0,0:0:0:0:
200,304,21250,1,0,0:0:0:0:
248,248,21386,1,0,0:0:0:0:
296,304,21522,1,0,0:0:0:0:
200,72,22068,6,0,B|167:71|167:71|138:33,2,65,0|0|0,0:0|0:0|0:0,0:0:0:0:
272,72,22477,1,0,0:0:0:0:
272,144,22613,2,0,L|272:232,3,64.9999999999999,0|0|0|0,0:0|0:0|0:0|0:0,0:0:0:0:
272,261,23159,1,0,0:0:0:0:
232,293,23295,1,0,0:0:0:0:
184,309,23431,1,0,0:0:0:0:
136,293,23568,1,0,0:0:0:0:
88,261,23704,1,0,0:0:0:0:
96,56,24250,6,0,L|224:56,1,64.9999999999999
336,56,24659,2,0,L|272:56,1,64.9999999999999
216,144,25068,1,0,0:0:0:0:
216,248,25340,1,0,0:0:0:0:
240,296,25477,1,0,0:0:0:0:
288,320,25613,1,0,0:0:0:0:
336,320,25750,1,0,0:0:0:0:
384,304,25886,1,0,0:0:0:0:
433,156,26431,6,0,B|400:126|400:126|422:84|400:24,1,130
344,40,26840,1,0,0:0:0:0:
288,40,26977,1,0,0:0:0:0:
240,40,27113,1,0,0:0:0:0:
184,40,27250,2,0,B|144:34|104:82|48:40,3,130,0|0|0|0,0:0|0:0|0:0|0:0,0:0:0:0:
120,168,28613,6,0,L|120:272,2,64.9999999999999,0|0|0,0:0|0:0|0:0,0:0:0:0:
272,168,29159,2,0,L|360:168,1,64.9999999999999,0|0,0:0|0:0,0:0:0:0:
272,280,29568,1,0,0:0:0:0:
272,280,29840,2,0,L|384:280,3,64.9999999999999,0|0|0|0,0:0|0:0|0:0|0:0,0:0:0:0:
120,288,30795,5,4,0:0:0:0:
120,160,31068,1,0,0:0:0:0:
120,72,31204,1,0,0:0:0:0:
176,112,31340,1,0,0:0:0:0:
288,40,31613,1,0,0:0:0:0:
244,93,31750,1,0,0:0:0:0:
304,128,31886,2,0,L|304:200,1,65
236,207,32159,1,0,0:0:0:0:
272,264,32295,1,0,0:0:0:0:
206,269,32431,1,0,0:0:0:0:
120,64,32977,5,4,0:0:0:0:
240,64,33250,2,0,L|336:64,2,64.9999999999999,0|0|0,0:0|0:0|0:0,0:0:0:0:
240,184,33795,1,4,0:0:0:0:
240,184,34068,1,4,0:0:0:0:
240,311,34340,2,0,B|289:366|308:242|374:331,2,130,0|0|0,0:0|0:0|0:0,0:0:0:0:
104,312,35159,1,4,0:0:0:0:
112,64,35431,5,0,0:0:0:0:
400,72,35704,1,0,0:0:0:0:
400,296,35977,1,0,0:0:0:0:
400,72,36250,1,0,0:0:0:0:
264,200,36522,2,0,L|336:136,2,64.9999999999999,0|0|0,0:0|0:0|0:0,0:0:0:0:
112,312,37204,5,0,0:0:0:0:
48,312,37340,2,0,B|-38:234|150:182|45:64,1,260
288,216,38159,1,0,0:0:0:0:
400,64,38431,2,0,P|432:144|488:168,1,130,0|0,0:0|0:0,0:0:0:0:
245,143,38977,2,0,P|208:194|221:256,1,130
392,224,39522,5,4,0:0:0:0:
192,224,39795,1,0,0:0:0:0:
144,288,39931,1,0,0:0:0:0:
96,224,40068,1,0,0:0:0:0:
96,88,40340,1,0,0:0:0:0:
144,32,40477,1,0,0:0:0:0:
192,88,40613,1,0,0:0:0:0:
320,88,40886,2,0,B|383:73|383:73|456:95,3,130,0|0|0|0,0:0|0:0|0:0|0:0,0:0:0:0:
448,184,41977,6,4,L|448:272,2,64.9999999999999,0|0|0,0:0|0:0|0:0,0:0:0:0:
344,184,42522,1,0,0:0:0:0:
240,184,42795,1,0,0:0:0:0:
192,184,42931,1,0,0:0:0:0:
136,184,43068,2,0,L|136:280,4,64.9999999999999,0|0|0|0|0,0:0|0:0|0:0|0:0|0:0,0:0:0:0:
56,184,43886,5,0,0:0:0:0:
96,48,44159,1,0,0:0:0:0:
112,120,44295,1,0,0:0:0:0:
184,136,44431,1,0,0:0:0:0:
360,184,44704,2,0,L|280:184,2,64.9999999999999,0|0|0,0:0|0:0|0:0,0:0:0:0:
512,112,45250,1,0,0:0:0:0:
384,48,45522,1,0,0:0:0:0:
152,304,45795,1,0,0:0:0:0:
80,160,46068,5,0,0:0:0:0:
152,88,46340,2,0,P|224:56|304:72,2,130,0|0|0,0:0|0:0|0:0,0:0:0:0:
112,288,47159,5,0,0:0:0:0:
128,240,47295,1,0,0:0:0:0:
160,200,47431,1,0,0:0:0:0:
208,176,47568,1,0,0:0:0:0:
256,192,47704,12,0,49886,0:0:0:0:
318,233,50431,5,8,0:0:0:0:
280,264,50568,1,0,0:0:0:0:
232,272,50704,1,0,0:0:0:0:
184,256,50840,1,0,0:0:0:0:
152,216,50977,1,0,0:0:0:0:
144,168,51113,1,0,0:0:0:0:
160,120,51250,1,0,0:0:0:0:
192,80,51386,1,0,0:0:0:0:
240,64,51522,1,0,0:0:0:0:
288,80,51659,1,0,0:0:0:0:
328,112,51795,1,0,0:0:0:0:
346,163,51931,1,0,0:0:0:0:
336,204,52068,1,0,0:0:0:0:
304,248,52204,1,0,0:0:0:0:
256,272,52340,1,0,0:0:0:0:
64,160,52613,6,0,P|120:80|160:64,1,130
368,48,53159,1,0,0:0:0:0:
424,232,53431,2,0,P|400:304|328:344,1,130,0|0,0:0|0:0,0:0:0:0:
256,120,53977,2,0,P|144:160|136:192,2,130,0|0|0,0:0|0:0|0:0,0:0:0:0:
256,264,54795,5,0,0:0:0:0:
128,264,55068,1,0,0:0:0:0:
96,224,55204,1,0,0:0:0:0:
64,184,55340,1,0,0:0:0:0:
172,71,55613,2,0,B|214:120|214:120|296:128,1,130,0|0,0:0|0:0,0:0:0:0:
278,126,56159,1,0,0:0:0:0:
416,320,56431,1,0,0:0:0:0:
280,312,56704,5,0,0:0:0:0:
232,296,56840,1,0,0:0:0:0:
192,256,56977,1,0,0:0:0:0:
167,90,57250,1,0,0:0:0:0:
208,171,57522,1,0,0:0:0:0:
256,119,57659,1,0,0:0:0:0:
376,192,57931,1,0,0:0:0:0:
376,152,58068,2,0,P|328:48|176:24,1,260
72,152,58886,5,0,0:0:0:0:
112,200,59022,1,0,0:0:0:0:
72,248,59159,1,0,0:0:0:0:
249,200,59431,1,0,0:0:0:0:
192,200,59568,1,0,0:0:0:0:
256,192,59840,12,0,60795,0:0:0:0:
328,152,61068,5,0,0:0:0:0:
432,152,61340,2,0,P|376:72|304:48,2,130,0|0|0,0:0|0:0|0:0,0:0:0:0:
432,280,62159,1,0,0:0:0:0:
384,280,62295,2,0,L|304:280,2,65,0|0|0,0:0|0:0|0:0,0:0:0:0:
320,280,62704,1,0,0:0:0:0:
192,280,62977,1,0,0:0:0:0:
64,280,63250,6,0,B|88:216|35:214|72:128,1,130
64,88,63659,1,0,0:0:0:0:
128,96,63795,2,0,P|192:88|192:-8,1,130
272,32,64204,1,0,0:0:0:0:
327,32,64340,1,0,0:0:0:0:
375,33,64477,1,0,0:0:0:0:
421,33,64613,2,0,B|421:97|421:97|377:99|359:145,2,130,0|0|0,0:0|0:0|0:0,0:0:0:0:
359,269,65431,5,0,0:0:0:0:
302,228,65568,1,0,0:0:0:0:
256,282,65704,2,0,B|210:179|92:347|150:129|44:157,1,260
160,88,66659,5,0,0:0:0:0:
240,88,66795,1,0,0:0:0:0:
368,280,67068,1,0,0:0:0:0:
288,280,67204,1,0,0:0:0:0:
48,280,67477,1,0,0:0:0:0:
48,280,67613,1,0,0:0:0:0:
56,64,67886,5,8,0:0:0:0:
448,208,68295,1,8,0:0:0:0:
160,312,68704,1,8,0:0:0:0:
392,48,69250,1,8,0:0:0:0:
208,176,69522,1,8,0:0:0:0:
96,160,69795,5,0,0:0:0:0:
152,80,69931,1,0,0:0:0:0:
240,96,70068,1,0,0:0:0:0:
248,296,70340,2,0,L|184:168,1,130
416,152,71022,5,0,0:0:0:0:
432,240,71159,1,0,0:0:0:0:
288,176,71431,1,0,0:0:0:0:
336,104,71568,1,0,0:0:0:0:
248,96,71704,1,0,0:0:0:0:
176,48,71840,1,0,0:0:0:0:
168,136,71977,1,0,0:0:0:0:
47,103,72250,2,0,B|-67:178|39:271|55:255,4,195,0|0|0|0|0,0:0|0:0|0:0|0:0|0:0,0:0:0:0:
256,232,74431,5,0,0:0:0:0:
352,216,74568,1,0,0:0:0:0:
296,144,74704,1,0,0:0:0:0:
72,136,74977,1,0,0:0:0:0:
208,48,75250,1,0,0:0:0:0:
416,80,75522,1,0,0:0:0:0:
440,208,75795,2,0,P|424:296|360:336,2,130,0|0|0,0:0|0:0|0:0,0:0:0:0:
304,232,76613,5,0,0:0:0:0:
272,152,76750,1,0,0:0:0:0:
208,208,76886,1,0,0:0:0:0:
112,136,77159,1,0,0:0:0:0:
88,280,77431,1,0,0:0:0:0:
136,344,77568,1,0,0:0:0:0:
208,296,77704,1,0,0:0:0:0:
192,112,77977,1,0,0:0:0:0:
400,48,78250,1,0,0:0:0:0:
400,48,78522,1,0,0:0:0:0:
360,176,78795,5,0,0:0:0:0:
288,208,78931,1,0,0:0:0:0:
296,128,79068,1,0,0:0:0:0:
232,40,79340,1,0,0:0:0:0:
80,144,79613,1,0,0:0:0:0:
136,88,79750,1,0,0:0:0:0:
144,192,79886,1,0,0:0:0:0:
216,144,80159,2,0,L|352:176,2,130,0|0|0,0:0|0:0|0:0,0:0:0:0:
392,88,80977,5,4,0:0:0:0:
344,304,81250,1,4,0:0:0:0:
144,192,81522,1,4,0:0:0:0:
120,144,81659,1,0,0:0:0:0:
144,96,81795,1,0,0:0:0:0:
192,80,81931,1,0,0:0:0:0:
240,88,82068,1,0,0:0:0:0:
256,192,82340,5,4,0:0:0:0:
144,296,82886,5,4,0:0:0:0:
120,248,83022,1,4,0:0:0:0:
256,192,83159,12,0,88613,0:0:0:0:
