osu file format v13

[General]
AudioFilename: Suzumura Kenichi Asunaro.mp3
AudioLeadIn: 0
PreviewTime: 52340
Countdown: 0
SampleSet: Soft
StackLeniency: 0.7
Mode: 0
LetterboxInBreaks: 1
WidescreenStoryboard: 1

[Editor]
Bookmarks: -22,4613,83157,89975
DistanceSpacing: 0.8
BeatDivisor: 2
GridSize: 8
TimelineZoom: 1.1

[Metadata]
Title:Asunaro (TV Size)
TitleUnicode:Asunaro (TV Size)
Artist:Suzumura Kenichi
ArtistUnicode:Suzumura Kenichi
Creator:Ediisme
Version:Hard
Source:Kamisama no Memo-chou
Tags:Anime tv ed ending
BeatmapID:506951
BeatmapSetID:215874

[Difficulty]
HPDrainRate:6
CircleSize:4
OverallDifficulty:5
ApproachRate:7
SliderMultiplier:1.2
SliderTickRate:2

[Events]
//Background and Video events
0,0,"BG.jpg",0,0
Video,-336,"video.avi"
//Break Periods
//Storyboard Layer 0 (Background)
//Storyboard Layer 1 (Fail)
//Storyboard Layer 2 (Pass)
//Storyboard Layer 3 (Foreground)
//Storyboard Sound Samples
//Background Colour Transformations
3,100,163,162,255

[TimingPoints]
250,272.727272727273,4,2,0,40,1,0
52612,-100,4,2,0,40,0,1
71977,-100,4,2,0,40,0,0
80704,-100,4,2,0,10,0,0
82068,-100,4,2,0,40,0,0

[Colours]
Combo1 : 0,213,213
Combo2 : 128,128,255
Combo3 : 18,124,255
Combo4 : 0,0,198

[HitObjects]
48,160,4613,6,0,B|144:96|80:32|112:64|175:88|240:72,1,240
408,72,5431,1,0,0:0:0:0:
408,120,5568,1,0,0:0:0:0:
408,168,5704,1,0,0:0:0:0:
408,304,6250,1,0,0:0:0:0:
280,200,6522,1,0,0:0:0:0:
240,320,6795,6,0,B|179:304|115:328|83:360|147:296|51:232,1,240
96,104,7613,1,0,0:0:0:0:
144,104,7750,1,0,0:0:0:0:
192,104,7886,1,0,0:0:0:0:
240,104,8022,1,0,0:0:0:0:
376,104,8431,2,0,L|464:104,2,59.9999999999999,0|0|0,0:0|0:0|0:0,0:0:0:0:
376,248,8977,6,0,P|280:336|176:328,1,240
144,136,9795,2,0,L|144:224,3,59.9999999999999,0|0|0|0,0:0|0:0|0:0|0:0,0:0:0:0:
264,120,10613,1,0,0:0:0:0:
408,120,10886,1,0,0:0:0:0:
416,248,11159,5,4,0:0:0:0:
264,120,11431,1,4,0:0:0:0:
112,240,11704,1,4,0:0:0:0:
264,120,12522,1,8,0:0:0:0:
432,72,13340,5,0,0:0:0:0:
320,72,13613,2,0,L|192:72,1,120
80,72,14159,1,0,0:0:0:0:
200,72,14431,2,0,L|336:72,2,120,0|0|0,0:0|0:0|0:0,0:0:0:0:
80,192,15386,6,0,L|80:264,1,59.9999999999999
176,256,15795,2,0,L|176:184,2,59.9999999999999,0|0|0,0:0|0:0|0:0,0:0:0:0:
280,224,16340,1,0,0:0:0:0:
280,136,16613,2,0,L|280:0,2,120,0|0|0,0:0|0:0|0:0,0:0:0:0:
176,40,17568,5,0,0:0:0:0:
128,40,17704,2,0,P|40:112|32:144,1,120
40,160,18113,1,0,0:0:0:0:
40,208,18250,2,0,P|88:264|136:288,3,120,0|0|0|0,0:0|0:0|0:0|0:0,0:0:0:0:
168,152,19340,1,0,0:0:0:0:
464,160,19750,5,0,0:0:0:0:
464,160,19886,1,0,0:0:0:0:
368,160,20159,2,0,L|224:160,1,120
168,160,20704,2,0,L|32:160,2,120,0|0|0,0:0|0:0|0:0,0:0:0:0:
168,160,21522,2,0,L|248:160,1,59.9999999999999
392,88,21931,6,0,L|472:16,2,60,0|0|0,0:0|0:0|0:0,0:0:0:0:
392,160,22477,2,0,L|392:248,3,59.9999999999999,0|0|0|0,0:0|0:0|0:0|0:0,0:0:0:0:
392,320,23159,1,0,0:0:0:0:
296,320,23431,2,0,L|152:320,1,120
96,200,24113,6,0,L|143:130,1,60
200,168,24522,2,0,L|240:104,2,59.9999999999999,0|0|0,0:0|0:0|0:0,0:0:0:0:
200,168,25068,5,0,0:0:0:0:
312,192,25340,2,0,P|424:192|472:224,2,120,0|0|0,0:0|0:0|0:0,0:0:0:0:
248,320,26295,5,0,0:0:0:0:
200,320,26431,2,0,L|56:320,2,120,0|0|0,0:0|0:0|0:0,0:0:0:0:
320,320,27250,1,0,0:0:0:0:
256,240,27522,6,0,P|216:136|96:112,1,240,0|0,0:0|0:0,0:0:0:0:
152,32,28613,6,0,L|288:32,1,120
272,128,29159,2,0,L|144:128,1,120
56,144,29704,2,0,P|64:248|104:272,1,120,0|0,0:0|0:0,0:0:0:0:
168,248,30250,1,0,0:0:0:0:
416,176,30795,5,4,0:0:0:0:
320,176,31068,1,0,0:0:0:0:
272,152,31204,1,0,0:0:0:0:
224,176,31340,1,0,0:0:0:0:
128,176,31613,2,0,L|128:48,2,120,0|0|0,0:0|0:0|0:0,0:0:0:0:
32,176,32431,1,4,0:0:0:0:
128,176,32977,1,4,0:0:0:0:
128,272,33250,5,0,0:0:0:0:
176,296,33386,1,0,0:0:0:0:
224,272,33522,1,0,0:0:0:0:
320,272,33795,2,0,P|368:224|456:208,2,120,0|0|0,0:0|0:0|0:0,0:0:0:0:
416,320,34613,1,4,0:0:0:0:
416,320,35159,1,4,0:0:0:0:
240,328,35431,6,0,L|120:328,2,120,0|0|0,0:0|0:0|0:0,0:0:0:0:
336,328,36250,1,0,0:0:0:0:
336,328,36522,2,0,L|336:200,1,120
296,72,37340,6,0,B|240:74|216:40|216:40|148:72|48:72,1,240
200,128,38159,1,0,0:0:0:0:
296,72,38431,2,0,L|296:240,1,120,0|0,0:0|0:0,0:0:0:0:
384,200,38977,2,0,P|360:256|301:280,1,120
176,280,39522,5,4,0:0:0:0:
264,280,39795,1,0,0:0:0:0:
312,304,39931,1,0,0:0:0:0:
360,280,40068,1,0,0:0:0:0:
360,184,40340,2,0,P|383:123|336:56,2,120,0|0|0,0:0|0:0|0:0,0:0:0:0:
264,184,41159,1,4,0:0:0:0:
72,184,41704,1,4,0:0:0:0:
160,48,41977,5,0,0:0:0:0:
160,48,42113,1,0,0:0:0:0:
160,48,42250,1,0,0:0:0:0:
160,48,42522,2,0,L|280:48,2,120,0|0|0,0:0|0:0|0:0,0:0:0:0:
160,48,43340,1,4,0:0:0:0:
368,104,43886,1,4,0:0:0:0:
368,264,44159,6,0,L|368:392,2,120,0|0|0,0:0|0:0|0:0,0:0:0:0:
368,168,44977,1,0,0:0:0:0:
368,72,45250,1,0,0:0:0:0:
368,168,45522,2,0,L|216:168,1,120
248,72,46068,6,0,P|184:24|24:40,1,240
32,128,46886,1,0,0:0:0:0:
32,224,47159,2,0,P|147:246|248:187,1,240
32,128,48250,1,4,0:0:0:0:
184,192,49886,5,8,0:0:0:0:
328,192,50159,1,8,0:0:0:0:
256,192,50431,12,0,52068,0:0:0:0:
328,272,52613,6,0,P|432:160|408:72,1,240
304,64,53431,1,0,0:0:0:0:
192,56,53704,2,0,P|48:144|16:224,1,240
20,203,54522,1,0,0:0:0:0:
144,208,54795,6,0,P|208:192|288:232,2,120,0|0|0,0:0|0:0|0:0,0:0:0:0:
146,279,55613,1,0,0:0:0:0:
146,279,55886,2,0,P|205:290|264:280,1,120,0|0,0:0|0:0,0:0:0:0:
344,280,56431,5,0,0:0:0:0:
344,280,56704,2,0,L|344:136,2,120,0|0|0,0:0|0:0|0:0,0:0:0:0:
264,160,57522,1,0,0:0:0:0:
344,160,57795,1,0,0:0:0:0:
344,160,58068,2,0,P|440:136|464:64,1,180
344,32,58886,5,0,0:0:0:0:
296,32,59022,1,0,0:0:0:0:
248,32,59159,2,0,L|72:32,1,120
169,99,59568,2,0,B|121:99|121:99|81:97|58:43,1,120
0,24,59977,2,0,P|0:152|200:200,1,360
296,184,61068,1,8,0:0:0:0:
344,64,61340,6,0,B|416:160|416:160|380:213|432:304,1,240
417,274,62159,1,0,0:0:0:0:
417,274,62431,2,0,L|273:274,2,120,0|0|0,0:0|0:0|0:0,0:0:0:0:
424,176,63250,5,0,0:0:0:0:
424,176,63522,2,0,L|264:176,1,120
344,104,64068,2,0,L|192:104,1,120
144,32,64613,2,0,L|296:32,2,120,0|0|0,0:0|0:0|0:0,0:0:0:0:
48,32,65431,5,0,0:0:0:0:
48,80,65568,1,0,0:0:0:0:
48,128,65704,2,0,P|128:272|216:272,1,240
400,232,66659,5,0,0:0:0:0:
400,192,66795,2,0,P|433:131|376:55,2,120,0|0|0,0:0|0:0|0:0,0:0:0:0:
342,123,67613,1,0,0:0:0:0:
258,143,67886,2,0,P|226:271|74:303,2,300,0|0|0,0:0|0:0|0:0,0:0:0:0:
235,60,69522,1,0,0:0:0:0:
72,96,69795,6,0,L|136:144,1,60
176,168,70068,2,0,B|255:189|255:189|264:256|272:256|272:256|392:304,1,240
336,144,71022,5,0,0:0:0:0:
336,144,71159,2,0,L|208:80,2,120,0|0|0,0:0|0:0|0:0,0:0:0:0:
392,72,71977,1,0,0:0:0:0:
448,128,72250,6,0,P|360:232|208:264,1,240
144,248,73068,1,0,0:0:0:0:
144,248,73204,1,0,0:0:0:0:
88,192,73340,2,0,P|173:111|312:56,1,240
408,160,74431,6,0,P|304:264|184:272,1,240
216,208,75250,1,0,0:0:0:0:
216,208,75386,1,0,0:0:0:0:
216,280,75522,2,0,L|48:280,3,120,0|0|0|0,0:0|0:0|0:0|0:0,0:0:0:0:
144,96,76613,6,0,P|312:64|424:88,1,240
376,176,77431,1,0,0:0:0:0:
376,176,77568,1,0,0:0:0:0:
376,248,77704,2,0,P|232:248|144:208,1,240
146,209,78522,1,0,0:0:0:0:
144,96,78795,6,0,P|304:56|408:64,1,240
376,56,79613,1,0,0:0:0:0:
280,192,79886,2,0,P|432:200|480:120,1,240
376,56,80977,6,0,L|288:56,1,60
312,120,81250,2,0,L|224:120,1,60
248,184,81522,2,0,L|184:184,1,60
80,48,82340,1,4,0:0:0:0:
392,264,83159,1,4,0:0:0:0:
