osu file format v12

[General]
AudioFilename: Zetsubou-sei Hero Chiryouyaku.mp3
AudioLeadIn: 1500
PreviewTime: 56076
Countdown: 0
SampleSet: Normal
StackLeniency: 0.3
Mode: 1
LetterboxInBreaks: 0
WidescreenStoryboard: 0

[Editor]
DistanceSpacing: 1.4
BeatDivisor: 4
GridSize: 8

[Metadata]
Title:Zetsubousei: Hero Chiryouyaku (TV Size)
TitleUnicode:絶望性:ヒーロー治療薬 (TV Size)
Artist:Suzumu feat.Soraru
ArtistUnicode:スズム feat.そらる
Creator:No_Gu
Version:TaiGu Muzukashii
Source:Danganronpa: Kibou no Gakuen to Zetsubou no Koukousei The Animation
Tags:ダンガンロンパ 希望の学園と絶望の高校生 そらる Soraru jonathanlfj Flask climbb65588
BeatmapID:315983
BeatmapSetID:104801

[Difficulty]
HPDrainRate:5
CircleSize:4
OverallDifficulty:5
ApproachRate:5
SliderMultiplier:1.4
SliderTickRate:1

[Events]
//Background and Video events
0,0,"BG.jpg",0,0
//Break Periods
//Storyboard Layer 0 (Background)
//Storyboard Layer 1 (Fail)
//Storyboard Layer 2 (Pass)
//Storyboard Layer 3 (Foreground)
//Storyboard Sound Samples
//Background Colour Transformations
3,100,163,162,255

[TimingPoints]
-411,292.682926829268,4,1,0,80,1,0
56808,-100,4,1,0,80,0,1
74369,-100,4,1,0,80,0,0

[HitObjects]
256,192,613,5,0,0:0:0:0:
256,192,1345,1,8,0:0:0:0:
256,192,1784,1,0,0:0:0:0:
256,192,2515,1,8,0:0:0:0:
256,192,2954,1,0,0:0:0:0:
256,192,3686,1,8,0:0:0:0:
256,192,4125,1,0,0:0:0:0:
256,192,4564,1,8,0:0:0:0:
256,192,4857,1,8,0:0:0:0:
256,192,5296,5,0,0:0:0:0:
256,192,6028,1,8,0:0:0:0:
256,192,6467,1,0,0:0:0:0:
256,192,7198,1,8,0:0:0:0:
256,192,7637,1,0,0:0:0:0:
256,192,8369,1,8,0:0:0:0:
256,192,8808,1,8,0:0:0:0:
256,192,8954,12,4,9979,0:0:0:0:
256,192,10271,5,0,0:0:0:0:
256,192,10418,5,8,0:0:0:0:
256,192,10710,1,0,0:0:0:0:
256,192,10857,1,0,0:0:0:0:
256,192,11003,1,8,0:0:0:0:
256,192,11149,1,4,0:0:0:0:
256,192,11442,1,0,0:0:0:0:
256,192,11588,1,8,0:0:0:0:
256,192,11881,1,0,0:0:0:0:
256,192,12028,1,0,0:0:0:0:
256,192,12174,1,8,0:0:0:0:
256,192,12320,1,4,0:0:0:0:
256,192,12613,1,0,0:0:0:0:
256,192,12759,1,8,0:0:0:0:
256,192,13052,1,0,0:0:0:0:
256,192,13199,1,0,0:0:0:0:
256,192,13345,1,8,0:0:0:0:
256,192,13491,1,4,0:0:0:0:
256,192,13784,1,0,0:0:0:0:
256,192,13930,1,8,0:0:0:0:
256,192,14223,1,8,0:0:0:0:
256,192,14515,1,8,0:0:0:0:
256,192,14662,1,4,0:0:0:0:
256,192,14954,5,0,0:0:0:0:
256,192,15101,5,8,0:0:0:0:
256,192,15393,1,0,0:0:0:0:
256,192,15540,1,0,0:0:0:0:
256,192,15686,1,8,0:0:0:0:
256,192,15832,1,4,0:0:0:0:
256,192,16125,1,0,0:0:0:0:
256,192,16271,1,8,0:0:0:0:
256,192,16564,1,0,0:0:0:0:
256,192,16711,1,0,0:0:0:0:
256,192,16857,1,8,0:0:0:0:
256,192,17003,1,4,0:0:0:0:
256,192,17296,1,0,0:0:0:0:
256,192,17442,1,8,0:0:0:0:
256,192,17735,1,0,0:0:0:0:
256,192,17882,1,0,0:0:0:0:
256,192,18028,1,8,0:0:0:0:
256,192,18174,1,4,0:0:0:0:
256,192,18467,1,0,0:0:0:0:
256,192,18613,1,8,0:0:0:0:
256,192,18906,1,8,0:0:0:0:
256,192,19198,1,8,0:0:0:0:
256,192,19345,1,4,0:0:0:0:
256,192,19784,1,8,0:0:0:0:
256,192,20076,1,8,0:0:0:0:
256,192,20369,1,8,0:0:0:0:
256,192,20662,1,8,0:0:0:0:
256,192,20954,1,8,0:0:0:0:
256,192,21247,1,8,0:0:0:0:
256,192,21540,1,8,0:0:0:0:
256,192,21686,1,4,0:0:0:0:
256,192,22125,1,8,0:0:0:0:
256,192,22417,1,8,0:0:0:0:
256,192,22710,1,8,0:0:0:0:
256,192,23003,1,8,0:0:0:0:
256,192,23295,1,8,0:0:0:0:
256,192,23588,1,8,0:0:0:0:
256,192,23735,1,8,0:0:0:0:
256,192,23881,1,8,0:0:0:0:
256,192,24028,1,4,0:0:0:0:
256,192,24467,1,8,0:0:0:0:
256,192,24759,1,8,0:0:0:0:
256,192,25052,1,8,0:0:0:0:
256,192,25345,1,8,0:0:0:0:
256,192,25637,1,8,0:0:0:0:
256,192,25930,1,8,0:0:0:0:
256,192,26223,1,8,0:0:0:0:
256,192,26369,1,4,0:0:0:0:
256,192,26808,1,8,0:0:0:0:
256,192,27100,1,8,0:0:0:0:
256,192,27393,1,8,0:0:0:0:
256,192,27686,1,8,0:0:0:0:
256,192,27978,1,8,0:0:0:0:
256,192,28271,1,8,0:0:0:0:
256,192,28418,1,8,0:0:0:0:
256,192,28564,1,8,0:0:0:0:
256,192,28710,1,4,0:0:0:0:
256,192,29149,1,0,0:0:0:0:
256,192,29442,1,0,0:0:0:0:
256,192,29735,1,0,0:0:0:0:
256,192,30028,1,0,0:0:0:0:
256,192,30320,1,0,0:0:0:0:
256,192,30613,1,0,0:0:0:0:
256,192,30906,1,0,0:0:0:0:
256,192,31052,1,8,0:0:0:0:
256,192,31345,1,8,0:0:0:0:
256,192,31784,1,0,0:0:0:0:
256,192,32077,1,0,0:0:0:0:
256,192,32370,1,0,0:0:0:0:
256,192,32663,1,0,0:0:0:0:
256,192,32955,1,0,0:0:0:0:
256,192,33247,1,0,0:0:0:0:
256,192,33393,1,8,0:0:0:0:
256,192,33686,1,8,0:0:0:0:
256,192,34125,1,0,0:0:0:0:
256,192,34418,1,0,0:0:0:0:
256,192,34711,1,0,0:0:0:0:
256,192,35004,1,0,0:0:0:0:
256,192,35296,1,0,0:0:0:0:
256,192,35588,1,0,0:0:0:0:
256,192,35734,1,8,0:0:0:0:
256,192,36027,1,8,0:0:0:0:
256,192,36467,1,0,0:0:0:0:
256,192,36759,1,0,0:0:0:0:
256,192,36906,1,4,0:0:0:0:
256,192,37345,1,8,0:0:0:0:
256,192,37637,1,8,0:0:0:0:
256,192,37930,1,8,0:0:0:0:
256,192,38076,1,4,0:0:0:0:
256,192,38515,1,8,0:0:0:0:
256,192,38808,1,0,0:0:0:0:
256,192,39101,1,8,0:0:0:0:
256,192,39393,1,0,0:0:0:0:
256,192,39686,1,8,0:0:0:0:
256,192,39979,1,0,0:0:0:0:
256,192,40271,1,8,0:0:0:0:
256,192,40418,1,0,0:0:0:0:
256,192,40710,1,0,0:0:0:0:
256,192,40857,1,8,0:0:0:0:
256,192,41149,1,0,0:0:0:0:
256,192,41442,1,8,0:0:0:0:
256,192,41735,1,0,0:0:0:0:
256,192,42027,1,8,0:0:0:0:
256,192,42320,1,0,0:0:0:0:
256,192,42613,1,8,0:0:0:0:
256,192,42759,1,0,0:0:0:0:
256,192,43052,1,0,0:0:0:0:
256,192,43198,1,8,0:0:0:0:
256,192,43491,1,0,0:0:0:0:
256,192,43784,1,8,0:0:0:0:
256,192,44077,1,0,0:0:0:0:
256,192,44369,1,8,0:0:0:0:
256,192,44662,1,0,0:0:0:0:
256,192,44955,1,8,0:0:0:0:
256,192,45101,1,0,0:0:0:0:
256,192,45394,1,0,0:0:0:0:
256,192,45540,1,8,0:0:0:0:
256,192,45832,1,0,0:0:0:0:
256,192,46125,1,8,0:0:0:0:
256,192,46271,1,4,0:0:0:0:
256,192,46710,1,0,0:0:0:0:
256,192,47003,1,8,0:0:0:0:
256,192,47149,1,8,0:0:0:0:
256,192,47296,1,8,0:0:0:0:
256,192,47442,1,4,0:0:0:0:
256,192,47881,1,8,0:0:0:0:
256,192,48174,1,0,0:0:0:0:
256,192,48467,1,8,0:0:0:0:
256,192,48759,1,0,0:0:0:0:
256,192,49052,1,8,0:0:0:0:
256,192,49345,1,0,0:0:0:0:
256,192,49638,1,8,0:0:0:0:
256,192,49930,1,0,0:0:0:0:
256,192,50223,1,8,0:0:0:0:
256,192,50516,1,0,0:0:0:0:
256,192,50809,1,8,0:0:0:0:
256,192,51101,1,0,0:0:0:0:
256,192,51394,1,8,0:0:0:0:
256,192,51687,1,0,0:0:0:0:
256,192,51980,1,8,0:0:0:0:
256,192,52125,1,4,0:0:0:0:
256,192,52564,1,8,0:0:0:0:
256,192,52857,1,0,0:0:0:0:
256,192,53149,1,8,0:0:0:0:
256,192,53296,1,4,0:0:0:0:
256,192,53735,1,8,0:0:0:0:
256,192,54028,1,0,0:0:0:0:
256,192,54320,1,8,0:0:0:0:
256,192,54467,1,4,0:0:0:0:
256,192,54906,1,8,0:0:0:0:
256,192,55198,1,8,0:0:0:0:
256,192,55637,1,12,0:0:0:0:
256,192,56808,1,4,0:0:0:0:
256,192,57247,1,8,0:0:0:0:
256,192,57540,1,0,0:0:0:0:
256,192,57832,1,8,0:0:0:0:
256,192,58125,1,0,0:0:0:0:
256,192,58418,1,8,0:0:0:0:
256,192,58710,1,0,0:0:0:0:
256,192,59003,1,8,0:0:0:0:
256,192,59149,1,0,0:0:0:0:
256,192,59442,1,0,0:0:0:0:
256,192,59588,1,8,0:0:0:0:
256,192,59881,1,0,0:0:0:0:
256,192,60173,1,8,0:0:0:0:
256,192,60320,1,0,0:0:0:0:
256,192,60613,1,0,0:0:0:0:
256,192,60906,1,0,0:0:0:0:
256,192,61198,1,0,0:0:0:0:
256,192,61491,1,4,0:0:0:0:
256,192,61930,1,8,0:0:0:0:
256,192,62223,1,0,0:0:0:0:
256,192,62515,1,8,0:0:0:0:
256,192,62808,1,0,0:0:0:0:
256,192,63101,1,8,0:0:0:0:
256,192,63393,1,0,0:0:0:0:
256,192,63686,1,8,0:0:0:0:
256,192,63832,1,0,0:0:0:0:
256,192,64125,1,0,0:0:0:0:
256,192,64271,1,8,0:0:0:0:
256,192,64564,1,0,0:0:0:0:
256,192,64856,1,8,0:0:0:0:
256,192,65003,1,4,0:0:0:0:
256,192,65296,1,0,0:0:0:0:
256,192,65442,1,8,0:0:0:0:
256,192,65735,1,12,0:0:0:0:
256,192,65881,1,4,0:0:0:0:
256,192,66028,1,4,0:0:0:0:
256,192,66174,1,4,0:0:0:0:
256,192,66613,1,8,0:0:0:0:
256,192,66906,1,0,0:0:0:0:
256,192,67198,1,8,0:0:0:0:
256,192,67491,1,0,0:0:0:0:
256,192,67784,1,8,0:0:0:0:
256,192,68076,1,0,0:0:0:0:
256,192,68369,1,8,0:0:0:0:
256,192,68515,1,0,0:0:0:0:
256,192,68808,1,0,0:0:0:0:
256,192,68954,1,8,0:0:0:0:
256,192,69247,1,0,0:0:0:0:
256,192,69539,1,8,0:0:0:0:
256,192,69686,1,0,0:0:0:0:
256,192,69979,1,0,0:0:0:0:
256,192,70272,1,0,0:0:0:0:
256,192,70564,1,0,0:0:0:0:
256,192,70857,1,4,0:0:0:0:
256,192,71296,1,8,0:0:0:0:
256,192,71589,1,0,0:0:0:0:
256,192,71881,1,8,0:0:0:0:
256,192,72174,1,0,0:0:0:0:
256,192,72467,1,8,0:0:0:0:
256,192,72759,1,0,0:0:0:0:
256,192,73052,1,8,0:0:0:0:
256,192,73198,1,4,0:0:0:0:
256,192,73491,1,0,0:0:0:0:
256,192,73637,1,8,0:0:0:0:
256,192,73784,1,8,0:0:0:0:
256,192,73930,1,8,0:0:0:0:
256,192,74076,1,8,0:0:0:0:
256,192,74223,1,8,0:0:0:0:
256,192,74369,1,4,0:0:0:0:
256,192,75540,1,4,0:0:0:0:
256,192,75832,1,0,0:0:0:0:
256,192,75979,1,8,0:0:0:0:
256,192,76271,1,0,0:0:0:0:
256,192,76418,1,0,0:0:0:0:
256,192,76564,1,8,0:0:0:0:
256,192,76710,1,4,0:0:0:0:
256,192,77003,1,0,0:0:0:0:
256,192,77149,1,8,0:0:0:0:
256,192,77442,1,0,0:0:0:0:
256,192,77589,1,0,0:0:0:0:
256,192,77735,1,8,0:0:0:0:
256,192,77881,1,4,0:0:0:0:
256,192,78174,1,0,0:0:0:0:
256,192,78320,1,8,0:0:0:0:
256,192,78613,1,0,0:0:0:0:
256,192,78760,1,0,0:0:0:0:
256,192,78906,1,8,0:0:0:0:
256,192,79052,1,4,0:0:0:0:
256,192,79345,1,0,0:0:0:0:
256,192,79491,1,8,0:0:0:0:
256,192,79784,1,8,0:0:0:0:
256,192,80076,1,8,0:0:0:0:
256,192,80223,1,4,0:0:0:0:
256,192,80515,1,0,0:0:0:0:
256,192,80662,1,8,0:0:0:0:
256,192,80954,1,0,0:0:0:0:
256,192,81101,1,0,0:0:0:0:
256,192,81247,1,8,0:0:0:0:
256,192,81393,1,4,0:0:0:0:
256,192,81686,1,0,0:0:0:0:
256,192,81832,1,8,0:0:0:0:
256,192,82125,1,0,0:0:0:0:
256,192,82272,1,0,0:0:0:0:
256,192,82418,1,8,0:0:0:0:
256,192,82564,1,4,0:0:0:0:
256,192,82857,1,0,0:0:0:0:
256,192,83003,1,8,0:0:0:0:
256,192,83296,1,0,0:0:0:0:
256,192,83443,1,8,0:0:0:0:
256,192,83589,1,8,0:0:0:0:
256,192,83735,1,4,0:0:0:0:
256,192,84028,1,0,0:0:0:0:
256,192,84174,1,8,0:0:0:0:
256,192,84467,1,8,0:0:0:0:
256,192,84613,1,8,0:0:0:0:
256,192,84759,1,8,0:0:0:0:
256,192,84906,1,4,0:0:0:0:
