osu file format v12

[General]
AudioFilename: Zetsubou-sei Hero Chiryouyaku.mp3
AudioLeadIn: 1500
PreviewTime: 56076
Countdown: 0
SampleSet: Normal
StackLeniency: 0.3
Mode: 0
LetterboxInBreaks: 0
WidescreenStoryboard: 0

[Editor]
DistanceSpacing: 0.9
BeatDivisor: 4
GridSize: 8

[Metadata]
Title:Zetsubousei: Hero Chiryouyaku (TV Size)
TitleUnicode:絶望性:ヒーロー治療薬 (TV Size)
Artist:Suzumu feat.Soraru
ArtistUnicode:スズム feat.そらる
Creator:No_Gu
Version:Normal
Source:Danganronpa: Kibou no Gakuen to Zetsubou no Koukousei The Animation
Tags:ダンガンロンパ 希望の学園と絶望の高校生 そらる Soraru jonathanlfj Flask climbb65588
BeatmapID:282247
BeatmapSetID:104801

[Difficulty]
HPDrainRate:4
CircleSize:4
OverallDifficulty:3
ApproachRate:6
SliderMultiplier:1
SliderTickRate:1

[Events]
//Background and Video events
0,0,"BG.jpg",0,0
Video,512,"video.avi"
//Break Periods
2,28911,37026
//Storyboard Layer 0 (Background)
//Storyboard Layer 1 (Fail)
//Storyboard Layer 2 (Pass)
//Storyboard Layer 3 (Foreground)
//Storyboard Sound Samples
//Background Colour Transformations
3,100,163,162,255

[TimingPoints]
-411,292.682926829268,4,2,1,70,1,0
613,-133.333333333333,4,2,1,40,0,0
9979,-100,4,1,1,70,0,0
28710,-133.333333333333,4,1,1,50,0,0
38076,-100,4,1,1,70,0,0
47442,-100,4,1,2,70,0,0
55198,-100,4,1,2,50,0,0
56369,-100,4,2,1,25,0,0
56808,-100,4,1,1,70,0,1
66101,-100,4,1,1,70,0,0
66174,-100,4,1,1,70,0,1
74369,-100,4,1,1,70,0,0
75540,-100,4,1,1,70,0,1
75613,-100,4,1,1,70,0,0
84979,-100,4,2,1,5,0,0

[Colours]
Combo1 : 128,64,64
Combo2 : 0,64,128
Combo3 : 64,0,0
Combo4 : 128,0,64

[HitObjects]
24,88,613,6,0,P|96:88|144:32,1,150.000005722046,2|0,0:0|0:0,0:0:0:0:
216,88,1491,1,0,0:0:0:0:
168,168,1784,2,0,L|192:328,1,150.000005722046,2|0,0:0|0:0,0:0:0:0:
256,256,2662,1,0,0:0:0:0:
321,316,2954,6,0,L|344:168,1,150.000005722046,2|0,0:0|0:0,0:0:0:0:
296,88,3832,1,0,0:0:0:0:
368,32,4125,2,0,P|416:88|464:88,1,112.500004291535,2|2,0:0|0:0,0:0:0:0:
504,160,4857,2,0,L|464:168,1,37.5000014305115,2|0,0:0|0:0,0:0:0:0:
400,232,5296,6,0,P|336:256|344:328,1,150.000005722046,2|0,0:0|0:0,0:0:0:0:
256,304,6174,1,0,0:0:0:0:
168,326,6467,2,0,P|176:256|112:232,1,150.000005722046,2|0,0:0|0:0,0:0:0:0:
88,144,7345,1,0,0:0:0:0:
136,64,7637,6,0,B|176:48|176:48|168:112|216:144,1,150.000005722046,2|0,0:0|0:0,0:0:0:0:
256,64,8515,1,0,0:0:0:0:
298,142,8808,2,0,B|344:112|336:48|336:48|376:64,1,150.000005722046,2|2,0:0|0:0,0:0:0:0:
464,288,9979,6,0,P|408:328|328:320,1,150,4|8,0:2|0:0,0:0:0:0:
272,256,10710,2,0,L|280:152,1,100,0|8,0:0|0:0,0:0:0:0:
248,120,11149,2,0,P|208:96|104:104,1,150,4|8,0:2|0:0,0:0:0:0:
48,168,11881,2,0,L|40:272,1,100,0|8,0:0|0:0,0:0:0:0:
72,304,12320,6,0,P|112:328|216:320,1,150,4|8,0:2|0:0,0:0:0:0:
272,256,13052,2,0,L|384:256,1,100,0|8,0:0|0:0,0:0:0:0:
408,232,13491,2,0,P|424:168|416:136,1,100,4|0,0:2|0:0,0:0:0:0:
384,104,13930,2,0,L|392:48,1,50,8|0,0:0|0:0,0:0:0:0:
344,64,14223,2,0,L|336:14,2,50,8|0|8,0:0|0:0|0:0,0:0:0:0:
304,48,14662,6,0,P|256:40|208:64,1,100,4|0,0:2|0:0,0:0:0:0:
184,96,15101,2,0,L|80:88,1,100,8|0,0:0|0:0,0:0:0:0:
16,152,15686,1,8,0:0:0:0:
56,176,15832,2,0,P|72:232|32:312,1,150,4|8,0:2|0:0,0:0:0:0:
104,368,16564,2,0,P|152:368|192:336,1,100,0|8,0:0|0:0,0:0:0:0:
208,296,17003,6,0,L|176:144,1,150,4|8,0:2|0:0,0:0:0:0:
240,80,17735,1,0,0:0:0:0:
328,96,18028,1,8,0:0:0:0:
368,120,18174,2,0,P|416:128|464:96,1,100,4|0,0:2|0:0,0:0:0:0:
480,64,18613,2,8,P|456:128|496:208,1,150,8|8,0:0|0:0,0:0:0:0:
504,240,19198,2,0,L|496:296,1,50,8|4,0:0|0:2,0:0:0:0:
256,192,19784,12,4,21686,0:2:0:0:
256,192,22125,12,4,24028,0:2:0:0:
256,192,24467,12,4,26369,0:2:0:0:
256,192,26808,12,4,28711,0:0:0:0:
48,64,38076,6,0,B|96:48|96:48|120:112|192:104,1,150,4|8,0:2|0:0,0:0:0:0:
216,88,38662,1,0,0:0:0:0:
256,112,38808,2,0,L|240:216,1,100,0|8,0:0|0:0,0:0:0:0:
264,248,39247,2,0,P|320:280|408:264,1,150,0|8,0:0|0:0,0:0:0:0:
440,240,39832,1,0,0:0:0:0:
456,200,39979,1,0,0:0:0:0:
432,112,40271,1,8,0:0:0:0:
392,136,40418,6,0,L|288:120,1,100
256,144,40857,2,0,P|240:192|248:240,1,100,8|0,0:0|0:0,0:0:0:0:
320,296,41442,2,0,P|336:248|328:200,2,100,8|0|8,0:0|0:0|0:0,0:0:0:0:
288,328,42174,1,0,0:0:0:0:
248,344,42320,2,0,L|144:336,1,100,0|8,0:0|0:0,0:0:0:0:
112,304,42759,6,0,P|88:240|112:160,1,150,0|8,0:0|0:0,0:0:0:0:
184,112,43491,1,0,0:0:0:0:
256,160,43784,1,8,0:0:0:0:
328,112,44076,2,0,P|344:56|336:8,1,100,0|8,0:0|0:0,0:0:0:0:
296,8,44515,1,0,0:0:0:0:
256,32,44662,2,0,L|152:24,1,100,0|8,0:0|0:0,0:0:0:0:
128,56,45101,6,0,L|24:48,1,100,0|0,0:0|0:0,0:0:0:0:
0,88,45540,1,8,0:0:0:0:
40,168,45832,1,0,0:0:0:0:
128,152,46125,1,8,0:0:0:0:
168,128,46271,2,0,L|320:144,1,150,4|8,0:2|0:0,0:0:0:0:
344,232,47003,2,0,L|194:216,2,150,8|4|8,0:0|0:2|0:0,0:0:0:0:
384,216,48028,6,0,P|400:176|392:120,1,100,2|2,0:0|0:0,0:0:0:0:
352,96,48467,1,8,0:0:0:0:
307,103,48613,2,0,L|203:103,1,100,2|2,0:0|0:0,0:0:0:0:
160,96,49052,1,8,0:0:0:0:
120,120,49199,2,0,P|112:176|128:216,1,100,2|2,0:0|0:0,0:0:0:0:
160,248,49637,1,8,0:0:0:0:
200,264,49784,6,0,B|216:312|192:352|192:352|216:376|248:368,1,150,2|8,0:0|0:0,0:0:0:0:
320,312,50515,2,0,L|312:256,2,50,0|2|8,0:0|0:0|0:0,0:0:0:0:
360,336,50954,2,0,P|416:344|464:320,1,100,2|2,0:0|0:0,0:0:0:0:
480,288,51393,2,0,L|456:184,1,100,8|0,0:0|0:0,0:0:0:0:
416,168,51832,2,0,L|404:116,1,50,2|8,0:0|0:0,0:0:0:0:
392,72,52125,6,0,B|392:136|328:160|272:136,1,150,4|8,0:2|0:0,0:0:0:0:
256,112,52710,1,2,0:0:0:0:
216,96,52857,2,0,L|112:104,1,100,0|8,0:0|0:0,0:0:0:0:
88,136,53296,2,0,B|120:184|88:232|88:232|112:256|136:248,1,150,4|8,0:2|0:0,0:0:0:0:
176,240,53881,1,2,0:0:0:0:
216,224,54028,2,0,L|328:240,1,100,0|8,0:0|0:0,0:0:0:0:
352,216,54467,1,4,0:2:0:0:
256,192,54613,12,8,55637,0:0:0:0:
64,272,56808,6,0,P|104:208|96:136,1,150,4|8,0:2|0:0,0:0:0:0:
48,56,57540,2,0,L|160:64,1,100,0|8,0:0|0:0,0:0:0:0:
184,88,57979,2,0,P|256:96|320:56,1,150,0|8,0:0|0:0,0:0:0:0:
336,16,58564,2,0,L|456:16,1,100
472,40,59003,1,8,0:0:0:0:
488,80,59149,6,0,P|496:136|472:176,1,100
448,208,59588,2,0,P|403:242|356:242,2,100,8|0|8,0:0|0:0|0:0,0:0:0:0:
432,168,60320,1,0,0:0:0:0:
344,152,60613,2,0,L|336:48,2,100
280,216,61491,6,0,P|216:256|144:240,1,150,4|8,0:2|0:0,0:0:0:0:
80,184,62223,2,0,P|56:136|64:80,1,100,0|8,0:0|0:0,0:0:0:0:
96,64,62662,2,0,L|208:72,1,100
232,48,63101,1,8,0:0:0:0:
304,104,63393,2,0,L|312:40,2,50,0|0|8,0:0|0:0|0:0,0:0:0:0:
296,152,63832,6,0,P|296:208|328:256,1,100
360,264,64271,2,0,L|472:256,1,100,8|0,0:0|0:0,0:0:0:0:
496,224,64710,2,0,P|504:192|504:176,2,50,0|8|4,0:0|0:0|0:2,0:0:0:0:
504,312,65296,2,0,P|496:344|496:360,2,50,0|8|0,0:0|0:0|0:2,0:0:0:0:
472,280,65735,2,0,L|408:288,2,50,0|4|4,0:0|0:2|0:2,0:0:0:0:
496,240,66174,6,0,P|512:176|472:96,1,150,4|8,0:0|0:0,0:0:0:0:
424,32,66906,2,0,L|480:24,2,50,0|0|8,0:0|0:0|0:0,0:0:0:0:
376,40,67345,2,0,P|328:40|280:16,1,100
304,56,67784,2,0,P|312:128|256:184,1,150,8|0,0:0|0:0,0:0:0:0:
224,160,68369,1,8,0:0:0:0:
184,144,68515,6,0,L|80:152,1,100
64,192,68954,2,0,P|48:264|64:296,2,100,8|0|8,0:0|0:0|0:0,0:0:0:0:
112,184,69686,1,0,0:0:0:0:
176,248,69979,2,0,L|280:248,2,100
200,160,70857,6,0,B|232:120|208:72|208:72|232:48|272:64,1,150,4|8,0:2|0:0,0:0:0:0:
304,80,71442,1,0,0:0:0:0:
344,104,71588,2,0,P|408:104|448:72,1,100,0|8,0:0|0:0,0:0:0:0:
464,48,72028,2,0,P|440:112|472:184,1,150,0|8,0:0|0:0,0:0:0:0:
440,272,72759,2,0,L|336:264,1,100,0|8,0:0|0:0,0:0:0:0:
304,240,73198,6,0,P|280:192|288:144,1,100,4|8,0:2|0:0,0:0:0:0:
312,112,73637,2,8,L|296:64,1,50
336,80,73930,2,8,L|346:30,1,50
376,64,74223,2,8,L|409:26,1,50
144,272,75540,6,0,P|120:200|160:136,1,150,4|8,0:2|0:0,0:0:0:0:
216,72,76271,2,0,L|200:8,2,50,0|0|8,0:0|0:0|0:0,0:0:0:0:
256,96,76710,2,0,P|320:104|368:80,1,100,4|0,0:2|0:0,0:0:0:0:
384,64,77149,1,8,0:0:0:0:
448,128,77442,2,0,P|464:176|440:232,1,100,0|8,0:0|0:0,0:0:0:0:
408,240,77881,6,0,L|248:216,1,150,4|8,0:2|0:0,0:0:0:0:
200,152,78613,2,0,P|176:200|184:248,1,100,0|8,0:0|0:0,0:0:0:0:
208,280,79052,2,0,L|56:264,1,150,4|8,0:2|0:0,0:0:0:0:
0,192,79784,1,0,0:0:0:0:
16,104,80076,1,8,0:0:0:0:
48,72,80223,6,0,P|104:48|160:56,1,100,4|0,0:2|0:0,0:0:0:0:
184,72,80662,2,0,P|240:96|296:88,1,100,8|0,0:0|0:0,0:0:0:0:
344,32,81247,1,8,0:0:0:0:
376,64,81393,2,0,P|400:136|360:200,1,150,4|8,0:2|0:0,0:0:0:0:
304,264,82125,2,0,L|360:272,2,50,0|0|8,0:0|0:0|0:0,0:0:0:0:
256,256,82564,6,0,P|200:248|136:264,1,100,4|0,0:2|0:0,0:0:0:0:
120,280,83003,2,0,L|128:128,1,150,8|8,0:0|0:0,0:0:0:0:
200,72,83735,2,0,P|280:48|344:72,1,150,4|8,0:2|0:0,0:0:0:0:
368,152,84467,2,8,L|360:208,2,50
408,128,84906,1,4,0:2:0:0:
256,192,84979,12,0,86223,0:0:0:0:
