osu file format v12

[General]
AudioFilename: Zetsubou-sei Hero Chiryouyaku.mp3
AudioLeadIn: 1500
PreviewTime: 56076
Countdown: 0
SampleSet: Soft
StackLeniency: 0.3
Mode: 0
LetterboxInBreaks: 0
WidescreenStoryboard: 0

[Editor]
DistanceSpacing: 1.2
BeatDivisor: 4
GridSize: 8

[Metadata]
Title:Zetsubousei: Hero Chiryouyaku (TV Size)
TitleUnicode:絶望性:ヒーロー治療薬 (TV Size)
Artist:Suzumu feat.Soraru
ArtistUnicode:スズム feat.そらる
Creator:No_Gu
Version:Easy
Source:Danganronpa: Kibou no Gakuen to Zetsubou no Koukousei The Animation
Tags:ダンガンロンパ 希望の学園と絶望の高校生 そらる Soraru jonathanlfj Flask climbb65588
BeatmapID:281625
BeatmapSetID:104801

[Difficulty]
HPDrainRate:3
CircleSize:3
OverallDifficulty:2
ApproachRate:4
SliderMultiplier:0.8
SliderTickRate:1

[Events]
//Background and Video events
0,0,"BG.jpg",0,0
Video,512,"video.avi"
//Break Periods
2,28911,36756
//Storyboard Layer 0 (Background)
//Storyboard Layer 1 (Fail)
//Storyboard Layer 2 (Pass)
//Storyboard Layer 3 (Foreground)
//Storyboard Sound Samples
//Background Colour Transformations
3,100,163,162,255

[TimingPoints]
-411,292.682926829268,4,2,1,70,1,0
613,-133.333333333333,4,2,1,40,0,0
9979,-100,4,1,1,70,0,0
28710,-133.333333333333,4,1,1,50,0,0
38076,-100,4,1,1,70,0,0
47442,-100,4,1,2,70,0,0
55198,-100,4,1,2,50,0,0
56369,-100,4,2,1,25,0,0
56808,-100,4,1,1,70,0,1
66101,-100,4,1,1,70,0,0
66174,-100,4,1,1,70,0,1
74369,-100,4,1,1,70,0,0
75540,-100,4,1,1,70,0,1
75613,-100,4,1,1,70,0,0
84979,-100,4,2,1,5,0,0

[Colours]
Combo1 : 128,64,64
Combo2 : 0,64,128
Combo3 : 64,0,0
Combo4 : 128,0,64

[HitObjects]
48,48,613,2,0,L|232:40,1,180.000006866455,2|0,0:0|0:0,0:0:0:0:
256,128,1784,2,0,L|76:135,1,180.000006866455,2|0,0:0|0:0,0:0:0:0:
104,224,2954,6,0,L|288:216,1,180.000006866455,2|0,0:0|0:0,0:0:0:0:
304,304,4125,2,0,L|124:311,1,180.000006866455,2|0,0:0|0:0,0:0:0:0:
56,248,5296,6,0,P|24:168|48:72,1,180.000006866455,2|0,0:0|0:0,0:0:0:0:
120,32,6467,2,0,B|168:48|168:48|216:104|208:176,1,180.000006866455,2|0,0:0|0:0,0:0:0:0:
303,167,7637,6,0,B|296:104|344:48|344:48|392:32,1,180.000006866455,2|0,0:0|0:0,0:0:0:0:
468,78,8808,2,0,P|488:168|464:232,1,150.000005722046,2|2,0:0|0:0,0:0:0:0:
344,296,9979,6,0,L|216:288,1,120,4|8,0:2|0:0,0:0:0:0:
144,240,10710,2,0,P|128:184|144:120,2,120,0|4|8,0:0|0:2|0:0,0:0:0:0:
144,336,11881,6,0,L|24:344,2,120,0|4|8,0:0|0:2|0:0,0:0:0:0:
224,288,13052,2,0,P|248:240|232:168,1,120,0|4,0:0|0:2,0:0:0:0:
128,80,13930,2,0,L|208:88,1,80,8|8,0:0|0:0,0:0:0:0:
304,104,14515,2,0,L|344:100,1,40,8|4,0:0|0:2,0:0:0:0:
336,248,15101,6,0,P|264:256|224:232,1,120,8|0,0:0|0:0,0:0:0:0:
176,152,15832,2,0,L|184:24,2,120,4|8|0,0:2|0:0|0:0,0:0:0:0:
136,240,17003,6,0,L|144:368,1,120,4|8,0:2|0:0,0:0:0:0:
232,320,17735,2,0,P|288:320|336:368,2,120,0|4|8,0:0|0:2|0:0,0:0:0:0:
144,352,18906,2,0,P|88:352|40:304,1,120,0|4,0:0|0:2,0:0:0:0:
256,192,19784,12,4,21686,0:2:0:0:
256,192,22125,12,4,24028,0:2:0:0:
256,192,24467,12,4,26369,0:2:0:0:
256,192,26808,12,4,28711,0:0:0:0:
64,104,38076,6,0,B|88:120|88:120|136:128|176:104,1,120,4|8,0:2|0:0,0:0:0:0:
248,40,38808,2,0,P|272:32|328:40,2,80,0|8|0,0:0|0:0|0:0,0:0:0:0:
272,136,39686,2,0,P|288:192|272:264,1,120,8|0,0:0|0:0,0:0:0:0:
208,320,40418,6,0,L|80:304,1,120,0|8,0:0|0:0,0:0:0:0:
40,224,41149,1,0,0:0:0:0:
96,152,41442,2,8,P|112:72|72:8,2,160
208,304,43198,6,8,L|376:304,2,160
136,240,44662,2,0,P|168:192|168:120,1,120
232,56,45393,6,0,L|224:0,1,40,0|8,0:0|0:0,0:0:0:0:
320,48,45832,2,0,P|376:56|432:24,1,120,0|4,0:0|0:2,0:0:0:0:
360,152,46710,2,0,P|360:248|432:320,1,200,8|4,0:0|0:2,0:0:0:0:
288,296,47881,6,8,P|208:296|160:360,1,160
176,160,49052,2,0,L|184:40,1,120,8|2,0:0|0:0,0:0:0:0:
280,24,49784,6,0,L|272:144,1,120,2|8,0:0|0:0,0:0:0:0:
336,216,50515,2,0,P|376:232|456:224,1,120,0|2,0:0|0:0,0:0:0:0:
496,144,51247,1,2,0:0:0:0:
464,56,51540,2,0,L|472:16,1,40,2|0,0:0|0:0,0:0:0:0:
336,64,52125,6,0,P|224:96|160:48,1,200,4|0,0:2|0:0,0:0:0:0:
80,168,53296,2,0,P|163:248|154:328,1,200,4|0,0:2|0:0,0:0:0:0:
296,352,54467,2,0,P|324:239|397:207,1,200,4|8,0:2|0:0,0:0:0:0:
440,344,55637,1,8,0:0:0:0:
64,248,56808,6,0,P|88:208|80:128,1,120,4|8,0:2|0:0,0:0:0:0:
32,56,57540,2,0,L|152:48,1,120,0|0,0:0|0:0,0:0:0:0:
240,8,58271,1,0,0:0:0:0:
312,72,58564,2,0,P|352:96|368:128,1,80
280,160,59149,5,0,0:0:0:0:
392,248,59588,2,8,L|272:256,1,120,8|0,0:0|0:0,0:0:0:0:
176,240,60320,2,0,L|144:160,2,80
176,336,61198,1,0,0:0:0:0:
96,288,61491,6,0,B|64:280|32:288|32:288|8:272|0:240,1,120,4|8,0:2|0:0,0:0:0:0:
48,160,62223,2,0,L|40:32,1,120
136,56,62954,1,0,0:0:0:0:
232,32,63247,2,0,P|256:24|320:32,1,80
376,96,63832,6,0,L|368:216,1,120,0|8,0:0|0:0,0:0:0:0:
272,232,64564,2,0,L|280:112,2,120,0|4|8,0:0|0:2|0:0,0:0:0:0:
192,288,65735,2,0,P|120:296|72:280,1,120,8|4,0:0|0:2,0:0:0:0:
32,144,66613,5,8,0:0:0:0:
120,112,66906,2,0,B|136:80|128:48|128:48|152:32|184:40,1,120
272,64,67637,2,0,P|312:64|352:48,1,80
344,144,68223,2,0,L|336:232,1,80
224,312,68954,6,0,P|176:320|136:312,1,80,8|0,0:0|0:0,0:0:0:0:
80,184,69686,2,0,L|72:264,2,80
160,128,70564,1,0,0:0:0:0:
176,224,70857,6,0,P|240:240|304:224,1,120,4|8,0:2|0:0,0:0:0:0:
344,312,71588,2,0,P|389:264|408:201,1,120
288,128,72467,1,8,0:0:0:0:
216,184,72759,2,0,L|88:168,1,120,0|4,0:0|0:2,0:0:0:0:
144,304,73637,6,8,P|240:312|304:240,1,200
80,64,75540,6,0,L|208:56,1,120,4|8,0:2|0:0,0:0:0:0:
272,120,76271,2,0,L|400:112,2,120,0|4|8,0:0|0:2|0:0,0:0:0:0:
208,184,77442,6,0,P|192:248|216:296,2,120,0|4|8,0:0|0:2|0:0,0:0:0:0:
176,96,78613,2,0,L|56:103,1,120,0|4,0:0|0:2,0:0:0:0:
32,248,79491,2,0,L|111:243,1,80,8|0,0:0|0:0,0:0:0:0:
240,312,80223,6,0,P|264:248|248:192,1,120,4|8,0:2|0:0,0:0:0:0:
320,136,80954,2,0,L|440:152,2,120,0|4|8,0:0|0:2|0:0,0:0:0:0:
224,112,82125,6,0,P|200:48|216:-8,2,120,0|4|8,0:0|0:2|0:0,0:0:0:0:
176,192,83296,2,0,L|48:192,2,120,0|4|8,0:0|0:2|0:0,0:0:0:0:
248,256,84467,6,0,L|368:256,1,120,8|4,0:0|0:0,0:0:0:0:
256,192,84979,12,0,86223,0:0:0:0:
