osu file format v14

[General]
AudioFilename: audio.mp3
AudioLeadIn: 0
PreviewTime: 39194
Countdown: 0
SampleSet: Soft
StackLeniency: 0.7
Mode: 3
LetterboxInBreaks: 0
SpecialStyle: 0
WidescreenStoryboard: 1

[Editor]
DistanceSpacing: 1
BeatDivisor: 4
GridSize: 8
TimelineZoom: 1.6

[Metadata]
Title:Kashokusei:Idol shoukougun
TitleUnicode:過食性:アイドル症候群
Artist:Suzumu feat.GUMI & MAYU
ArtistUnicode:スズム feat.GUMI&MAYU
Creator:CrazyOnePro
Version:4K NOVICE
Source:SOUND VOLTEX BOOTH
Tags:EXIT TUNES PRESENTS VOCALOID 3
BeatmapID:1417211
BeatmapSetID:670034

[Difficulty]
HPDrainRate:8
CircleSize:4
OverallDifficulty:8
ApproachRate:5
SliderMultiplier:1.4
SliderTickRate:1

[Events]
//Background and Video events
0,0,"Kashokusei_Idol_Shoukougun.jpg",0,0
//Break Periods
//Storyboard Layer 0 (Background)
//Storyboard Layer 1 (Fail)
//Storyboard Layer 2 (Pass)
//Storyboard Layer 3 (Foreground)
//Storyboard Sound Samples

[TimingPoints]
1244,300,4,2,0,5,1,0
39194,-100,4,2,0,5,0,1
58544,-100,4,2,0,5,0,0
68444,-100,4,2,0,5,0,1
77669,-100,4,2,0,5,0,0
77744,-100,4,2,0,5,0,1
97244,-100,4,2,0,5,0,0

[HitObjects]
64,192,1244,5,0,0:0:0:0:
192,192,1394,1,0,0:0:0:0:
320,192,1544,1,0,0:0:0:0:
448,192,1694,1,0,0:0:0:0:
64,192,1694,128,0,1994:0:0:0:0:
192,192,1994,128,0,2294:0:0:0:0:
448,192,2444,1,0,0:0:0:0:
320,192,2594,1,0,0:0:0:0:
192,192,2744,1,0,0:0:0:0:
448,192,2894,1,0,0:0:0:0:
320,192,3044,1,0,0:0:0:0:
192,192,3194,1,0,0:0:0:0:
64,192,3344,1,0,0:0:0:0:
320,192,3494,1,0,0:0:0:0:
192,192,3644,1,0,0:0:0:0:
448,192,3794,1,0,0:0:0:0:
320,192,3944,1,0,0:0:0:0:
192,192,4094,1,0,0:0:0:0:
64,192,4244,1,0,0:0:0:0:
448,192,4394,1,0,0:0:0:0:
320,192,4469,1,0,0:0:0:0:
192,192,4544,1,0,0:0:0:0:
64,192,4619,1,0,0:0:0:0:
320,192,4844,1,0,0:0:0:0:
448,192,4994,1,0,0:0:0:0:
320,192,5144,1,0,0:0:0:0:
192,192,5294,1,0,0:0:0:0:
320,192,5444,1,0,0:0:0:0:
192,192,5594,1,0,0:0:0:0:
448,192,5744,1,0,0:0:0:0:
192,192,5894,1,0,0:0:0:0:
448,192,6044,1,0,0:0:0:0:
64,192,6194,1,0,0:0:0:0:
192,192,6344,1,0,0:0:0:0:
320,192,6494,1,0,0:0:0:0:
448,192,6644,1,0,0:0:0:0:
64,192,6719,1,0,0:0:0:0:
192,192,6794,1,0,0:0:0:0:
320,192,6869,1,0,0:0:0:0:
448,192,6944,1,0,0:0:0:0:
64,192,7094,1,0,0:0:0:0:
192,192,7244,1,0,0:0:0:0:
320,192,7394,1,0,0:0:0:0:
448,192,7544,1,0,0:0:0:0:
320,192,7694,1,0,0:0:0:0:
192,192,7844,1,0,0:0:0:0:
320,192,7994,1,0,0:0:0:0:
64,192,8144,1,0,0:0:0:0:
192,192,8294,1,0,0:0:0:0:
320,192,8444,1,0,0:0:0:0:
192,192,8594,1,0,0:0:0:0:
64,192,8744,1,0,0:0:0:0:
192,192,8894,1,0,0:0:0:0:
320,192,9044,1,0,0:0:0:0:
64,192,9194,1,0,0:0:0:0:
192,192,9344,1,0,0:0:0:0:
320,192,9494,1,0,0:0:0:0:
64,192,9644,1,0,0:0:0:0:
448,192,9794,1,0,0:0:0:0:
64,192,9944,1,0,0:0:0:0:
192,192,10094,1,0,0:0:0:0:
320,192,10244,1,0,0:0:0:0:
192,192,10394,1,0,0:0:0:0:
320,192,10544,1,0,0:0:0:0:
192,192,10694,1,0,0:0:0:0:
448,192,10844,1,0,0:0:0:0:
320,192,10994,1,0,0:0:0:0:
192,192,11144,1,0,0:0:0:0:
192,192,11444,1,0,0:0:0:0:
64,192,11744,1,0,0:0:0:0:
320,192,12044,1,0,0:0:0:0:
192,192,12344,1,0,0:0:0:0:
192,192,12644,1,0,0:0:0:0:
448,192,12794,1,0,0:0:0:0:
320,192,12944,1,0,0:0:0:0:
64,192,13094,1,0,0:0:0:0:
192,192,13244,1,0,0:0:0:0:
448,192,13394,1,0,0:0:0:0:
320,192,13544,1,0,0:0:0:0:
192,192,13694,1,0,0:0:0:0:
448,192,13844,1,0,0:0:0:0:
320,192,13994,1,0,0:0:0:0:
192,192,14144,1,0,0:0:0:0:
320,192,14294,1,0,0:0:0:0:
64,192,14444,1,0,0:0:0:0:
192,192,14744,1,0,0:0:0:0:
320,192,15044,1,0,0:0:0:0:
192,192,15194,1,0,0:0:0:0:
64,192,15344,1,0,0:0:0:0:
448,192,15494,1,0,0:0:0:0:
320,192,15569,1,0,0:0:0:0:
192,192,15644,1,0,0:0:0:0:
192,192,15944,1,0,0:0:0:0:
320,192,16244,1,0,0:0:0:0:
192,192,16544,1,0,0:0:0:0:
448,192,16694,1,0,0:0:0:0:
320,192,16844,1,0,0:0:0:0:
320,192,17144,1,0,0:0:0:0:
448,192,17444,1,0,0:0:0:0:
320,192,17594,1,0,0:0:0:0:
192,192,17744,1,0,0:0:0:0:
64,192,17894,1,0,0:0:0:0:
448,192,18044,1,0,0:0:0:0:
320,192,18344,1,0,0:0:0:0:
448,192,18494,1,0,0:0:0:0:
192,192,18644,1,0,0:0:0:0:
320,192,18944,1,0,0:0:0:0:
192,192,19094,1,0,0:0:0:0:
448,192,19244,1,0,0:0:0:0:
192,192,19394,1,0,0:0:0:0:
320,192,19544,1,0,0:0:0:0:
64,192,19694,1,0,0:0:0:0:
192,192,19844,1,0,0:0:0:0:
448,192,19994,1,0,0:0:0:0:
320,192,20069,1,0,0:0:0:0:
192,192,20144,1,0,0:0:0:0:
64,192,20219,1,0,0:0:0:0:
192,192,20294,1,0,0:0:0:0:
320,192,20444,1,0,0:0:0:0:
320,192,20744,1,0,0:0:0:0:
192,192,21044,1,0,0:0:0:0:
64,192,21344,1,0,0:0:0:0:
448,192,21644,1,0,0:0:0:0:
320,192,21794,1,0,0:0:0:0:
192,192,21944,1,0,0:0:0:0:
64,192,22094,1,0,0:0:0:0:
448,192,22244,1,0,0:0:0:0:
320,192,22394,1,0,0:0:0:0:
192,192,22544,1,0,0:0:0:0:
64,192,22694,1,0,0:0:0:0:
320,192,22844,1,0,0:0:0:0:
64,192,22994,1,0,0:0:0:0:
192,192,23144,1,0,0:0:0:0:
320,192,23294,1,0,0:0:0:0:
448,192,23444,1,0,0:0:0:0:
192,192,23594,1,0,0:0:0:0:
64,192,23744,1,0,0:0:0:0:
448,192,23894,1,0,0:0:0:0:
320,192,24044,1,0,0:0:0:0:
64,192,24194,1,0,0:0:0:0:
192,192,24344,1,0,0:0:0:0:
320,192,24494,1,0,0:0:0:0:
64,192,24644,1,0,0:0:0:0:
192,192,24719,1,0,0:0:0:0:
320,192,24794,1,0,0:0:0:0:
448,192,24944,1,0,0:0:0:0:
320,192,25094,1,0,0:0:0:0:
192,192,25244,1,0,0:0:0:0:
448,192,25394,1,0,0:0:0:0:
320,192,25544,1,0,0:0:0:0:
192,192,25694,1,0,0:0:0:0:
448,192,25844,1,0,0:0:0:0:
320,192,25994,1,0,0:0:0:0:
192,192,26144,1,0,0:0:0:0:
64,192,26294,1,0,0:0:0:0:
320,192,26444,1,0,0:0:0:0:
192,192,26594,1,0,0:0:0:0:
64,192,26744,1,0,0:0:0:0:
448,192,26894,1,0,0:0:0:0:
320,192,27044,1,0,0:0:0:0:
64,192,27194,1,0,0:0:0:0:
192,192,27344,1,0,0:0:0:0:
320,192,27494,1,0,0:0:0:0:
448,192,27644,1,0,0:0:0:0:
192,192,27794,1,0,0:0:0:0:
64,192,27944,1,0,0:0:0:0:
448,192,27944,1,0,0:0:0:0:
320,192,28094,1,0,0:0:0:0:
192,192,28244,1,0,0:0:0:0:
64,192,28394,1,0,0:0:0:0:
448,192,28544,1,0,0:0:0:0:
64,192,28694,1,0,0:0:0:0:
192,192,28844,1,0,0:0:0:0:
320,192,28994,1,0,0:0:0:0:
448,192,29144,1,0,0:0:0:0:
192,192,29294,1,0,0:0:0:0:
320,192,29444,1,0,0:0:0:0:
192,192,29594,1,0,0:0:0:0:
320,192,29744,1,0,0:0:0:0:
64,192,30044,128,0,31844:0:0:0:0:
320,192,30044,1,0,0:0:0:0:
448,192,30044,1,0,0:0:0:0:
192,192,30344,1,0,0:0:0:0:
320,192,30644,1,0,0:0:0:0:
448,192,30944,1,0,0:0:0:0:
192,192,31244,1,0,0:0:0:0:
320,192,31544,1,0,0:0:0:0:
448,192,31844,1,0,0:0:0:0:
320,192,32144,1,0,0:0:0:0:
192,192,32294,1,0,0:0:0:0:
64,192,32444,1,0,0:0:0:0:
448,192,32444,128,0,32744:0:0:0:0:
192,192,32744,1,0,0:0:0:0:
64,192,33044,1,0,0:0:0:0:
448,192,33194,1,0,0:0:0:0:
320,192,33344,1,0,0:0:0:0:
64,192,33494,1,0,0:0:0:0:
192,192,33644,1,0,0:0:0:0:
192,192,33944,1,0,0:0:0:0:
320,192,34244,1,0,0:0:0:0:
448,192,34544,1,0,0:0:0:0:
320,192,34844,1,0,0:0:0:0:
64,192,35144,1,0,0:0:0:0:
192,192,35444,1,0,0:0:0:0:
320,192,35744,1,0,0:0:0:0:
448,192,36044,1,0,0:0:0:0:
64,192,36344,1,0,0:0:0:0:
320,192,36644,1,0,0:0:0:0:
320,192,36944,1,0,0:0:0:0:
192,192,37094,1,0,0:0:0:0:
320,192,37244,1,0,0:0:0:0:
192,192,37394,1,0,0:0:0:0:
320,192,37544,1,0,0:0:0:0:
192,192,37694,1,0,0:0:0:0:
64,192,37994,1,0,0:0:0:0:
192,192,38144,1,0,0:0:0:0:
320,192,38294,1,0,0:0:0:0:
448,192,38444,1,0,0:0:0:0:
64,192,38744,128,0,39044:0:0:0:0:
192,192,39044,128,0,39344:0:0:0:0:
320,192,39344,1,0,0:0:0:0:
448,192,39494,1,0,0:0:0:0:
320,192,39644,1,0,0:0:0:0:
192,192,39794,1,0,0:0:0:0:
64,192,39944,1,0,0:0:0:0:
448,192,40094,1,0,0:0:0:0:
320,192,40094,1,0,0:0:0:0:
192,192,40244,1,0,0:0:0:0:
64,192,40394,1,0,0:0:0:0:
320,192,40544,1,0,0:0:0:0:
192,192,40694,1,0,0:0:0:0:
64,192,40844,1,0,0:0:0:0:
320,192,40994,1,0,0:0:0:0:
192,192,41144,1,0,0:0:0:0:
448,192,41294,1,0,0:0:0:0:
320,192,41444,1,0,0:0:0:0:
64,192,41594,1,0,0:0:0:0:
192,192,41744,1,0,0:0:0:0:
320,192,41894,1,0,0:0:0:0:
448,192,42044,1,0,0:0:0:0:
64,192,42194,1,0,0:0:0:0:
192,192,42344,1,0,0:0:0:0:
320,192,42494,1,0,0:0:0:0:
448,192,42644,1,0,0:0:0:0:
64,192,42794,1,0,0:0:0:0:
192,192,42944,1,0,0:0:0:0:
320,192,43094,1,0,0:0:0:0:
448,192,43244,1,0,0:0:0:0:
64,192,43394,1,0,0:0:0:0:
192,192,43544,1,0,0:0:0:0:
320,192,43694,1,0,0:0:0:0:
192,192,43844,1,0,0:0:0:0:
64,192,43994,1,0,0:0:0:0:
448,192,44144,1,0,0:0:0:0:
320,192,44294,1,0,0:0:0:0:
192,192,44444,1,0,0:0:0:0:
64,192,44594,1,0,0:0:0:0:
192,192,44744,1,0,0:0:0:0:
320,192,44894,1,0,0:0:0:0:
192,192,45044,1,0,0:0:0:0:
64,192,45194,1,0,0:0:0:0:
320,192,45344,1,0,0:0:0:0:
448,192,45494,1,0,0:0:0:0:
192,192,45644,1,0,0:0:0:0:
320,192,45794,1,0,0:0:0:0:
64,192,45944,1,0,0:0:0:0:
192,192,46094,1,0,0:0:0:0:
448,192,46244,1,0,0:0:0:0:
320,192,46394,1,0,0:0:0:0:
448,192,46544,1,0,0:0:0:0:
320,192,46694,1,0,0:0:0:0:
192,192,46844,128,0,47144:0:0:0:0:
64,192,47294,1,0,0:0:0:0:
320,192,47444,128,0,47744:0:0:0:0:
448,192,48044,1,0,0:0:0:0:
320,192,48194,1,0,0:0:0:0:
64,192,48344,1,0,0:0:0:0:
192,192,48494,1,0,0:0:0:0:
448,192,48644,1,0,0:0:0:0:
320,192,48794,1,0,0:0:0:0:
64,192,48944,1,0,0:0:0:0:
192,192,49094,1,0,0:0:0:0:
448,192,49244,1,0,0:0:0:0:
320,192,49394,1,0,0:0:0:0:
192,192,49544,1,0,0:0:0:0:
64,192,49694,1,0,0:0:0:0:
192,192,49844,1,0,0:0:0:0:
448,192,49994,1,0,0:0:0:0:
320,192,50144,1,0,0:0:0:0:
192,192,50294,1,0,0:0:0:0:
64,192,50444,1,0,0:0:0:0:
448,192,50594,1,0,0:0:0:0:
192,192,50744,1,0,0:0:0:0:
320,192,50894,1,0,0:0:0:0:
64,192,51044,1,0,0:0:0:0:
320,192,51194,1,0,0:0:0:0:
64,192,51344,1,0,0:0:0:0:
192,192,51494,1,0,0:0:0:0:
320,192,51644,1,0,0:0:0:0:
448,192,51794,1,0,0:0:0:0:
320,192,51944,1,0,0:0:0:0:
192,192,52094,1,0,0:0:0:0:
64,192,52244,1,0,0:0:0:0:
448,192,52394,1,0,0:0:0:0:
320,192,52544,1,0,0:0:0:0:
192,192,52694,1,0,0:0:0:0:
64,192,52844,1,0,0:0:0:0:
448,192,52994,1,0,0:0:0:0:
320,192,53144,1,0,0:0:0:0:
192,192,53294,1,0,0:0:0:0:
64,192,53444,1,0,0:0:0:0:
64,192,53744,1,0,0:0:0:0:
448,192,53894,1,0,0:0:0:0:
320,192,54044,1,0,0:0:0:0:
192,192,54194,1,0,0:0:0:0:
64,192,54344,1,0,0:0:0:0:
448,192,54494,1,0,0:0:0:0:
320,192,54644,1,0,0:0:0:0:
192,192,54794,1,0,0:0:0:0:
448,192,54944,1,0,0:0:0:0:
64,192,55094,1,0,0:0:0:0:
320,192,55244,1,0,0:0:0:0:
192,192,55394,1,0,0:0:0:0:
64,192,55544,1,0,0:0:0:0:
448,192,55694,1,0,0:0:0:0:
320,192,55844,1,0,0:0:0:0:
192,192,55994,1,0,0:0:0:0:
64,192,56144,1,0,0:0:0:0:
320,192,56294,1,0,0:0:0:0:
64,192,56444,1,0,0:0:0:0:
192,192,56519,1,0,0:0:0:0:
320,192,56594,1,0,0:0:0:0:
448,192,56669,1,0,0:0:0:0:
64,192,56744,1,0,0:0:0:0:
192,192,56894,1,0,0:0:0:0:
320,192,57044,1,0,0:0:0:0:
448,192,57194,1,0,0:0:0:0:
320,192,57269,1,0,0:0:0:0:
192,192,57344,1,0,0:0:0:0:
64,192,57419,1,0,0:0:0:0:
192,192,57494,1,0,0:0:0:0:
448,192,57644,1,0,0:0:0:0:
320,192,57794,1,0,0:0:0:0:
192,192,57944,1,0,0:0:0:0:
64,192,58094,1,0,0:0:0:0:
192,192,58244,1,0,0:0:0:0:
192,192,58544,1,0,0:0:0:0:
64,192,58544,1,0,0:0:0:0:
320,192,58844,1,0,0:0:0:0:
192,192,58994,1,0,0:0:0:0:
64,192,59144,1,0,0:0:0:0:
448,192,59444,128,0,59744:0:0:0:0:
64,192,59894,1,0,0:0:0:0:
192,192,60044,1,0,0:0:0:0:
320,192,60194,1,0,0:0:0:0:
448,192,60344,1,0,0:0:0:0:
192,192,60494,1,0,0:0:0:0:
64,192,60644,128,0,60944:0:0:0:0:
448,192,61094,1,0,0:0:0:0:
320,192,61244,1,0,0:0:0:0:
64,192,61394,1,0,0:0:0:0:
192,192,61544,1,0,0:0:0:0:
320,192,61694,128,0,61994:0:0:0:0:
448,192,62144,1,0,0:0:0:0:
320,192,62294,1,0,0:0:0:0:
64,192,62444,128,0,62744:0:0:0:0:
448,192,62744,128,0,63044:0:0:0:0:
192,192,63044,128,0,63344:0:0:0:0:
320,192,63344,1,0,0:0:0:0:
448,192,63494,1,0,0:0:0:0:
64,192,63569,1,0,0:0:0:0:
192,192,63644,1,0,0:0:0:0:
320,192,63719,1,0,0:0:0:0:
64,192,63944,1,0,0:0:0:0:
64,192,64244,128,0,64544:0:0:0:0:
448,192,64544,1,0,0:0:0:0:
192,192,64844,1,0,0:0:0:0:
320,192,65144,1,0,0:0:0:0:
448,192,65444,128,0,65744:0:0:0:0:
64,192,65744,1,0,0:0:0:0:
320,192,65894,1,0,0:0:0:0:
192,192,66044,1,0,0:0:0:0:
64,192,66194,1,0,0:0:0:0:
448,192,66344,1,0,0:0:0:0:
320,192,66419,1,0,0:0:0:0:
64,192,66644,128,0,66944:0:0:0:0:
320,192,66944,1,0,0:0:0:0:
320,192,67244,1,0,0:0:0:0:
448,192,67244,1,0,0:0:0:0:
192,192,67544,1,0,0:0:0:0:
320,192,67544,1,0,0:0:0:0:
64,192,67844,1,0,0:0:0:0:
192,192,67844,1,0,0:0:0:0:
320,192,68144,1,0,0:0:0:0:
448,192,68144,1,0,0:0:0:0:
64,192,68444,1,0,0:0:0:0:
192,192,68594,1,0,0:0:0:0:
448,192,68744,1,0,0:0:0:0:
320,192,68894,1,0,0:0:0:0:
192,192,69044,1,0,0:0:0:0:
64,192,69194,1,0,0:0:0:0:
320,192,69344,1,0,0:0:0:0:
448,192,69494,1,0,0:0:0:0:
64,192,69644,1,0,0:0:0:0:
192,192,69794,1,0,0:0:0:0:
320,192,69944,1,0,0:0:0:0:
448,192,70094,1,0,0:0:0:0:
64,192,70244,128,0,70544:0:0:0:0:
192,192,70244,1,0,0:0:0:0:
320,192,70544,1,0,0:0:0:0:
192,192,70694,1,0,0:0:0:0:
448,192,70844,1,0,0:0:0:0:
320,192,70844,128,0,71144:0:0:0:0:
192,192,71144,1,0,0:0:0:0:
448,192,71294,1,0,0:0:0:0:
320,192,71444,1,0,0:0:0:0:
64,192,71594,128,0,71894:0:0:0:0:
192,192,71594,1,0,0:0:0:0:
192,192,71894,1,0,0:0:0:0:
320,192,72044,1,0,0:0:0:0:
448,192,72044,1,0,0:0:0:0:
64,192,72344,1,0,0:0:0:0:
192,192,72344,1,0,0:0:0:0:
320,192,72644,1,0,0:0:0:0:
448,192,72644,1,0,0:0:0:0:
192,192,72944,1,0,0:0:0:0:
64,192,72944,1,0,0:0:0:0:
64,192,73244,1,0,0:0:0:0:
192,192,73394,1,0,0:0:0:0:
320,192,73544,1,0,0:0:0:0:
448,192,73694,1,0,0:0:0:0:
320,192,73844,1,0,0:0:0:0:
192,192,73994,1,0,0:0:0:0:
64,192,74144,1,0,0:0:0:0:
448,192,74294,1,0,0:0:0:0:
320,192,74444,1,0,0:0:0:0:
192,192,74594,1,0,0:0:0:0:
64,192,74744,1,0,0:0:0:0:
448,192,74894,1,0,0:0:0:0:
320,192,75044,1,0,0:0:0:0:
192,192,75194,1,0,0:0:0:0:
64,192,75344,1,0,0:0:0:0:
448,192,75494,1,0,0:0:0:0:
320,192,75644,1,0,0:0:0:0:
192,192,75794,1,0,0:0:0:0:
64,192,75944,1,0,0:0:0:0:
192,192,76094,1,0,0:0:0:0:
320,192,76244,1,0,0:0:0:0:
64,192,76394,1,0,0:0:0:0:
320,192,76544,1,0,0:0:0:0:
448,192,76619,1,0,0:0:0:0:
320,192,76694,1,0,0:0:0:0:
192,192,76769,1,0,0:0:0:0:
64,192,76844,1,0,0:0:0:0:
192,192,77144,1,0,0:0:0:0:
320,192,77144,1,0,0:0:0:0:
448,192,77444,1,0,0:0:0:0:
320,192,77444,1,0,0:0:0:0:
192,192,77444,128,0,77669:0:0:0:0:
448,192,77744,1,0,0:0:0:0:
320,192,77894,1,0,0:0:0:0:
192,192,78044,1,0,0:0:0:0:
448,192,78194,1,0,0:0:0:0:
320,192,78344,1,0,0:0:0:0:
192,192,78494,1,0,0:0:0:0:
448,192,78644,1,0,0:0:0:0:
192,192,78794,1,0,0:0:0:0:
320,192,78944,1,0,0:0:0:0:
64,192,79094,1,0,0:0:0:0:
320,192,79244,1,0,0:0:0:0:
192,192,79394,1,0,0:0:0:0:
448,192,79544,1,0,0:0:0:0:
320,192,79694,1,0,0:0:0:0:
448,192,79844,1,0,0:0:0:0:
320,192,79994,1,0,0:0:0:0:
192,192,80144,1,0,0:0:0:0:
448,192,80294,1,0,0:0:0:0:
320,192,80444,1,0,0:0:0:0:
192,192,80594,1,0,0:0:0:0:
64,192,80744,1,0,0:0:0:0:
448,192,80894,1,0,0:0:0:0:
192,192,81044,1,0,0:0:0:0:
320,192,81194,1,0,0:0:0:0:
64,192,81344,1,0,0:0:0:0:
192,192,81494,1,0,0:0:0:0:
320,192,81644,1,0,0:0:0:0:
448,192,81794,1,0,0:0:0:0:
192,192,81944,128,0,82244:0:0:0:0:
448,192,82244,128,0,82544:0:0:0:0:
64,192,82394,1,0,0:0:0:0:
320,192,82544,1,0,0:0:0:0:
64,192,82694,1,0,0:0:0:0:
192,192,82844,1,0,0:0:0:0:
320,192,82994,1,0,0:0:0:0:
192,192,83144,1,0,0:0:0:0:
64,192,83294,1,0,0:0:0:0:
320,192,83444,1,0,0:0:0:0:
192,192,83594,1,0,0:0:0:0:
64,192,83744,1,0,0:0:0:0:
320,192,83894,1,0,0:0:0:0:
192,192,84044,1,0,0:0:0:0:
64,192,84194,1,0,0:0:0:0:
320,192,84344,1,0,0:0:0:0:
448,192,84494,1,0,0:0:0:0:
320,192,84644,1,0,0:0:0:0:
64,192,84794,1,0,0:0:0:0:
192,192,84944,1,0,0:0:0:0:
320,192,85094,1,0,0:0:0:0:
64,192,85244,128,0,85544:0:0:0:0:
448,192,85694,1,0,0:0:0:0:
64,192,85844,1,0,0:0:0:0:
192,192,85919,1,0,0:0:0:0:
320,192,85994,1,0,0:0:0:0:
448,192,86069,1,0,0:0:0:0:
320,192,86144,1,0,0:0:0:0:
64,192,86294,1,0,0:0:0:0:
320,192,86444,1,0,0:0:0:0:
448,192,86594,1,0,0:0:0:0:
64,192,86744,1,0,0:0:0:0:
192,192,86894,1,0,0:0:0:0:
448,192,87044,1,0,0:0:0:0:
320,192,87194,1,0,0:0:0:0:
192,192,87344,1,0,0:0:0:0:
64,192,87494,1,0,0:0:0:0:
448,192,87644,1,0,0:0:0:0:
192,192,87794,1,0,0:0:0:0:
64,192,87944,1,0,0:0:0:0:
448,192,88094,1,0,0:0:0:0:
320,192,88244,1,0,0:0:0:0:
192,192,88394,1,0,0:0:0:0:
64,192,88544,1,0,0:0:0:0:
320,192,88694,1,0,0:0:0:0:
192,192,88844,1,0,0:0:0:0:
64,192,88994,1,0,0:0:0:0:
448,192,89144,1,0,0:0:0:0:
320,192,89294,1,0,0:0:0:0:
448,192,89444,1,0,0:0:0:0:
64,192,89594,1,0,0:0:0:0:
192,192,89744,1,0,0:0:0:0:
320,192,89894,1,0,0:0:0:0:
448,192,90044,1,0,0:0:0:0:
192,192,90194,1,0,0:0:0:0:
448,192,90344,1,0,0:0:0:0:
320,192,90494,1,0,0:0:0:0:
192,192,90644,1,0,0:0:0:0:
64,192,90794,1,0,0:0:0:0:
320,192,90944,1,0,0:0:0:0:
448,192,91094,1,0,0:0:0:0:
192,192,91244,1,0,0:0:0:0:
64,192,91394,1,0,0:0:0:0:
448,192,91544,1,0,0:0:0:0:
320,192,91694,1,0,0:0:0:0:
64,192,91844,1,0,0:0:0:0:
192,192,91919,1,0,0:0:0:0:
320,192,91994,1,0,0:0:0:0:
448,192,92069,1,0,0:0:0:0:
320,192,92144,1,0,0:0:0:0:
64,192,92294,1,0,0:0:0:0:
448,192,92444,1,0,0:0:0:0:
320,192,92594,1,0,0:0:0:0:
192,192,92744,1,0,0:0:0:0:
64,192,92894,1,0,0:0:0:0:
320,192,93044,1,0,0:0:0:0:
192,192,93194,1,0,0:0:0:0:
320,192,93344,1,0,0:0:0:0:
64,192,93494,1,0,0:0:0:0:
192,192,93644,1,0,0:0:0:0:
320,192,93794,1,0,0:0:0:0:
448,192,93944,1,0,0:0:0:0:
192,192,94094,1,0,0:0:0:0:
64,192,94244,1,0,0:0:0:0:
192,192,94319,1,0,0:0:0:0:
320,192,94394,1,0,0:0:0:0:
448,192,94469,1,0,0:0:0:0:
64,192,94844,1,0,0:0:0:0:
192,192,94994,1,0,0:0:0:0:
320,192,95144,1,0,0:0:0:0:
448,192,95294,1,0,0:0:0:0:
64,192,95444,1,0,0:0:0:0:
192,192,95519,1,0,0:0:0:0:
320,192,95594,1,0,0:0:0:0:
448,192,95669,1,0,0:0:0:0:
320,192,95744,1,0,0:0:0:0:
64,192,95894,1,0,0:0:0:0:
192,192,96044,1,0,0:0:0:0:
320,192,96194,1,0,0:0:0:0:
448,192,96344,1,0,0:0:0:0:
320,192,96494,1,0,0:0:0:0:
64,192,96794,128,0,97094:0:0:0:0:
320,192,97244,1,0,0:0:0:0:
320,192,97544,1,0,0:0:0:0:
448,192,97694,1,0,0:0:0:0:
192,192,98144,1,0,0:0:0:0:
448,192,98294,1,0,0:0:0:0:
320,192,98444,1,0,0:0:0:0:
192,192,98594,1,0,0:0:0:0:
64,192,98744,1,0,0:0:0:0:
320,192,98894,1,0,0:0:0:0:
64,192,99044,128,0,99344:0:0:0:0:
192,192,99044,1,0,0:0:0:0:
192,192,99344,1,0,0:0:0:0:
192,192,99644,1,0,0:0:0:0:
320,192,99794,1,0,0:0:0:0:
64,192,99944,1,0,0:0:0:0:
192,192,100094,1,0,0:0:0:0:
320,192,100244,128,0,100544:0:0:0:0:
448,192,100544,1,0,0:0:0:0:
320,192,100694,1,0,0:0:0:0:
192,192,100844,1,0,0:0:0:0:
64,192,100994,1,0,0:0:0:0:
448,192,101144,1,0,0:0:0:0:
320,192,101294,1,0,0:0:0:0:
192,192,101444,1,0,0:0:0:0:
448,192,101594,1,0,0:0:0:0:
64,192,101744,1,0,0:0:0:0:
192,192,101894,1,0,0:0:0:0:
320,192,102044,1,0,0:0:0:0:
448,192,102194,1,0,0:0:0:0:
64,192,102344,1,0,0:0:0:0:
192,192,102494,1,0,0:0:0:0:
320,192,102644,1,0,0:0:0:0:
448,192,102794,128,0,103094:0:0:0:0:
64,192,103094,1,0,0:0:0:0:
320,192,103244,1,0,0:0:0:0:
192,192,103394,1,0,0:0:0:0:
64,192,103544,1,0,0:0:0:0:
320,192,103694,1,0,0:0:0:0:
192,192,103844,1,0,0:0:0:0:
448,192,103994,1,0,0:0:0:0:
320,192,104144,1,0,0:0:0:0:
192,192,104294,1,0,0:0:0:0:
448,192,104444,1,0,0:0:0:0:
320,192,104594,1,0,0:0:0:0:
192,192,104744,1,0,0:0:0:0:
64,192,104894,1,0,0:0:0:0:
320,192,105044,1,0,0:0:0:0:
192,192,105194,128,0,105494:0:0:0:0:
448,192,105194,1,0,0:0:0:0:
320,192,105494,1,0,0:0:0:0:
448,192,105644,1,0,0:0:0:0:
320,192,105794,1,0,0:0:0:0:
64,192,105944,1,0,0:0:0:0:
448,192,106094,1,0,0:0:0:0:
320,192,106244,1,0,0:0:0:0:
192,192,106394,1,0,0:0:0:0:
64,192,106544,1,0,0:0:0:0:
320,192,106694,1,0,0:0:0:0:
192,192,106844,1,0,0:0:0:0:
64,192,106994,1,0,0:0:0:0:
448,192,107144,1,0,0:0:0:0:
320,192,107294,1,0,0:0:0:0:
192,192,107444,1,0,0:0:0:0:
64,192,107594,1,0,0:0:0:0:
192,192,107669,1,0,0:0:0:0:
320,192,107744,1,0,0:0:0:0:
64,192,107894,1,0,0:0:0:0:
320,192,108044,1,0,0:0:0:0:
192,192,108194,1,0,0:0:0:0:
448,192,108344,1,0,0:0:0:0:
64,192,108494,1,0,0:0:0:0:
192,192,108494,1,0,0:0:0:0:
448,192,108644,1,0,0:0:0:0:
320,192,108644,1,0,0:0:0:0:
192,192,108794,1,0,0:0:0:0:
64,192,108794,1,0,0:0:0:0:
320,192,108944,1,0,0:0:0:0:
448,192,108944,1,0,0:0:0:0:
192,192,109094,1,0,0:0:0:0:
64,192,109094,1,0,0:0:0:0:
448,192,109244,1,0,0:0:0:0:
64,192,109544,1,0,0:0:0:0:
320,192,109844,1,0,0:0:0:0:
64,192,110144,1,0,0:0:0:0:
448,192,110444,1,0,0:0:0:0:
320,192,110744,1,0,0:0:0:0:
192,192,110894,1,0,0:0:0:0:
64,192,111044,1,0,0:0:0:0:
320,192,111194,1,0,0:0:0:0:
192,192,111344,1,0,0:0:0:0:
64,192,111644,1,0,0:0:0:0:
192,192,111944,1,0,0:0:0:0:
320,192,112244,1,0,0:0:0:0:
192,192,112394,1,0,0:0:0:0:
64,192,112544,1,0,0:0:0:0:
320,192,112694,1,0,0:0:0:0:
192,192,112844,1,0,0:0:0:0:
64,192,113144,1,0,0:0:0:0:
192,192,113444,1,0,0:0:0:0:
448,192,113594,1,0,0:0:0:0:
320,192,113744,1,0,0:0:0:0:
64,192,113894,1,0,0:0:0:0:
192,192,113969,1,0,0:0:0:0:
320,192,114044,1,0,0:0:0:0:
448,192,114119,1,0,0:0:0:0:
320,192,114344,1,0,0:0:0:0:
192,192,114644,1,0,0:0:0:0:
64,192,114944,1,0,0:0:0:0:
320,192,115244,1,0,0:0:0:0:
192,192,115544,1,0,0:0:0:0:
448,192,115844,1,0,0:0:0:0:
192,192,116144,1,0,0:0:0:0:
320,192,116294,1,0,0:0:0:0:
64,192,116444,1,0,0:0:0:0:
192,192,116744,1,0,0:0:0:0:
320,192,117044,1,0,0:0:0:0:
192,192,117344,1,0,0:0:0:0:
320,192,117494,1,0,0:0:0:0:
64,192,117644,1,0,0:0:0:0:
64,192,117944,1,0,0:0:0:0:
320,192,118094,1,0,0:0:0:0:
192,192,118244,1,0,0:0:0:0:
448,192,118394,1,0,0:0:0:0:
192,192,118544,1,0,0:0:0:0:
320,192,118694,1,0,0:0:0:0:
64,192,118844,1,0,0:0:0:0:
320,192,119294,1,0,0:0:0:0:
320,192,119594,1,0,0:0:0:0:
192,192,119744,1,0,0:0:0:0:
64,192,120044,1,0,0:0:0:0:
192,192,120194,1,0,0:0:0:0:
320,192,120194,128,0,121094:0:0:0:0:
