osu file format v14

[General]
AudioFilename: 01-zetsubousei-hero-chiryouyaku.mp3
AudioLeadIn: 0
PreviewTime: -1
Countdown: 0
SampleSet: None
StackLeniency: 0.7
Mode: 0
LetterboxInBreaks: 1
WidescreenStoryboard: 0

[Editor]
DistanceSpacing: 0.8
BeatDivisor: 4
GridSize: 8
TimelineZoom: 1

[Metadata]
Title:Zetsubousei: Hero Chiryouyaku
TitleUnicode:Zetsubousei: Hero Chiryouyaku
Artist:Suzumu feat. Soraru
ArtistUnicode:Suzumu feat. Soraru
Creator:ohad1881
Version:extrad1881 (ar 10)
Source:
Tags:difficult difficulty 7 stars extra challenge challenges
BeatmapID:1188032
BeatmapSetID:561969

[Difficulty]
HPDrainRate:4
CircleSize:4.2
OverallDifficulty:8.5
ApproachRate:10
SliderMultiplier:1.8
SliderTickRate:1

[Events]
//Background and Video events
0,0,"BG.jpg",0,0
//Break Periods
//Storyboard Layer 0 (Background)
//Storyboard Layer 1 (Fail)
//Storyboard Layer 2 (Pass)
//Storyboard Layer 3 (Foreground)
//Storyboard Sound Samples

[TimingPoints]
101,292.682926829268,4,1,0,100,1,0
101,-133.333333333333,4,1,0,30,0,0
247,292.682926829268,4,1,0,100,1,0
247,-133.333333333333,4,1,0,30,0,0
4783,-117.647058823529,4,1,0,35,0,0
8295,-80,4,1,0,63,0,0
9466,-66.6666666666667,4,1,0,75,0,0
28198,-100,4,1,0,50,0,0
37564,-80,4,1,0,63,0,0
46929,-90.9090909090909,4,1,0,60,0,0
55564,-100,4,1,0,50,0,0
56295,-58.8235294117647,4,1,0,100,0,1
75027,-66.6666666666667,4,1,0,80,0,0
84393,-100,4,1,0,50,0,0
93759,-80,4,1,0,63,0,0
103125,-90.9090909090909,4,1,0,60,0,0
111759,-100,4,1,0,25,0,0
111759,-100,4,1,0,50,0,0
112490,-58.8235294117647,4,1,0,100,0,1
131222,-66.6666666666667,4,1,0,80,0,0
161661,-133.333333333333,4,1,0,11,0,0
164003,-58.8235294117647,4,1,0,100,0,1
197954,-58.8235294117647,4,1,0,100,0,0

[Colours]
Combo1 : 255,255,255
Combo2 : 255,255,255
Combo3 : 255,255,255

[HitObjects]
230,163,101,6,0,P|238:205|280:159,1,135.000005149842,8|0,0:0|0:0,0:0:0:0:
198,55,539,1,0,0:0:0:0:
332,75,686,2,0,P|380:82|412:73,1,67.5000025749208
198,55,978,2,0,P|150:62|118:53,1,67.5000025749208
135,193,1271,6,0,P|178:249|241:263,1,135.000005149842,8|0,0:0|0:0,0:0:0:0:
353,192,1710,1,0,0:0:0:0:
326,323,1856,2,0,L|311:252,1,67.5000025749208
434,197,2149,2,0,L|420:263,1,67.5000025749208
310,124,2442,6,0,P|267:113|149:139,1,135.000005149842,8|0,0:0|0:0,0:0:0:0:
106,239,2881,1,0,0:0:0:0:
217,313,3027,2,0,P|258:319|291:311,1,67.5000025749208
378,217,3320,2,0,P|337:211|304:219,1,67.5000025749208
180,243,3612,6,0,B|185:198|185:198|162:105,1,135.000005149842,8|0,0:0|0:0,0:0:0:0:
268,32,4051,2,0,B|263:77|263:77|284:164,1,135.000005149842
391,81,4490,2,0,L|377:171,1,67.5000025749208
268,32,4783,6,0,B|211:26|211:26|170:35|170:35|94:22,1,153.000002918243,8|0,0:0|0:0,0:0:0:0:
19,144,5222,1,0,0:0:0:0:
160,202,5368,2,0,L|167:124,1,76.5000014591217
62,238,5661,2,0,L|68:314,1,76.5000014591217
218,280,5954,6,0,P|253:222|234:140,1,153.000002918243,8|0,0:0|0:0,0:0:0:0:
94,81,6393,1,0,0:0:0:0:
241,42,6539,2,0,P|286:49|323:42,1,76.5000014591217
262,188,6832,2,0,P|217:181|180:188,1,76.5000014591217
110,319,7125,6,0,B|94:252|110:208|110:208|90:157,1,153.000002918243,8|0,0:0|0:0,0:0:0:0:
219,260,7564,1,0,0:0:0:0:
196,110,7710,2,0,L|185:194,1,76.5000014591217
288,71,8003,2,0,L|299:155,1,76.5000014591217
483,20,8295,6,0,B|466:78|466:78|471:131|471:131|450:190,1,168.75,10|0,0:0|0:0,0:0:0:0:
365,132,8588,6,0,B|362:168|382:190|382:190|377:243|377:243|398:272|398:302,1,168.75,10|0,0:0|0:0,0:0:0:0:
464,339,8881,5,0,0:0:0:0:
282,207,9027,5,0,0:0:0:0:
230,184,9100,1,0,0:0:0:0:
174,177,9173,1,0,0:0:0:0:
119,185,9246,1,0,0:0:0:0:
68,208,9320,2,0,L|97:147,1,56.25
252,5,9466,6,0,P|174:41|-4:0,1,270.000010299683,12|0,0:0|0:0,0:0:0:0:
243,123,9905,2,0,P|257:193|222:280,1,135.000005149842
6,136,10198,5,8,0:0:0:0:
57,92,10271,1,0,0:0:0:0:
121,74,10344,1,0,0:0:0:0:
187,85,10417,1,0,0:0:0:0:
243,123,10490,1,0,0:0:0:0:
139,382,10637,6,0,B|113:270|118:187|118:187|159:292,1,270.000010299683,8|0,0:0|0:0,0:0:0:0:
284,372,11076,2,0,P|358:382|416:365,1,135.000005149842
243,123,11368,2,0,L|226:204,1,67.5000025749208,8|0,0:0|0:0,0:0:0:0:
388,128,11515,2,0,L|374:61,1,67.5000025749208
212,14,11661,1,0,0:0:0:0:
325,209,11807,6,0,P|217:236|133:86,1,270.000010299683,8|0,0:0|0:0,0:0:0:0:
388,128,12246,2,0,L|409:283,1,135.000005149842
212,14,12539,1,8,0:0:0:0:
200,80,12612,1,0,0:0:0:0:
189,147,12685,1,0,0:0:0:0:
178,213,12758,1,0,0:0:0:0:
167,280,12832,2,0,L|133:210,1,67.5000025749208
32,63,12978,6,0,P|94:114|262:61,1,270.000010299683,12|0,0:0|0:0,0:0:0:0:
212,14,13344,1,0,0:0:0:0:
144,14,13417,2,0,L|119:178,1,135.000005149842
371,38,13710,2,0,L|411:31,1,33.7500012874604,8|0,0:0|0:0,0:0:0:0:
240,151,13856,2,0,L|200:144,1,33.7500012874604,8|0,0:0|0:0,0:0:0:0:
380,253,14003,2,0,L|420:246,1,33.7500012874604,8|0,0:0|0:0,0:0:0:0:
235,345,14149,6,0,B|170:359|17:323|17:323|96:301,1,270.000010299683,12|0,0:0|0:0,0:0:0:0:
308,190,14588,2,0,P|288:255|339:349,1,135.000005149842
247,76,14881,1,8,0:0:0:0:
264,140,14954,1,0,0:0:0:0:
308,190,15027,1,0,0:0:0:0:
370,216,15100,1,0,0:0:0:0:
437,211,15173,1,0,0:0:0:0:
165,121,15320,6,0,B|144:194|144:194|192:393,1,270.000010299683,8|0,0:0|0:0,0:0:0:0:
71,138,15759,2,0,L|34:276,1,135.000005149842
311,146,16051,1,8,0:0:0:0:
258,106,16124,1,0,0:0:0:0:
193,90,16197,1,0,0:0:0:0:
127,101,16270,1,0,0:0:0:0:
71,138,16343,1,0,0:0:0:0:
185,384,16490,6,0,B|207:296|185:192|185:192|157:276,1,270.000010299683,8|0,0:0|0:0,0:0:0:0:
348,341,16929,2,0,P|417:358|483:346,1,135.000005149842
317,129,17222,2,0,L|238:112,1,67.5000025749208,8|0,0:0|0:0,0:0:0:0:
366,237,17368,2,0,L|445:220,1,67.5000025749208
262,210,17515,1,0,0:0:0:0:
444,97,17661,6,0,B|375:81|317:128|317:128|264:84|171:91,1,270.000010299683,8|0,0:0|0:0,0:0:0:0:
133,124,18027,1,0,0:0:0:0:
91,177,18100,2,0,B|86:248|86:248|105:328,1,135.000005149842
366,237,18393,6,0,L|419:226,1,33.7500012874604,8|0,0:0|0:0,0:0:0:0:
227,121,18539,2,0,L|190:80,1,33.7500012874604,8|0,0:0|0:0,0:0:0:0:
203,300,18686,2,0,L|186:351,1,33.7500012874604,8|0,0:0|0:0,0:0:0:0:
445,97,18832,6,0,B|453:184|453:184|423:288|423:288|436:376,1,270.000010299683,12|0,0:0|0:0,0:0:0:0:
201,246,19271,2,0,P|217:331|257:371,1,135.000005149842,8|0,0:0|0:0,0:0:0:0:
280,95,19564,2,0,P|198:66|143:80,1,135.000005149842,8|0,0:0|0:0,0:0:0:0:
366,237,19856,2,0,P|431:180|446:126,1,135.000005149842,8|0,0:0|0:0,0:0:0:0:
131,273,20149,2,0,P|51:291|-17:265,1,135.000005149842,8|0,0:0|0:0,0:0:0:0:
409,92,20442,2,0,P|343:77|279:95,1,135.000005149842,8|0,0:0|0:0,0:0:0:0:
280,384,20734,5,8,0:0:0:0:
280,95,20881,1,0,0:0:0:0:
160,312,21027,1,8,0:0:0:0:
460,172,21173,2,0,B|365:168|279:95|279:95|248:122|205:129,1,270.000010299683,10|0,0:0|0:0,0:0:0:0:
55,253,21612,6,0,B|97:300|97:300|159:334,1,135.000005149842,8|0,0:0|0:0,0:0:0:0:
161,96,21905,2,0,B|99:130|99:130|47:188,1,135.000005149842,8|0,0:0|0:0,0:0:0:0:
292,229,22198,2,0,P|409:248|449:232,1,135.000005149842,8|0,0:0|0:0,0:0:0:0:
465,39,22490,2,0,P|473:118|457:178,1,135.000005149842,8|0,0:0|0:0,0:0:0:0:
82,150,22783,2,0,P|74:229|90:289,1,135.000005149842,8|0,0:0|0:0,0:0:0:0:
161,96,23076,5,8,0:0:0:0:
87,282,23222,1,0,0:0:0:0:
87,282,23295,1,0,0:0:0:0:
87,282,23368,1,8,0:0:0:0:
248,37,23515,2,0,B|237:136|237:136|274:322,1,270.000010299683,10|0,0:0|0:0,0:0:0:0:
455,105,23954,6,0,P|375:90|311:111,1,135.000005149842,8|0,0:0|0:0,0:0:0:0:
486,318,24246,2,0,P|440:250|379:220,1,135.000005149842,8|0,0:0|0:0,0:0:0:0:
149,109,24539,2,0,P|229:94|293:115,1,135.000005149842,8|0,0:0|0:0,0:0:0:0:
118,322,24831,2,0,P|163:254|224:224,1,135.000005149842,8|0,0:0|0:0,0:0:0:0:
354,122,25125,2,0,P|388:179|445:215,1,135.000005149842,8|0,0:0|0:0,0:0:0:0:
303,34,25417,5,8,0:0:0:0:
336,272,25564,1,0,0:0:0:0:
427,15,25710,1,8,0:0:0:0:
195,152,25856,2,0,B|100:165|4:139|4:139|117:119,1,270.000010299683,10|0,0:0|0:0,0:0:0:0:
326,133,26295,6,0,P|262:153|195:152,1,135.000005149842,8|0,0:0|0:0,0:0:0:0:
360,366,26588,2,0,P|300:334|254:285,1,135.000005149842,8|0,0:0|0:0,0:0:0:0:
495,161,26881,2,0,P|448:209|389:241,1,135.000005149842,8|0,0:0|0:0,0:0:0:0:
284,52,27173,1,8,0:0:0:0:
320,265,27320,1,0,0:0:0:0:
320,265,27393,1,0,0:0:0:0:
320,265,27466,2,0,P|229:298|95:246,1,202.500007724762,8|0,0:0|0:0,0:0:0:0:
89,232,27759,2,0,L|71:373,1,135.000005149842
184,121,28051,1,0,0:0:0:0:
360,366,28198,6,0,P|382:276|342:175,1,180,2|0,0:0|0:0,0:0:0:0:
191,268,28637,2,0,P|245:281|293:276,1,90
184,121,28929,2,0,P|212:168|250:198,1,90
282,15,29222,2,0,P|269:69|274:117,1,90
447,63,29515,5,8,0:0:0:0:
358,71,29661,1,0,0:0:0:0:
426,177,29807,1,0,0:0:0:0:
358,71,29954,1,0,0:0:0:0:
345,250,30100,6,0,P|341:298|354:345,1,90
277,173,30393,1,0,0:0:0:0:
135,361,30539,2,0,P|154:294|123:176,1,180,8|0,0:0|0:0,0:0:0:0:
15,48,30978,2,0,P|59:68|111:63,1,90
279,48,31271,2,0,P|235:68|183:63,1,90
131,235,31564,2,0,L|131:340,1,90
229,175,31856,5,8,0:0:0:0:
131,235,32003,1,0,0:0:0:0:
186,64,32149,1,0,0:0:0:0:
229,175,32295,1,0,0:0:0:0:
69,89,32442,1,0,0:0:0:0:
186,64,32588,1,0,0:0:0:0:
67,199,32734,1,0,0:0:0:0:
293,93,32881,6,0,P|329:176|272:273,1,180,8|0,0:0|0:0,0:0:0:0:
134,334,33320,2,0,P|66:341|33:329,1,90
216,279,33612,2,0,B|246:323|311:344|311:344|384:341,1,180
320,226,34051,1,0,0:0:0:0:
198,191,34198,2,0,P|154:219|130:262,1,90,8|0,0:0|0:0,0:0:0:0:
75,138,34490,2,0,P|49:101|11:78,1,90
181,82,34783,1,0,0:0:0:0:
75,138,34929,1,0,0:0:0:0:
226,6,35076,1,0,0:0:0:0:
134,250,35222,6,0,P|193:277|282:214,1,180,8|0,0:0|0:0,0:0:0:0:
327,67,35661,2,0,L|341:166,1,90
462,23,35954,2,0,L|448:122,1,90
428,151,36173,1,0,0:0:0:0:
403,188,36246,2,0,L|389:287,1,90
264,227,36539,5,8,0:0:0:0:
325,347,36686,1,0,0:0:0:0:
321,167,36832,1,0,0:0:0:0:
202,369,36978,1,0,0:0:0:0:
202,369,37051,1,0,0:0:0:0:
202,369,37125,1,8,0:0:0:0:
472,241,37271,1,0,0:0:0:0:
75,224,37417,1,0,0:0:0:0:
325,347,37564,6,0,P|395:365|450:353,1,112.5,12|0,0:0|0:0,0:0:0:0:
321,167,37856,1,0,0:0:0:0:
134,294,38003,2,0,P|64:312|9:300,1,112.5
174,138,38295,1,8,0:0:0:0:
229,357,38442,1,0,0:0:0:0:
174,138,38588,2,0,L|147:277,1,112.5
325,102,38881,2,0,L|218:9,1,112.5,8|0,0:0|0:0,0:0:0:0:
279,249,39173,2,0,L|412:202,1,112.5
174,138,39466,5,8,0:0:0:0:
203,360,39612,1,0,0:0:0:0:
119,231,39759,2,0,L|170:259,1,56.25
303,327,39905,2,0,P|357:342|416:326,1,112.5,8|0,0:0|0:0,0:0:0:0:
264,156,40198,1,0,0:0:0:0:
483,201,40344,2,0,L|492:316,1,112.5
347,139,40637,2,0,L|355:26,1,112.5,8|0,0:0|0:0,0:0:0:0:
218,204,40929,2,0,P|154:222|42:198,1,168.75
24,157,41222,5,8,0:0:0:0:
136,351,41368,1,0,0:0:0:0:
136,351,41442,1,0,0:0:0:0:
136,351,41515,1,0,0:0:0:0:
93,63,41661,1,0,0:0:0:0:
179,270,41807,1,8,0:0:0:0:
162,124,41954,1,0,0:0:0:0:
73,240,42100,1,0,0:0:0:0:
261,170,42246,6,0,P|320:156|382:175,1,112.5,8|0,0:0|0:0,0:0:0:0:
290,379,42539,1,0,0:0:0:0:
156,225,42686,2,0,P|97:211|35:230,1,112.5
97,384,42978,1,8,0:0:0:0:
156,225,43125,1,0,0:0:0:0:
248,365,43271,2,0,P|307:379|369:360,1,112.5
426,212,43564,5,8,0:0:0:0:
304,262,43710,1,0,0:0:0:0:
394,47,43856,1,0,0:0:0:0:
343,168,44003,2,0,L|290:138,1,56.25
195,55,44149,2,0,B|193:114|193:114|165:192,1,112.5,8|0,0:0|0:0,0:0:0:0:
62,37,44442,1,0,0:0:0:0:
276,103,44588,6,0,P|217:147|101:49,1,225,8|0,0:0|0:0,0:0:0:0:
319,4,45027,2,0,P|299:78|273:105,1,112.5
159,226,45320,2,0,P|179:300|205:327,1,112.5,8|0,0:0|0:0,0:0:0:0:
330,215,45612,1,0,0:0:0:0:
43,174,45759,6,0,P|42:288|107:399,1,225,8|0,0:0|0:0,0:0:0:0:
147,137,46198,2,0,P|92:147|43:174,1,112.5
266,195,46490,1,8,0:0:0:0:
89,53,46637,1,0,0:0:0:0:
89,53,46710,1,0,0:0:0:0:
89,53,46783,1,0,0:0:0:0:
319,307,46929,6,0,P|388:215|356:111,1,198.000006042481,12|0,0:0|0:0,0:0:0:0:
168,190,47368,2,0,B|216:199|216:199|266:195,1,99.0000030212403
199,82,47661,1,8,0:0:0:0:
168,188,47807,1,0,0:0:0:0:
89,53,47954,1,0,0:0:0:0:
273,134,48100,6,0,L|375:136,1,99.0000030212403,4|0,0:0|0:0,0:0:0:0:
230,275,48393,2,0,L|128:277,1,99.0000030212403,4|0,0:0|0:0,0:0:0:0:
322,53,48686,2,0,L|424:55,1,99.0000030212403,4|0,0:0|0:0,0:0:0:0:
338,215,48978,1,0,0:0:0:0:
322,53,49125,1,0,0:0:0:0:
427,231,49271,6,0,P|389:289|259:258,1,198.000006042481,8|0,0:0|0:0,0:0:0:0:
231,143,49710,1,0,0:0:0:0:
152,256,49856,1,0,0:0:0:0:
153,57,50003,2,0,L|127:173,1,99.0000030212403,8|0,0:0|0:0,0:0:0:0:
277,20,50295,1,0,0:0:0:0:
31,218,50442,6,0,B|117:258|152:256|152:256|239:223,1,198.000006042481,8|0,0:0|0:0,0:0:0:0:
288,99,50881,1,0,0:0:0:0:
318,243,51027,1,0,0:0:0:0:
311,276,51100,1,0,0:0:0:0:
294,306,51173,2,0,P|239:329|173:318,1,99.0000030212403,8|0,0:0|0:0,0:0:0:0:
154,175,51466,1,0,0:0:0:0:
318,243,51612,6,0,P|292:306|156:317,1,198.000006042481,12|0,0:0|0:0,0:0:0:0:
60,165,52051,1,0,0:0:0:0:
50,363,52198,1,0,0:0:0:0:
182,216,52344,2,0,P|239:193|304:205,1,99.0000030212403
60,165,52637,1,0,0:0:0:0:
249,301,52783,2,0,B|275:198|275:198|260:97,1,198.000006042481,12|0,0:0|0:0,0:0:0:0:
60,165,53222,2,0,B|53:218|53:218|64:270,1,99.0000030212403
207,19,53515,2,0,P|160:48|17:6,1,198.000006042481
301,10,53954,6,0,B|286:67|286:67|309:234,1,198.000006042481,2|0,3:3|0:0,0:0:0:0:
449,68,54393,2,0,L|459:13,1,49.5000015106202
377,105,54539,2,0,L|367:160,1,49.5000015106202
464,254,54686,2,0,L|454:309,1,49.5000015106202
276,147,54832,2,0,L|266:202,1,49.5000015106202
338,296,54978,2,0,L|328:351,1,49.5000015106202
225,50,55125,1,12,0:0:0:0:
229,57,55564,6,0,B|234:125|234:125|187:63,1,135
166,39,55856,2,0,P|115:1|142:67,1,180
276,147,56295,6,0,P|166:197|1:128,1,306.000005836487,12|0,0:0|0:0,0:0:0:0:
166,39,56734,1,0,0:0:0:0:
3,130,56881,1,0,0:0:0:0:
301,67,57027,2,0,P|379:50|457:71,1,153.000002918243,8|0,0:0|0:0,0:0:0:0:
304,284,57320,1,0,0:0:0:0:
166,39,57466,6,0,L|5:2,1,153.000002918243
361,182,57759,2,0,L|522:145,1,153.000002918243
152,284,58051,2,0,L|-9:247,1,153.000002918243
197,125,58344,1,0,0:0:0:0:
203,353,58490,1,0,0:0:0:0:
300,61,58637,6,0,B|238:81|196:125|196:125|143:99|48:126,1,229.500004377365,8|0,0:0|0:0,0:0:0:0:
58,107,58929,2,0,L|40:282,1,153.000002918243
222,10,59222,1,0,0:0:0:0:
147,226,59368,2,0,L|129:401,1,153.000002918243
278,108,59661,1,0,0:0:0:0:
0,347,59807,5,8,0:0:0:0:
0,347,60100,5,8,0:0:0:0:
0,347,60393,5,8,0:0:0:0:
0,347,60686,6,0,B|75:363|75:363|159:348,1,153.000002918243
278,108,60978,2,0,P|178:125|294:170,1,306.000005836487,8|0,0:0|0:0,0:0:0:0:
487,20,61417,2,0,B|475:66|475:66|487:221,1,153.000002918243
278,108,61710,2,0,B|187:69|41:111|41:111|120:145,1,306.000005836487,8|0,0:0|0:0,0:0:0:0:
377,245,62149,2,0,B|416:154|374:8|374:8|340:86,1,306.000005836487,8|0,0:0|0:0,0:0:0:0:
256,311,62588,1,0,0:0:0:0:
163,67,62734,2,0,B|138:8|138:8|96:154|135:245,1,306.000005836487,8|0,0:0|0:0,0:0:0:0:
255,13,63173,1,0,0:0:0:0:
256,311,63320,2,0,P|160:326|93:302,1,153.000002918243,8|0,0:0|0:0,0:0:0:0:
306,143,63612,5,0,0:0:0:0:
108,310,63759,1,0,0:0:0:0:
158,55,63905,1,0,0:0:0:0:
196,357,64051,1,8,0:0:0:0:
255,13,64198,1,0,0:0:0:0:
41,285,64344,1,0,0:0:0:0:
365,162,64490,6,0,P|287:198|55:150,1,306.000005836487,8|0,0:0|0:0,0:0:0:0:
358,44,64929,1,0,0:0:0:0:
254,333,65076,1,0,0:0:0:0:
154,44,65222,2,0,P|118:122|166:354,1,306.000005836487,8|0,0:0|0:0,0:0:0:0:
254,333,65588,1,0,0:0:0:0:
361,332,65661,2,0,P|403:187|358:44,1,306.000005836487,12|0,0:0|0:0,0:0:0:0:
209,258,66100,5,0,0:0:0:0:
468,258,66246,1,0,0:0:0:0:
250,113,66393,1,8,0:0:0:0:
334,358,66539,1,0,0:0:0:0:
327,50,66686,1,0,0:0:0:0:
197,374,66832,6,0,B|187:316|209:257|209:257|182:154|182:154|203:58,1,306.000005836487,8|0,0:0|0:0,0:0:0:0:
383,259,67271,1,0,0:0:0:0:
108,250,67417,2,0,P|243:312|383:259,1,306.000005836487,8|0,0:0|0:0,0:0:0:0:
249,34,67856,1,0,0:0:0:0:
71,335,68003,6,0,B|107:250|107:250|93:173|106:87,1,229.500004377365,8|0,0:0|0:0,0:0:0:0:
96,82,68295,2,0,P|176:103|258:77,1,153.000002918243
0,0,68588,1,0,0:0:0:0:
329,16,68734,2,0,P|345:89|324:162,1,153.000002918243,8|0,0:0|0:0,0:0:0:0:
113,8,69027,1,0,0:0:0:0:
254,330,69173,5,8,0:0:0:0:
254,330,69466,5,8,0:0:0:0:
254,330,69759,5,8,0:0:0:0:
254,330,70051,6,0,B|173:344|173:344|91:326,1,153.000002918243
314,206,70344,2,0,B|171:239|171:239|4:200,1,306.000005836487,8|0,0:0|0:0,0:0:0:0:
231,55,70783,1,0,0:0:0:0:
201,312,70929,1,0,0:0:0:0:
201,312,71003,1,0,0:0:0:0:
201,312,71076,1,8,0:0:0:0:
267,152,71222,1,0,0:0:0:0:
77,329,71368,1,0,0:0:0:0:
351,88,71515,6,0,P|352:213|170:194,1,306.000005836487,8|0,0:0|0:0,0:0:0:0:
64,29,71954,2,0,B|64:110|64:110|42:190,1,153.000002918243
231,55,72246,1,8,0:0:0:0:
64,29,72393,1,0,0:0:0:0:
275,178,72539,1,0,0:0:0:0:
152,0,72686,2,0,B|152:81|152:81|130:161,1,153.000002918243,8|0,0:0|0:0,0:0:0:0:
351,88,72978,5,0,0:0:0:0:
169,276,73125,1,0,0:0:0:0:
461,153,73271,1,0,0:0:0:0:
94,161,73417,1,8,0:0:0:0:
490,281,73564,1,0,0:0:0:0:
125,29,73710,1,0,0:0:0:0:
413,384,73856,1,8,0:0:0:0:
412,363,74149,6,0,P|329:344|258:364,1,153.000002918243
143,370,74442,1,0,0:0:0:0:
258,156,74588,5,8,0:0:0:0:
253,193,74661,1,0,0:0:0:0:
248,231,74734,1,0,0:0:0:0:
243,269,74807,1,0,0:0:0:0:
238,307,74880,1,0,0:0:0:0:
233,345,74953,1,0,0:0:0:0:
229,383,75027,6,0,L|139:109,1,270.000010299683,12|0,0:0|0:0,0:0:0:0:
369,76,75466,2,0,P|284:89|204:64,1,135.000005149842
458,16,75759,1,8,0:0:0:0:
451,83,75832,1,0,0:0:0:0:
444,150,75905,1,0,0:0:0:0:
437,217,75978,1,0,0:0:0:0:
431,284,76051,1,0,0:0:0:0:
207,275,76198,6,0,P|270:333|436:275,1,270.000010299683,8|0,0:0|0:0,0:0:0:0:
328,98,76637,2,0,L|320:253,1,135.000005149842
99,96,76929,1,0,0:0:0:0:
149,52,77002,1,0,0:0:0:0:
214,36,77075,1,0,0:0:0:0:
278,52,77148,1,0,0:0:0:0:
328,98,77221,1,0,0:0:0:0:
163,263,77368,6,0,B|101:183|99:96|99:96|168:180,1,270.000010299683,8|0,0:0|0:0,0:0:0:0:
324,319,77807,2,0,P|406:336|465:316,1,135.000005149842
271,110,78100,1,8,0:0:0:0:
259,176,78173,1,0,0:0:0:0:
248,243,78246,1,0,0:0:0:0:
236,309,78319,1,0,0:0:0:0:
225,376,78393,2,0,L|198:295,1,67.5000025749208
162,144,78539,6,0,B|228:135|271:110|271:110|334:130|429:126,1,270.000010299683,12|0,0:0|0:0,0:0:0:0:
469,177,78905,1,0,0:0:0:0:
484,242,78978,2,0,B|468:313|468:313|402:370,1,135.000005149842
184,220,79271,6,0,L|175:270,1,33.7500012874604,8|0,0:0|0:0,0:0:0:0:
349,144,79417,2,0,L|358:194,1,33.7500012874604,8|0,0:0|0:0,0:0:0:0:
211,31,79564,2,0,L|202:81,1,33.7500012874604,8|0,0:0|0:0,0:0:0:0:
398,4,79710,6,0,B|380:73|380:73|407:293,1,270.000010299683,12|0,0:0|0:0,0:0:0:0:
162,144,80149,2,0,P|230:124|311:162,1,135.000005149842
81,259,80442,1,8,0:0:0:0:
46,201,80515,1,0,0:0:0:0:
37,135,80588,1,0,0:0:0:0:
55,70,80661,1,0,0:0:0:0:
98,19,80734,1,0,0:0:0:0:
315,251,80881,6,0,P|200:312|81:259,1,270.000010299683,8|0,0:0|0:0,0:0:0:0:
320,131,81320,2,0,P|393:146|462:130,1,135.000005149842
211,11,81612,1,8,0:0:0:0:
203,78,81685,1,0,0:0:0:0:
195,145,81758,1,0,0:0:0:0:
187,212,81831,1,0,0:0:0:0:
180,279,81904,1,0,0:0:0:0:
359,75,82051,6,0,B|287:23|212:12|212:12|156:31|70:25,1,270.000010299683,8|0,0:0|0:0,0:0:0:0:
296,170,82490,2,0,P|383:184|446:159,1,135.000005149842
244,312,82783,1,8,0:0:0:0:
192,270,82856,1,0,0:0:0:0:
158,212,82929,1,0,0:0:0:0:
150,145,83002,1,0,0:0:0:0:
166,80,83075,1,0,0:0:0:0:
325,246,83222,6,0,B|293:290|242:312|242:312|155:296|155:296|34:313,1,270.000010299683,8|0,0:0|0:0,0:0:0:0:
36,255,83588,1,0,0:0:0:0:
23,188,83661,2,0,B|31:133|47:96|47:96|86:52,1,135.000005149842
248,274,83954,6,0,L|232:324,1,33.7500012874604,8|0,0:0|0:0,0:0:0:0:
391,173,84100,2,0,L|401:140,1,33.7500012874604,8|0,0:0|0:0,0:0:0:0:
452,337,84246,2,0,L|436:387,1,33.7500012874604,8|0,0:0|0:0,0:0:0:0:
494,230,84393,6,0,B|480:141|480:141|494:37,1,180,4|0,0:0|0:0,0:0:0:0:
302,131,84832,2,0,P|295:185|310:226,1,90
351,36,85125,2,0,B|292:48|292:48|249:28|143:23,1,180,8|0,0:0|0:0,0:0:0:0:
68,103,85564,1,0,0:0:0:0:
229,180,85710,2,0,P|278:156|305:125,1,90,8|0,0:0|0:0,0:0:0:0:
135,241,86003,2,0,P|166:272|207:290,1,90
147,150,86295,5,8,0:0:0:0:
88,304,86442,1,0,0:0:0:0:
68,103,86588,1,0,0:0:0:0:
207,290,86734,2,0,P|276:308|350:284,1,135,4|0,0:0|0:0,0:0:0:0:
364,246,87027,5,0,0:0:0:0:
481,382,87173,1,0,0:0:0:0:
445,282,87320,1,0,0:0:0:0:
283,360,87466,2,0,P|226:370|181:356,1,90,8|0,0:0|0:0,0:0:0:0:
122,197,87759,2,0,L|111:290,1,90
192,125,88051,5,8,0:0:0:0:
221,303,88198,1,0,0:0:0:0:
239,196,88344,1,0,0:0:0:0:
357,331,88490,1,0,0:0:0:0:
281,94,88637,1,8,0:0:0:0:
296,272,88783,1,0,0:0:0:0:
400,42,88929,1,0,0:0:0:0:
239,196,89076,6,0,P|185:206|140:193,1,90,4|0,0:0|0:0,0:0:0:0:
18,26,89368,1,0,0:0:0:0:
54,157,89515,2,0,B|61:214|61:214|48:273,1,90
145,91,89807,1,8,0:0:0:0:
53,245,89954,1,0,0:0:0:0:
225,194,90100,2,0,P|281:184|315:197,1,90
260,369,90393,2,0,B|255:320|255:320|263:276,1,90,8|0,0:0|0:0,0:0:0:0:
422,195,90686,2,0,B|429:235|429:235|424:284,1,90
316,112,90978,5,8,0:0:0:0:
316,112,91051,1,0,0:0:0:0:
316,112,91125,1,0,0:0:0:0:
492,146,91271,1,0,0:0:0:0:
230,33,91417,2,0,P|203:103|274:207,1,180,4|0,0:0|0:0,0:0:0:0:
383,310,91856,2,0,P|326:322|281:305,1,90
129,310,92149,2,0,P|186:322|231:305,1,90,8|0,0:0|0:0,0:0:0:0:
234,273,92368,1,0,0:0:0:0:
245,228,92442,2,0,B|249:183|249:183|242:120,1,90
202,74,92661,1,0,0:0:0:0:
139,29,92734,6,0,L|21:30,2,90,2|0|0,3:2|0:0|0:0,0:0:0:0:
146,49,93173,2,0,L|28:50,1,90
202,74,93466,2,0,L|191:124,1,45
302,82,93612,2,0,L|292:38,1,45
245,228,93759,6,0,P|317:242|369:223,1,112.5,12|0,0:0|0:0,0:0:0:0:
402,47,94051,1,0,0:0:0:0:
478,223,94198,2,0,L|458:343,1,112.5
362,169,94490,1,8,0:0:0:0:
280,343,94637,1,0,0:0:0:0:
220,161,94783,2,0,L|240:281,1,112.5
313,94,95076,5,8,0:0:0:0:
220,161,95222,1,0,0:0:0:0:
404,113,95368,2,0,P|419:44|396:-4,1,112.5
213,29,95661,1,8,0:0:0:0:
313,94,95807,1,0,0:0:0:0:
120,89,95954,1,0,0:0:0:0:
417,25,96100,6,0,B|421:72|403:114|403:114|362:162|337:239,1,225,4|0,0:0|0:0,0:0:0:0:
220,161,96539,2,0,B|222:231|222:231|206:284,1,112.5
45,116,96832,2,0,B|43:186|43:186|59:239,1,112.5,8|0,0:0|0:0,0:0:0:0:
213,29,97125,2,0,P|137:54|38:22,1,168.75
32,8,97417,6,0,P|49:101|26:148,1,112.5,8|0,0:0|0:0,0:0:0:0:
44,115,97637,1,0,0:0:0:0:
44,115,97710,1,0,0:0:0:0:
213,29,97856,1,0,0:0:0:0:
95,222,98003,1,8,0:0:0:0:
284,101,98149,1,0,0:0:0:0:
244,321,98295,1,0,0:0:0:0:
213,29,98442,6,0,B|202:95|202:95|211:151,1,112.5,4|0,0:0|0:0,0:0:0:0:
395,14,98734,1,0,0:0:0:0:
203,222,98881,2,0,P|140:234|91:220,1,112.5
199,110,99173,2,0,B|210:176|210:176|201:232,1,112.5,8|0,0:0|0:0,0:0:0:0:
395,14,99466,1,4,0:0:0:0:
329,169,99612,1,0,0:0:0:0:
505,11,99759,2,0,B|494:49|494:49|506:90|496:152,1,112.5,8|0,0:0|0:0,0:0:0:0:
329,169,100051,2,0,B|340:207|340:207|328:248|338:310,1,112.5
419,120,100344,5,8,0:0:0:0:
248,177,100490,1,0,0:0:0:0:
248,177,100564,1,0,0:0:0:0:
248,177,100637,1,0,0:0:0:0:
395,14,100783,2,0,P|330:52|176:11,1,225,8|0,0:0|0:0,0:0:0:0:
8,30,101222,2,0,B|23:86|23:86|15:152,1,112.5
118,61,101515,1,0,0:0:0:0:
8,30,101661,2,0,L|25:93,1,56.25
75,259,101807,2,0,L|89:204,1,56.25
118,61,101954,6,0,B|180:84|277:70|277:70|340:18,1,225,12|0,0:0|0:0,0:0:0:0:
210,167,102393,2,0,P|198:234|221:288,1,112.5,8|0,0:0|0:0,0:0:0:0:
479,117,102686,2,0,B|454:172|413:190|413:190|359:194|359:194|290:221,1,225,12|0,0:0|0:0,0:0:0:0:
151,341,103125,6,0,B|96:323|75:260|75:260|84:221|84:221|82:140,1,198.000006042481,12|0,0:0|0:0,0:0:0:0:
33,27,103564,1,0,0:0:0:0:
158,122,103710,1,0,0:0:0:0:
117,41,103856,1,8,0:0:0:0:
124,199,104003,1,0,0:0:0:0:
218,8,104149,1,0,0:0:0:0:
37,255,104295,6,0,P|93:293|192:284,1,148.50000453186,8|0,0:0|0:0,0:0:0:0:
320,230,104588,2,0,P|264:268|165:259,1,148.50000453186
229,179,104881,2,0,B|254:133|254:133|261:23|261:23|223:66,1,198.000006042481
124,199,105320,1,0,0:0:0:0:
316,107,105466,6,0,P|254:135|145:77,1,198.000006042481,8|0,0:0|0:0,0:0:0:0:
316,107,105905,2,0,L|309:232,1,99.0000030212403
418,13,106198,2,0,L|426:230,1,198.000006042481,8|0,0:0|0:0,0:0:0:0:
192,133,106637,2,0,B|207:234|207:234|184:330,1,198.000006042481,8|0,0:0|0:0,0:0:0:0:
63,225,107076,1,0,0:0:0:0:
192,133,107222,2,0,L|163:213,1,49.5000015106202
108,327,107368,2,0,B|103:267|63:224|63:224|79:182|75:105,1,198.000006042481,8|0,0:0|0:0,0:0:0:0:
310,52,107807,6,0,P|330:162|284:254,1,198.000006042481,12|0,0:0|0:0,0:0:0:0:
94,131,108246,2,0,B|144:123|144:123|192:133,1,99.0000030212403
50,35,108539,2,0,B|145:12|145:12|269:43,1,198.000006042481
136,307,108978,2,0,P|79:313|129:243,1,198.000006042481,12|0,0:0|0:0,0:0:0:0:
324,283,109417,2,0,P|393:294|429:278,1,99.0000030212403
251,90,109710,2,0,B|238:152|238:152|255:230|255:230|236:295,1,198.000006042481
345,117,110149,6,0,B|289:123|251:90|251:90|204:120|129:89,1,198.000006042481,2|0,3:3|0:0,0:0:0:0:
197,293,110588,2,0,L|244:322,1,49.5000015106202
101,251,110734,2,0,L|113:304,1,49.5000015106202
225,151,110881,2,0,L|212:204,1,49.5000015106202
80,64,111027,2,0,L|68:15,1,49.5000015106202
101,251,111173,2,0,L|88:304,1,49.5000015106202
245,18,111320,1,12,0:0:0:0:
250,29,111759,6,0,B|243:94|243:94|188:152,1,135
149,131,112051,2,0,P|145:238|219:296,1,180
503,87,112490,6,0,B|479:159|397:195|397:195|341:171|249:185,1,306.000005836487,12|0,0:0|0:0,0:0:0:0:
476,384,112929,2,0,P|491:281|460:201,1,153.000002918243
211,298,113222,2,0,B|288:314|288:314|372:304,1,153.000002918243,8|0,0:0|0:0,0:0:0:0:
384,60,113515,1,0,0:0:0:0:
149,131,113661,6,0,L|89:285,1,153.000002918243,8|0,0:0|0:0,0:0:0:0:
221,10,113954,1,0,0:0:0:0:
211,298,114100,1,0,0:0:0:0:
18,80,114246,2,0,B|93:86|148:130|148:130|237:104|330:128,1,306.000005836487,8|0,0:0|0:0,0:0:0:0:
35,225,114686,1,0,0:0:0:0:
221,10,114832,6,0,B|182:80|182:80|177:239|177:239|112:350,1,306.000005836487,8|0,0:0|0:0,0:0:0:0:
102,318,115198,1,0,0:0:0:0:
60,337,115271,2,0,P|141:362|219:337,1,153.000002918243
333,153,115564,1,8,0:0:0:0:
307,382,115710,1,0,0:0:0:0:
225,87,115856,1,0,0:0:0:0:
470,360,116003,5,8,0:0:0:0:
470,360,116295,5,8,0:0:0:0:
470,360,116588,5,8,0:0:0:0:
470,360,116881,6,0,B|458:287|458:287|470:204,1,153.000002918243
209,329,117173,2,0,P|107:317|229:269,1,306.000005836487,8|0,0:0|0:0,0:0:0:0:
243,254,117539,1,0,0:0:0:0:
283,276,117612,2,0,P|369:295|438:280,1,153.000002918243
197,82,117905,2,0,B|157:109|119:121|119:121|98:192|98:192|167:189|167:189|192:159|284:130,1,306.000005836487,8|0,0:0|0:0,0:0:0:0:
497,29,118344,6,0,B|466:121|466:121|475:239|475:239|434:339,1,306.000005836487,8|0,0:0|0:0,0:0:0:0:
256,76,118783,1,0,0:0:0:0:
71,322,118929,2,0,B|37:239|37:239|46:121|46:121|15:29,1,306.000005836487,8|0,0:0|0:0,0:0:0:0:
175,291,119368,1,0,0:0:0:0:
339,31,119515,2,0,B|293:36|254:76|254:76|192:56|125:71|125:71|215:115,1,306.000005836487,8|0,0:0|0:0,0:0:0:0:
387,155,119954,5,0,0:0:0:0:
195,208,120100,1,0,0:0:0:0:
339,31,120246,1,8,0:0:0:0:
293,279,120393,1,0,0:0:0:0:
496,23,120539,1,0,0:0:0:0:
150,215,120686,6,0,P|56:198|170:142,1,306.000005836487,8|0,0:0|0:0,0:0:0:0:
178,165,121051,1,0,0:0:0:0:
186,202,121125,2,0,B|191:285|191:285|169:363,1,153.000002918243
258,59,121417,5,8,0:0:0:0:
57,291,121564,1,0,0:0:0:0:
356,233,121710,2,0,L|285:201,1,76.5000014591217
85,91,121856,6,0,B|217:133|300:107|300:107|396:24,1,306.000005836487,12|0,0:0|0:0,0:0:0:0:
85,91,122295,2,0,P|64:185|95:250,1,153.000002918243
295,12,122588,2,0,P|316:106|285:171,1,153.000002918243
119,17,122881,1,0,0:0:0:0:
281,279,123027,6,0,B|330:306|354:301|354:301|386:286|440:295,1,153.000002918243
147,167,123320,2,0,B|104:174|72:159|72:159|48:154|0:181,1,153.000002918243
283,66,123612,2,0,B|332:93|356:88|356:88|388:73|442:82,1,153.000002918243
281,279,123905,2,0,B|198:296|198:296|120:278,1,153.000002918243
424,372,124198,2,0,B|441:270|410:150|410:150|367:255,1,306.000005836487
365,262,124564,1,0,0:0:0:0:
356,299,124637,2,0,P|435:324|509:308,1,153.000002918243
321,171,124929,5,8,0:0:0:0:
223,379,125076,1,0,0:0:0:0:
225,73,125222,1,0,0:0:0:0:
424,372,125368,5,8,0:0:0:0:
424,372,125661,5,8,0:0:0:0:
424,372,125954,5,8,0:0:0:0:
424,372,126246,6,0,B|344:352|344:352|288:368|248:352,1,153.000002918243
225,73,126539,2,0,P|320:96|192:152,1,306.000005836487,8|0,0:0|0:0,0:0:0:0:
183,158,126905,1,0,0:0:0:0:
157,119,126978,2,0,B|141:194|141:194|173:281,1,153.000002918243
225,73,127271,1,8,0:0:0:0:
58,271,127417,1,0,0:0:0:0:
177,2,127564,1,0,0:0:0:0:
167,359,127710,2,0,B|144:278|144:278|172:162|172:162|136:42,1,306.000005836487,8|0,0:0|0:0,0:0:0:0:
345,292,128149,2,0,P|430:315|499:287,1,153.000002918243
418,74,128442,5,8,0:0:0:0:
345,292,128588,1,0,0:0:0:0:
345,292,128661,1,0,0:0:0:0:
345,292,128734,1,0,0:0:0:0:
493,14,128881,2,0,B|416:73|416:73|310:55|186:77,1,306.000005836487,8|0,0:0|0:0,0:0:0:0:
420,163,129320,5,0,0:0:0:0:
191,157,129466,1,0,0:0:0:0:
465,290,129612,1,0,0:0:0:0:
305,27,129759,2,0,L|298:106,1,76.5000014591217
219,334,129905,2,0,L|212:257,1,76.5000014591217
183,71,130051,2,0,B|247:172|247:172|348:198|444:170,1,306.000005836487,12|0,0:0|0:0,0:0:0:0:
128,223,130490,5,0,0:0:0:0:
386,57,130637,1,0,0:0:0:0:
167,368,130783,1,8,0:0:0:0:
258,0,130929,1,0,0:0:0:0:
386,363,131076,1,0,0:0:0:0:
49,50,131222,6,0,B|39:172|61:253|61:253|112:319,1,270.000010299683,2|0,0:0|0:0,0:0:0:0:
284,105,131661,2,0,P|188:91|132:117,1,135.000005149842
369,267,131954,2,0,P|465:281|521:255,1,135.000005149842
284,105,132246,1,0,0:0:0:0:
405,366,132393,2,0,B|369:267|369:267|395:169|377:91,1,270.000010299683,2|0,0:0|0:0,0:0:0:0:
204,311,132832,5,0,0:0:0:0:
268,181,132978,1,0,0:0:0:0:
46,246,133125,1,0,0:0:0:0:
313,271,133271,1,0,0:0:0:0:
115,87,133417,1,0,0:0:0:0:
171,380,133564,6,0,B|203:312|203:312|188:192|188:192|212:117,1,270.000010299683,2|0,0:0|0:0,0:0:0:0:
334,30,134003,1,0,0:0:0:0:
115,87,134149,2,0,B|104:179|104:179|116:262,1,135.000005149842
334,30,134442,1,0,0:0:0:0:
233,303,134588,1,0,0:0:0:0:
465,53,134734,6,0,P|406:144|232:112,1,270.000010299683,6|0,0:0|0:0,0:0:0:0:
166,19,135173,1,0,0:0:0:0:
110,157,135320,1,0,0:0:0:0:
334,30,135466,2,0,L|354:194,1,135.000005149842,2|0,0:0|0:0,0:0:0:0:
339,196,135686,1,0,0:0:0:0:
332,228,135759,1,0,0:0:0:0:
325,260,135832,1,0,0:0:0:0:
307,304,135905,6,0,B|234:316|149:298|149:298|93:309|93:309|18:292,1,270.000010299683
212,88,136344,2,0,L|191:227,1,135.000005149842
404,45,136637,2,0,L|383:184,1,135.000005149842
205,7,136929,1,0,0:0:0:0:
356,315,137076,2,0,P|452:288|352:188,1,270.000010299683,10|0,0:0|0:0,0:0:0:0:
211,258,137515,2,0,P|124:273|66:251,1,135.000005149842
194,141,137807,1,0,0:0:0:0:
211,258,137954,1,0,0:0:0:0:
261,76,138100,1,0,0:0:0:0:
104,278,138246,6,0,B|86:203|86:203|101:84|101:84|85:-4,1,270.000010299683,2|0,0:0|0:0,0:0:0:0:
194,141,138686,1,0,0:0:0:0:
20,93,138832,1,0,0:0:0:0:
20,93,138905,1,0,0:0:0:0:
20,93,138978,1,0,0:0:0:0:
267,19,139125,1,0,0:0:0:0:
36,267,139271,1,0,0:0:0:0:
383,69,139417,6,0,B|407:132|371:180|371:180|384:230|357:282|357:282|330:228,1,270.000010299683,2|0,0:0|0:0,0:0:0:0:
267,19,139856,2,0,P|257:105|275:163,1,135.000005149842
290,186,140076,1,0,0:0:0:0:
306,222,140149,2,0,P|316:308|298:366,1,135.000005149842,2|0,0:0|0:0,0:0:0:0:
303,353,140368,1,0,0:0:0:0:
303,353,140442,1,0,0:0:0:0:
181,118,140588,2,2,P|260:73|412:158,1,270.000010299683
156,307,141027,5,0,0:0:0:0:
102,310,141100,1,0,0:0:0:0:
54,288,141173,1,0,0:0:0:0:
22,245,141246,1,0,0:0:0:0:
16,192,141319,1,8,0:0:0:0:
36,142,141392,1,0,0:0:0:0:
78,109,141466,1,0,0:0:0:0:
131,100,141539,1,0,0:0:0:0:
181,118,141612,1,0,0:0:0:0:
215,160,141686,1,0,0:0:0:0:
244,205,141759,1,0,0:0:0:0:
291,230,141832,1,0,0:0:0:0:
344,237,141905,5,8,0:0:0:0:
395,221,141978,1,0,0:0:0:0:
428,178,142051,1,0,0:0:0:0:
432,123,142125,1,0,0:0:0:0:
417,71,142198,1,0,0:0:0:0:
463,97,142271,1,0,0:0:0:0:
497,138,142344,1,0,0:0:0:0:
512,190,142417,1,0,0:0:0:0:
507,243,142490,6,2,L|497:313,1,67.5000025749208
317,122,142637,2,2,L|306:55,1,67.5000025749208
195,286,142783,2,2,L|184:352,2,67.5000025749208
201,70,143003,6,10,B|224:168|224:168|320:288,1,202.500007724762
320,272,143271,2,2,L|312:376,1,90.0000034332277
416,240,143466,2,2,L|408:344,1,90.0000034332277
313,182,143661,2,2,L|321:286,1,90.0000034332277
217,150,143856,2,2,L|225:254,1,90.0000034332277
271,74,144051,1,0,0:0:0:0:
131,156,144149,6,2,B|148:45|271:74|271:74|333:144|333:144|308:230,1,360.000013732911
266,247,144612,1,0,0:0:0:0:
212,256,144686,1,0,0:0:0:0:
158,248,144759,1,0,0:0:0:0:
107,228,144832,1,0,0:0:0:0:
360,67,144978,1,0,0:0:0:0:
385,114,145051,1,0,0:0:0:0:
394,167,145124,1,0,0:0:0:0:
384,219,145197,1,0,0:0:0:0:
357,266,145271,6,0,B|267:247|267:247|182:272|85:218,1,270.000010299683,4|0,2:3|0:0,0:0:0:0:
261,9,145710,1,0,0:0:0:0:
357,266,145856,1,0,0:0:0:0:
77,77,146003,1,8,0:0:0:0:
413,75,146149,1,0,0:0:0:0:
164,301,146295,1,0,0:0:0:0:
291,103,146442,5,0,0:0:0:0:
285,149,146515,1,0,0:0:0:0:
280,196,146588,1,4,0:0:0:0:
274,243,146661,1,0,0:0:0:0:
269,290,146734,2,0,L|201:313,1,67.5000025749208
99,242,146881,5,0,0:0:0:0:
90,189,146954,1,0,0:0:0:0:
105,137,147027,1,0,0:0:0:0:
140,97,147100,1,0,0:0:0:0:
190,76,147173,1,4,0:0:0:0:
243,78,147246,1,0,0:0:0:0:
291,103,147320,1,0,0:0:0:0:
323,146,147393,1,0,0:0:0:0:
333,199,147466,2,0,L|334:284,1,67.5000025749208
413,75,147612,6,0,B|285:39|285:39|145:78,1,270.000010299683,12|0,0:0|0:0,0:0:0:0:
326,284,148051,1,0,0:0:0:0:
503,78,148198,1,0,0:0:0:0:
460,344,148344,1,8,0:0:0:0:
408,148,148490,1,0,0:0:0:0:
269,380,148637,1,0,0:0:0:0:
366,266,148783,1,0,0:0:0:0:
111,354,148929,5,10,0:0:0:0:
65,341,149002,1,0,0:0:0:0:
34,307,149075,1,0,0:0:0:0:
26,261,149148,1,0,0:0:0:0:
44,218,149221,1,0,0:0:0:0:
82,191,149294,1,0,0:0:0:0:
128,189,149368,1,0,0:0:0:0:
169,212,149441,1,0,0:0:0:0:
200,248,149515,1,10,0:0:0:0:
247,276,149588,1,0,0:0:0:0:
304,271,149661,1,0,0:0:0:0:
346,223,149734,1,0,0:0:0:0:
357,156,149807,1,0,0:0:0:0:
337,90,149881,1,0,0:0:0:0:
290,33,149954,6,0,P|257:149|323:303,1,270.000010299683,12|0,0:0|0:0,0:0:0:0:
439,217,150393,1,0,0:0:0:0:
297,361,150539,1,0,0:0:0:0:
414,116,150686,1,8,0:0:0:0:
381,307,150832,1,0,0:0:0:0:
477,24,150978,1,0,0:0:0:0:
245,162,151125,6,0,P|171:190|37:148,1,202.500007724762,8|0,0:0|0:0,0:0:0:0:
105,98,151417,2,0,P|134:176|13:232,1,202.500007724762
54,161,151710,2,0,B|102:165|134:186|134:186|151:294|193:369,1,270.000010299683
245,162,152149,1,0,0:0:0:0:
70,340,152295,6,0,B|107:315|128:294|128:294|198:285|254:297|254:297|277:325|312:343,1,270.000010299683,8|0,0:0|0:0,0:0:0:0:
360,118,152734,2,0,P|335:185|331:268,1,135.000005149842
473,140,153027,2,0,P|445:38|262:57,1,270.000010299683,8|0,0:0|0:0,0:0:0:0:
249,356,153466,2,0,B|308:295|308:295|360:118,1,270.000010299683,8|0,0:0|0:0,0:0:0:0:
184,239,153905,2,0,P|86:252|38:232,1,135.000005149842
120,131,154198,1,8,0:0:0:0:
164,336,154344,1,0,0:0:0:0:
164,336,154417,1,0,0:0:0:0:
164,336,154490,1,0,0:0:0:0:
197,65,154637,6,0,P|103:18|135:133,1,270.000010299683,12|0,0:0|0:0,0:0:0:0:
284,226,155076,2,0,P|365:245|428:221,1,135.000005149842
354,0,155368,2,0,B|330:74|348:161|348:161|383:124|391:53,1,270.000010299683
197,65,155807,2,0,B|172:138|197:214|197:214|182:276|182:276|205:345,1,270.000010299683,12|0,0:0|0:0,0:0:0:0:
433,144,156246,2,0,B|368:130|368:130|280:142,1,135.000005149842
433,144,156539,2,0,P|366:236|302:135,1,270.000010299683
452,33,156978,6,0,B|381:60|381:60|292:5|175:77,1,270.000010299683,12|0,0:0|0:0,0:0:0:0:
142,251,157417,1,0,0:0:0:0:
196,64,157564,1,0,0:0:0:0:
280,319,157710,1,8,0:0:0:0:
74,145,157856,1,0,0:0:0:0:
433,144,158003,1,0,0:0:0:0:
54,341,158149,6,0,B|24:264|74:145|74:145|98:106,1,202.500007724762,12|0,0:0|0:0,0:0:0:0:
106,116,158442,2,0,L|140:256,1,135.000005149842,12|0,2:3|0:0,0:0:0:0:
205,195,158661,2,0,L|236:63,1,135.000005149842,12|0,2:3|0:0,0:0:0:0:
295,140,158881,2,0,P|367:162|434:146,1,135.000005149842,0|0,2:3|0:0,0:0:0:0:
358,86,159100,2,0,P|286:108|219:92,1,135.000005149842,0|0,2:3|0:0,0:0:0:0:
162,62,159320,2,0,P|137:129|177:120,1,135.000005149842,0|0,2:3|0:0,0:0:0:0:
197,113,160490,5,12,0:0:0:0:
206,112,161661,5,0,0:0:0:0:
206,112,162832,5,0,0:0:0:0:
206,112,163564,6,0,L|208:208,1,67.5000025749208
128,256,163856,1,0,0:0:0:0:
320,8,164003,5,8,0:0:0:0:
320,8,164295,5,8,0:0:0:0:
320,8,164588,5,8,0:0:0:0:
320,8,164881,6,0,B|308:64|308:64|316:114|316:114|297:178,1,153.000002918243
159,150,165173,2,0,P|185:277|357:309,1,306.000005836487,12|0,0:0|0:0,0:0:0:0:
159,150,165612,2,0,P|78:128|-1:156,1,153.000002918243
246,52,165905,2,0,B|248:106|237:142|237:142|268:216|273:361,1,306.000005836487,8|0,0:0|0:0,0:0:0:0:
376,130,166344,1,8,0:0:0:0:
166,254,166490,2,0,B|93:269|93:269|0:264,1,153.000002918243
246,52,166783,1,0,0:0:0:0:
183,364,166929,2,0,B|165:255|165:255|200:121|200:121|221:208,1,306.000005836487,8|0,0:0|0:0,0:0:0:0:
263,366,167368,1,0,0:0:0:0:
88,180,167515,2,0,B|71:258|71:258|85:334,1,153.000002918243,8|0,0:0|0:0,0:0:0:0:
212,121,167807,5,0,0:0:0:0:
183,364,167954,1,0,0:0:0:0:
88,73,168100,1,0,0:0:0:0:
332,255,168246,1,8,0:0:0:0:
24,254,168393,1,0,0:0:0:0:
293,71,168539,1,0,0:0:0:0:
90,378,168686,6,0,B|40:337|24:254|24:254|49:171|49:171|36:53,1,306.000005836487,8|0,0:0|0:0,0:0:0:0:
90,115,169051,1,0,0:0:0:0:
134,145,169125,2,0,B|210:173|210:173|327:163,1,153.000002918243
331,146,169344,1,0,0:0:0:0:
372,112,169417,2,0,P|395:193|354:286,1,153.000002918243,8|0,0:0|0:0,0:0:0:0:
176,23,169710,1,0,0:0:0:0:
464,360,169856,6,0,P|372:388|256:231,1,306.000005836487,12|0,0:0|0:0,0:0:0:0:
335,15,170295,2,0,P|355:110|309:188,1,153.000002918243
176,23,170588,1,8,0:0:0:0:
246,218,170734,1,0,0:0:0:0:
21,55,170881,1,0,0:0:0:0:
290,108,171027,6,0,B|371:116|371:116|439:149,1,153.000002918243
145,249,171320,2,0,B|64:257|64:257|-4:290,1,153.000002918243
301,330,171612,2,0,B|382:338|382:338|450:371,1,153.000002918243
274,192,171905,1,0,0:0:0:0:
109,372,172051,1,0,0:0:0:0:
421,225,172198,2,0,P|402:113|225:50,1,306.000005836487,8|0,0:0|0:0,0:0:0:0:
147,274,172637,5,0,0:0:0:0:
385,328,172783,1,0,0:0:0:0:
81,362,172929,1,8,0:0:0:0:
337,192,173076,1,0,0:0:0:0:
2,290,173222,1,0,0:0:0:0:
489,336,173368,5,8,0:0:0:0:
489,336,173661,5,8,0:0:0:0:
489,336,173954,5,8,0:0:0:0:
489,336,174246,6,0,P|395:357|319:331,1,153.000002918243
129,223,174539,2,0,P|231:176|431:223,1,306.000005836487,8|0,0:0|0:0,0:0:0:0:
129,223,174978,2,0,P|103:125|126:55,1,153.000002918243
205,305,175271,5,8,0:0:0:0:
256,66,175417,1,0,0:0:0:0:
256,66,175490,1,0,0:0:0:0:
256,66,175564,1,0,0:0:0:0:
84,353,175710,2,0,B|160:339|206:304|206:304|336:327|409:306,1,306.000005836487,8|0,0:0|0:0,0:0:0:0:
131,72,176149,2,0,B|116:155|116:155|132:245,1,153.000002918243
256,66,176442,5,8,0:0:0:0:
14,161,176588,1,0,0:0:0:0:
316,203,176734,1,0,0:0:0:0:
18,10,176881,2,0,B|3:88|3:88|13:160|13:160,1,153.000002918243,8|0,0:0|0:0,0:0:0:0:
281,14,177173,5,0,0:0:0:0:
143,288,177320,1,0,0:0:0:0:
18,10,177466,1,0,0:0:0:0:
367,127,177612,1,8,0:0:0:0:
9,215,177759,1,0,0:0:0:0:
423,16,177905,1,0,0:0:0:0:
24,370,178051,1,8,0:0:0:0:
24,370,178344,6,0,B|4:323|16:293|16:293|7:259|7:259|26:200,1,153.000002918243
119,104,178637,1,0,0:0:0:0:
120,334,178783,5,10,0:0:0:0:
172,362,178856,1,0,0:0:0:0:
231,350,178929,1,0,0:0:0:0:
268,303,179002,1,0,0:0:0:0:
266,243,179075,1,0,0:0:0:0:
225,199,179148,1,0,0:0:0:0:
166,191,179222,6,0,P|94:155|224:118,1,306.000005836487,12|0,0:0|0:0,0:0:0:0:
186,278,179661,2,0,P|96:276|26:230,1,153.000002918243
302,82,179954,1,8,0:0:0:0:
288,149,180027,1,0,0:0:0:0:
275,217,180100,1,0,0:0:0:0:
261,284,180173,1,0,0:0:0:0:
248,352,180246,1,0,0:0:0:0:
33,77,180393,6,0,P|168:17|302:82,1,306.000005836487,8|0,0:0|0:0,0:0:0:0:
171,284,180832,2,0,B|147:202|147:202|167:109,1,153.000002918243
446,249,181125,2,0,L|449:330,1,76.5000014591217,8|0,0:0|0:0,0:0:0:0:
299,158,181271,2,0,L|301:81,1,76.5000014591217
197,279,181417,1,0,0:0:0:0:
430,124,181564,6,0,B|389:202|285:246|285:246|152:215,1,306.000005836487,8|0,0:0|0:0,0:0:0:0:
54,84,182003,2,0,P|39:174|64:252,1,153.000002918243
280,28,182295,1,8,0:0:0:0:
346,40,182368,1,0,0:0:0:0:
398,84,182441,1,0,0:0:0:0:
421,148,182514,1,0,0:0:0:0:
409,215,182588,2,0,L|355:276,1,76.5000014591217
280,28,182734,6,0,P|238:129|307:353,1,306.000005836487,12|0,0:0|0:0,0:0:0:0:
344,333,183100,1,0,0:0:0:0:
412,336,183173,2,0,P|434:249|413:174,1,153.000002918243
136,307,183466,6,0,L|91:324,1,38.2500007295609,8|0,0:0|0:0,0:0:0:0:
157,97,183612,2,0,L|164:49,1,38.2500007295609,8|0,0:0|0:0,0:0:0:0:
333,217,183759,2,0,L|370:247,1,38.2500007295609,8|0,0:0|0:0,0:0:0:0:
280,28,183905,6,0,B|248:106|248:106|236:253|267:337,1,306.000005836487,12|0,0:0|0:0,0:0:0:0:
427,21,184344,2,0,P|354:42|280:28,1,153.000002918243
66,65,184637,1,8,0:0:0:0:
72,133,184710,1,0,0:0:0:0:
79,202,184783,1,0,0:0:0:0:
85,270,184856,1,0,0:0:0:0:
92,339,184929,1,0,0:0:0:0:
334,216,185076,6,0,P|259:321|86:337,1,306.000005836487,8|0,0:0|0:0,0:0:0:0:
168,43,185515,2,0,B|163:123|163:123|181:210,1,153.000002918243
449,108,185807,2,0,L|439:187,1,76.5000014591217,8|0,0:0|0:0,0:0:0:0:
285,15,185954,2,0,L|295:94,1,76.5000014591217
502,0,186100,1,0,0:0:0:0:
334,216,186246,6,0,B|238:243|238:243|126:225|126:225|11:250,1,306.000005836487,8|0,0:0|0:0,0:0:0:0:
325,361,186686,2,0,P|349:289|334:216,1,153.000002918243
168,43,186978,1,8,0:0:0:0:
137,104,187051,1,0,0:0:0:0:
125,171,187124,1,0,0:0:0:0:
133,239,187197,1,0,0:0:0:0:
160,302,187270,1,0,0:0:0:0:
345,87,187417,6,0,P|259:138|374:268,1,306.000005836487,12|0,0:0|0:0,0:0:0:0:
417,246,187783,1,0,0:0:0:0:
465,196,187856,2,0,B|348:178|348:178|397:219,1,153.000002918243
503,345,188149,2,0,L|507:383,1,38.2500007295609,8|0,0:0|0:0,0:0:0:0:
374,200,188295,2,0,L|378:161,1,38.2500007295609,8|0,0:0|0:0,0:0:0:0:
225,337,188442,2,0,L|229:375,1,38.2500007295609,8|0,0:0|0:0,0:0:0:0:
280,193,188588,6,2,L|293:96,1,76.5000014591217
301,66,188734,6,0,P|213:80|139:60,1,153.000002918243
124,38,188954,1,0,0:0:0:0:
99,8,189027,2,2,B|88:88|88:88|104:165,1,153.000002918243
400,84,189320,5,8,0:0:0:0:
366,142,189393,1,0,0:0:0:0:
304,167,189466,1,0,0:0:0:0:
239,147,189539,1,0,0:0:0:0:
202,90,189612,1,0,0:0:0:0:
499,35,189759,6,0,B|486:85|486:85|495:225,1,153.000002918243,8|0,0:0|0:0,0:0:0:0:
301,66,190051,2,0,L|295:150,1,76.5000014591217
273,295,190198,2,0,P|195:312|104:283,1,153.000002918243
44,64,190490,1,8,0:0:0:0:
36,132,190563,1,0,0:0:0:0:
28,200,190636,1,0,0:0:0:0:
21,269,190709,1,0,0:0:0:0:
13,337,190782,1,0,0:0:0:0:
258,228,190929,6,0,P|209:116|28:67,1,306.000005836487,8|0,0:0|0:0,0:0:0:0:
186,340,191368,2,0,P|255:361|339:333,1,153.000002918243
382,168,191661,1,8,0:0:0:0:
330,121,191734,1,0,0:0:0:0:
264,104,191807,1,0,0:0:0:0:
197,119,191880,1,0,0:0:0:0:
144,162,191953,1,0,0:0:0:0:
469,246,192100,6,0,P|499:125|382:168,1,306.000005836487,12|0,0:0|0:0,0:0:0:0:
363,235,192466,1,0,0:0:0:0:
359,303,192539,2,0,P|429:359|518:367,1,153.000002918243
187,314,192832,6,0,L|127:311,1,38.2500007295609,8|0,0:0|0:0,0:0:0:0:
347,196,192978,2,0,L|407:193,1,38.2500007295609,8|0,0:0|0:0,0:0:0:0:
172,101,193125,2,0,L|112:98,1,38.2500007295609,8|0,0:0|0:0,0:0:0:0:
346,11,193271,1,0,0:0:0:0:
346,11,193344,1,0,0:0:0:0:
346,11,193417,5,12,0:0:0:0:
243,182,193564,1,0,0:0:0:0:
478,40,193710,1,0,0:0:0:0:
286,92,193856,1,0,0:0:0:0:
473,295,194003,2,0,L|492:376,1,76.5000014591217,8|0,0:0|0:0,0:0:0:0:
347,196,194149,2,0,L|364:121,1,76.5000014591217
266,324,194295,1,0,0:0:0:0:
411,53,194442,5,8,0:0:0:0:
257,201,194588,1,0,0:0:0:0:
470,205,194734,1,0,0:0:0:0:
181,99,194881,1,0,0:0:0:0:
365,207,195027,1,0,0:0:0:0:
127,14,195173,2,0,L|28:9,1,76.5000014591217,8|0,0:0|0:0,0:0:0:0:
237,141,195320,2,0,L|336:136,1,76.5000014591217
97,204,195466,1,0,0:0:0:0:
326,2,195612,5,8,0:0:0:0:
207,217,195759,1,0,0:0:0:0:
326,2,195905,1,0,0:0:0:0:
245,330,196051,1,0,0:0:0:0:
127,14,196198,1,0,0:0:0:0:
365,207,196344,2,0,L|374:296,1,76.5000014591217,8|0,0:0|0:0,0:0:0:0:
241,78,196490,2,0,L|248:1,1,76.5000014591217
130,218,196637,2,0,L|139:307,1,76.5000014591217
377,70,196783,6,0,P|461:108|435:324,1,306.000005836487,10|0,0:0|0:0,0:0:0:0:
424,319,197149,1,0,0:0:0:0:
378,318,197222,2,0,P|294:299|239:258,1,153.000002918243
134,24,197515,5,10,0:0:0:0:
111,80,197588,1,0,0:0:0:0:
112,141,197661,1,0,0:0:0:0:
136,197,197734,1,0,0:0:0:0:
173,245,197807,1,0,0:0:0:0:
185,305,197881,1,0,0:0:0:0:
165,363,197954,1,14,0:0:0:0:
256,192,198027,12,0,200442,0:0:0:0:
