osu file format v12

[General]
AudioFilename: Zetsubousei Hero Chiryouyaku.mp3
AudioLeadIn: 0
PreviewTime: 56058
Countdown: 0
SampleSet: Soft
StackLeniency: 0.7
Mode: 3
LetterboxInBreaks: 0
SpecialStyle: 1
WidescreenStoryboard: 1

[Editor]
Bookmarks: 26236,27827
DistanceSpacing: 1
BeatDivisor: 4
GridSize: 8

[Metadata]
Title:Zetsubousei: Hero Chiryouyaku (TV Size)
TitleUnicode:絶望性:ヒーロー治療薬
Artist:Suzumu feat. Soraru
ArtistUnicode:スズム feat. そらる
Creator:MoonLightz
Version:6K High Level
Source:Danganronpa: Kibou no gakuen to zetsubou no koukousei
Tags:Zetsubousei: Hero Chiryouyaku - Dangan Ronpa THE ANIMATION Ending Theme danganronpa kibou no gakuen to zetsubou no koukousei
BeatmapID:326070
BeatmapSetID:128882

[Difficulty]
HPDrainRate:7
CircleSize:6
OverallDifficulty:7
ApproachRate:3
SliderMultiplier:1.4
SliderTickRate:2

[Events]
//Background and Video events
0,0,"20121206_danganronpa02.jpg",0,0
Video,0,"Video.avi"
//Break Periods
//Storyboard Layer 0 (Background)
//Storyboard Layer 1 (Fail)
//Storyboard Layer 2 (Pass)
//Storyboard Layer 3 (Foreground)
//Storyboard Sound Samples
//Background Colour Transformations
3,100,163,162,255

[TimingPoints]
10,292.682926829268,4,2,0,45,1,0
8936,-133.333333333333,4,2,0,30,0,0
9449,-100,4,2,0,45,0,0
56790,-100,4,2,0,45,0,1
74369,-100,4,2,0,45,0,0

[HitObjects]
213,192,595,1,0,0:0:0:0:
384,192,595,1,0,0:0:0:0:
384,192,888,1,0,0:0:0:0:
469,192,1034,1,0,0:0:0:0:
384,192,1180,1,0,0:0:0:0:
298,192,1327,1,0,0:0:0:0:
213,192,1473,1,0,0:0:0:0:
128,192,1619,1,0,0:0:0:0:
469,192,1766,1,0,0:0:0:0:
298,192,1766,1,0,0:0:0:0:
213,192,2058,1,0,0:0:0:0:
128,192,2205,1,0,0:0:0:0:
42,192,2351,1,0,0:0:0:0:
128,192,2497,1,0,0:0:0:0:
213,192,2644,1,0,0:0:0:0:
384,192,2790,1,0,0:0:0:0:
469,192,2936,1,0,0:0:0:0:
298,192,2936,1,0,0:0:0:0:
298,192,3229,1,0,0:0:0:0:
42,192,3375,1,0,0:0:0:0:
469,192,3522,1,0,0:0:0:0:
42,192,3668,1,0,0:0:0:0:
298,192,3814,1,0,0:0:0:0:
128,192,3961,1,0,0:0:0:0:
384,192,4107,1,0,0:0:0:0:
213,192,4107,1,0,0:0:0:0:
384,192,4400,1,0,0:0:0:0:
42,192,4546,1,0,0:0:0:0:
384,192,4692,1,0,0:0:0:0:
128,192,4839,1,0,0:0:0:0:
384,192,4985,1,0,0:0:0:0:
469,192,5131,1,0,0:0:0:0:
384,192,5278,1,0,0:0:0:0:
128,192,5278,1,0,0:0:0:0:
384,192,5570,1,0,0:0:0:0:
469,192,5717,1,0,0:0:0:0:
384,192,5863,1,0,0:0:0:0:
128,192,6009,1,0,0:0:0:0:
384,192,6156,1,0,0:0:0:0:
469,192,6302,1,0,0:0:0:0:
42,192,6449,1,0,0:0:0:0:
298,192,6449,1,0,0:0:0:0:
329,192,6741,1,0,0:0:0:0:
384,192,6888,1,0,0:0:0:0:
469,192,7034,1,0,0:0:0:0:
384,192,7180,1,0,0:0:0:0:
329,192,7327,1,0,0:0:0:0:
384,192,7473,1,0,0:0:0:0:
42,192,7619,1,0,0:0:0:0:
213,192,7619,1,0,0:0:0:0:
402,192,7912,1,0,0:0:0:0:
329,192,8058,1,0,0:0:0:0:
182,192,8205,1,0,0:0:0:0:
128,192,8351,1,0,0:0:0:0:
298,192,8497,1,0,0:0:0:0:
213,192,8644,1,0,0:0:0:0:
128,192,8790,1,0,0:0:0:0:
42,192,8790,1,0,0:0:0:0:
384,192,9522,1,0,0:0:0:0:
298,192,9595,1,0,0:0:0:0:
384,192,9668,1,0,0:0:0:0:
298,192,9741,1,0,0:0:0:0:
384,192,9814,1,0,0:0:0:0:
298,192,9888,1,0,0:0:0:0:
384,192,9961,128,0,11131:0:0:0:0:
213,192,9961,128,0,11131:0:0:0:0:
469,192,11131,128,0,12302:0:0:0:0:
298,192,11131,128,0,12302:0:0:0:0:
64,192,12302,128,0,13473:0:0:0:0:
128,192,12302,128,0,13473:0:0:0:0:
469,192,13473,128,0,14644:0:0:0:0:
128,192,13766,1,0,0:0:0:0:
213,192,13912,1,0,0:0:0:0:
42,192,14058,1,0,0:0:0:0:
128,192,14205,1,0,0:0:0:0:
213,192,14351,1,0,0:0:0:0:
42,192,14497,1,0,0:0:0:0:
128,192,14644,128,0,15814:0:0:0:0:
384,192,14644,128,0,15814:0:0:0:0:
213,192,15814,128,0,16985:0:0:0:0:
42,192,15814,128,0,16985:0:0:0:0:
402,192,16985,128,0,18156:0:0:0:0:
298,192,16985,128,0,18156:0:0:0:0:
128,192,16985,128,0,18156:0:0:0:0:
448,192,18156,128,0,19327:0:0:0:0:
36,192,18156,128,0,19327:0:0:0:0:
213,192,18156,128,0,19327:0:0:0:0:
384,192,19327,1,0,0:0:0:0:
128,192,19327,1,0,0:0:0:0:
448,192,19766,1,0,0:0:0:0:
298,192,19766,1,0,0:0:0:0:
320,192,20058,1,0,0:0:0:0:
128,192,20058,1,0,0:0:0:0:
448,192,20351,1,0,0:0:0:0:
298,192,20351,1,0,0:0:0:0:
192,192,20644,1,0,0:0:0:0:
42,192,20644,1,0,0:0:0:0:
448,192,20936,1,0,0:0:0:0:
298,192,20936,1,0,0:0:0:0:
64,192,21229,1,0,0:0:0:0:
213,192,21229,1,0,0:0:0:0:
448,192,21522,1,0,0:0:0:0:
213,192,21668,1,0,0:0:0:0:
298,192,21668,1,0,0:0:0:0:
298,192,22107,1,0,0:0:0:0:
469,192,22107,1,0,0:0:0:0:
298,192,22400,1,0,0:0:0:0:
128,192,22400,1,0,0:0:0:0:
213,192,22692,1,0,0:0:0:0:
384,192,22692,1,0,0:0:0:0:
298,192,22985,1,0,0:0:0:0:
128,192,22985,1,0,0:0:0:0:
298,192,23278,1,0,0:0:0:0:
469,192,23278,1,0,0:0:0:0:
298,192,23570,1,0,0:0:0:0:
213,192,23717,1,0,0:0:0:0:
42,192,23863,1,0,0:0:0:0:
469,192,24009,1,0,0:0:0:0:
298,192,24009,1,0,0:0:0:0:
298,192,24449,1,0,0:0:0:0:
469,192,24449,1,0,0:0:0:0:
384,192,24741,1,0,0:0:0:0:
213,192,24741,1,0,0:0:0:0:
469,192,25034,1,0,0:0:0:0:
298,192,25034,1,0,0:0:0:0:
298,192,25327,1,0,0:0:0:0:
128,192,25327,1,0,0:0:0:0:
298,192,25619,1,0,0:0:0:0:
469,192,25619,1,0,0:0:0:0:
42,192,25912,1,0,0:0:0:0:
469,192,26205,1,0,0:0:0:0:
298,192,26351,1,0,0:0:0:0:
213,192,26351,1,0,0:0:0:0:
469,192,26790,1,0,0:0:0:0:
298,192,26790,1,0,0:0:0:0:
298,192,27083,1,0,0:0:0:0:
128,192,27083,1,0,0:0:0:0:
469,192,27375,1,0,0:0:0:0:
298,192,27375,1,0,0:0:0:0:
298,192,27668,1,0,0:0:0:0:
213,192,27668,1,0,0:0:0:0:
469,192,27961,1,0,0:0:0:0:
298,192,27961,1,0,0:0:0:0:
448,192,28253,1,0,0:0:0:0:
320,192,28400,1,0,0:0:0:0:
192,192,28546,1,0,0:0:0:0:
320,192,28692,1,0,0:0:0:0:
448,192,28692,1,0,0:0:0:0:
42,192,28692,1,0,0:0:0:0:
402,192,29131,1,0,0:0:0:0:
475,192,29424,1,0,0:0:0:0:
36,192,29424,1,0,0:0:0:0:
402,192,29717,1,0,0:0:0:0:
475,192,30009,1,0,0:0:0:0:
36,192,30009,1,0,0:0:0:0:
402,192,30302,1,0,0:0:0:0:
192,192,30595,1,0,0:0:0:0:
329,192,30595,1,0,0:0:0:0:
475,192,30595,1,0,0:0:0:0:
402,192,30888,1,0,0:0:0:0:
475,192,30888,1,0,0:0:0:0:
320,192,31034,1,0,0:0:0:0:
192,192,31180,1,0,0:0:0:0:
42,192,31180,1,0,0:0:0:0:
109,192,31327,1,0,0:0:0:0:
192,192,31473,1,0,0:0:0:0:
475,192,31473,1,0,0:0:0:0:
298,192,31619,1,0,0:0:0:0:
36,192,31766,1,0,0:0:0:0:
475,192,31766,1,0,0:0:0:0:
36,192,32058,1,0,0:0:0:0:
475,192,32058,1,0,0:0:0:0:
64,192,32351,1,0,0:0:0:0:
475,192,32351,1,0,0:0:0:0:
109,192,32644,1,0,0:0:0:0:
475,192,32644,1,0,0:0:0:0:
64,192,32936,1,0,0:0:0:0:
475,192,32936,1,0,0:0:0:0:
109,192,33229,1,0,0:0:0:0:
475,192,33229,1,0,0:0:0:0:
329,192,33375,1,0,0:0:0:0:
182,192,33522,1,0,0:0:0:0:
36,192,33522,1,0,0:0:0:0:
329,192,33668,1,0,0:0:0:0:
109,192,33814,1,0,0:0:0:0:
192,192,34107,1,0,0:0:0:0:
36,192,34107,1,0,0:0:0:0:
475,192,34107,1,0,0:0:0:0:
475,192,34400,1,0,0:0:0:0:
320,192,34546,1,0,0:0:0:0:
192,192,34692,1,0,0:0:0:0:
475,192,34692,1,0,0:0:0:0:
475,192,34985,1,0,0:0:0:0:
320,192,35131,1,0,0:0:0:0:
192,192,35278,1,0,0:0:0:0:
320,192,35424,1,0,0:0:0:0:
128,192,35424,1,0,0:0:0:0:
192,192,35570,1,0,0:0:0:0:
64,192,35717,1,0,0:0:0:0:
469,192,35717,1,0,0:0:0:0:
213,192,35863,1,0,0:0:0:0:
109,192,36009,1,0,0:0:0:0:
384,192,36009,1,0,0:0:0:0:
64,192,36156,1,0,0:0:0:0:
298,192,36302,1,0,0:0:0:0:
469,192,36449,1,0,0:0:0:0:
213,192,36595,1,0,0:0:0:0:
64,192,36741,1,0,0:0:0:0:
213,192,36888,1,0,0:0:0:0:
384,192,36888,1,0,0:0:0:0:
128,192,37034,1,0,0:0:0:0:
64,192,37327,1,0,0:0:0:0:
475,192,37327,1,0,0:0:0:0:
192,192,37473,1,0,0:0:0:0:
320,192,37619,1,0,0:0:0:0:
475,192,37619,1,0,0:0:0:0:
384,192,37766,1,0,0:0:0:0:
475,192,37912,1,0,0:0:0:0:
469,192,38058,1,0,0:0:0:0:
384,192,38058,1,0,0:0:0:0:
298,192,38205,1,0,0:0:0:0:
384,192,38351,1,0,0:0:0:0:
298,192,38497,1,0,0:0:0:0:
213,192,38644,1,0,0:0:0:0:
298,192,38790,1,0,0:0:0:0:
182,192,38936,1,0,0:0:0:0:
298,192,39083,1,0,0:0:0:0:
213,192,39229,1,0,0:0:0:0:
128,192,39375,1,0,0:0:0:0:
213,192,39522,1,0,0:0:0:0:
128,192,39668,1,0,0:0:0:0:
213,192,39814,1,0,0:0:0:0:
128,192,39961,1,0,0:0:0:0:
42,192,40107,1,0,0:0:0:0:
128,192,40253,1,0,0:0:0:0:
469,192,40400,1,0,0:0:0:0:
384,192,40400,1,0,0:0:0:0:
298,192,40546,1,0,0:0:0:0:
384,192,40692,1,0,0:0:0:0:
298,192,40839,1,0,0:0:0:0:
213,192,40985,1,0,0:0:0:0:
298,192,41131,1,0,0:0:0:0:
182,192,41278,1,0,0:0:0:0:
298,192,41424,1,0,0:0:0:0:
213,192,41570,1,0,0:0:0:0:
298,192,41717,1,0,0:0:0:0:
109,192,41863,1,0,0:0:0:0:
36,192,42009,1,0,0:0:0:0:
109,192,42156,1,0,0:0:0:0:
182,192,42302,1,0,0:0:0:0:
256,192,42449,1,0,0:0:0:0:
384,192,42595,1,0,0:0:0:0:
469,192,42741,1,0,0:0:0:0:
384,192,42741,1,0,0:0:0:0:
298,192,42888,1,0,0:0:0:0:
384,192,43034,1,0,0:0:0:0:
298,192,43180,1,0,0:0:0:0:
384,192,43327,1,0,0:0:0:0:
298,192,43473,1,0,0:0:0:0:
182,192,43619,1,0,0:0:0:0:
298,192,43766,1,0,0:0:0:0:
213,192,43912,1,0,0:0:0:0:
298,192,44058,1,0,0:0:0:0:
213,192,44205,1,0,0:0:0:0:
128,192,44351,1,0,0:0:0:0:
213,192,44497,1,0,0:0:0:0:
109,192,44644,1,0,0:0:0:0:
42,192,44790,1,0,0:0:0:0:
109,192,44936,1,0,0:0:0:0:
256,192,45083,1,0,0:0:0:0:
469,192,45083,1,0,0:0:0:0:
384,192,45229,1,0,0:0:0:0:
256,192,45375,1,0,0:0:0:0:
384,192,45522,1,0,0:0:0:0:
298,192,45668,1,0,0:0:0:0:
213,192,45814,1,0,0:0:0:0:
298,192,45961,1,0,0:0:0:0:
213,192,46107,1,0,0:0:0:0:
298,192,46253,1,0,0:0:0:0:
213,192,46400,1,0,0:0:0:0:
109,192,46546,1,0,0:0:0:0:
213,192,46692,1,0,0:0:0:0:
109,192,46839,1,0,0:0:0:0:
213,192,46985,1,0,0:0:0:0:
128,192,47131,1,0,0:0:0:0:
384,192,47131,1,0,0:0:0:0:
402,192,47424,1,0,0:0:0:0:
36,192,47570,1,0,0:0:0:0:
402,192,47717,1,0,0:0:0:0:
109,192,47863,1,0,0:0:0:0:
329,192,48009,1,0,0:0:0:0:
109,192,48156,1,0,0:0:0:0:
256,192,48302,1,0,0:0:0:0:
182,192,48449,1,0,0:0:0:0:
256,192,48595,1,0,0:0:0:0:
329,192,48741,1,0,0:0:0:0:
36,192,48888,1,0,0:0:0:0:
329,192,49034,1,0,0:0:0:0:
109,192,49180,1,0,0:0:0:0:
256,192,49327,1,0,0:0:0:0:
109,192,49473,1,0,0:0:0:0:
256,192,49619,1,0,0:0:0:0:
182,192,49766,1,0,0:0:0:0:
36,192,49912,1,0,0:0:0:0:
109,192,50058,1,0,0:0:0:0:
182,192,50205,1,0,0:0:0:0:
256,192,50351,1,0,0:0:0:0:
182,192,50497,1,0,0:0:0:0:
109,192,50644,1,0,0:0:0:0:
182,192,50790,1,0,0:0:0:0:
256,192,50936,1,0,0:0:0:0:
329,192,51083,1,0,0:0:0:0:
402,192,51229,1,0,0:0:0:0:
448,192,51375,1,0,0:0:0:0:
402,192,51522,1,0,0:0:0:0:
320,192,51668,1,0,0:0:0:0:
192,192,51668,1,0,0:0:0:0:
256,192,52107,1,0,0:0:0:0:
469,192,52107,1,0,0:0:0:0:
182,192,52253,1,0,0:0:0:0:
402,192,52546,1,0,0:0:0:0:
182,192,52839,1,0,0:0:0:0:
256,192,52985,1,0,0:0:0:0:
469,192,52985,1,0,0:0:0:0:
256,192,53278,1,0,0:0:0:0:
213,192,53278,1,0,0:0:0:0:
475,192,53424,1,0,0:0:0:0:
402,192,53717,1,0,0:0:0:0:
475,192,54009,1,0,0:0:0:0:
256,192,54156,1,0,0:0:0:0:
213,192,54156,1,0,0:0:0:0:
213,192,54449,1,0,0:0:0:0:
42,192,54449,1,0,0:0:0:0:
384,192,54595,1,0,0:0:0:0:
298,192,54888,1,0,0:0:0:0:
384,192,55180,1,0,0:0:0:0:
42,192,55327,1,0,0:0:0:0:
213,192,55327,1,0,0:0:0:0:
213,192,55619,1,0,0:0:0:0:
42,192,55619,1,0,0:0:0:0:
384,192,56058,1,0,0:0:0:0:
128,192,56205,1,0,0:0:0:0:
298,192,56351,1,0,0:0:0:0:
213,192,56497,1,0,0:0:0:0:
384,192,56644,1,0,0:0:0:0:
298,192,56790,1,0,0:0:0:0:
469,192,56790,1,0,0:0:0:0:
192,192,56936,1,0,0:0:0:0:
384,192,57083,1,0,0:0:0:0:
36,192,57229,1,0,0:0:0:0:
213,192,57375,1,0,0:0:0:0:
384,192,57522,1,0,0:0:0:0:
213,192,57668,1,0,0:0:0:0:
298,192,57814,1,0,0:0:0:0:
384,192,57961,1,0,0:0:0:0:
128,192,57961,1,0,0:0:0:0:
192,192,58107,1,0,0:0:0:0:
469,192,58253,1,0,0:0:0:0:
36,192,58400,1,0,0:0:0:0:
128,192,58546,1,0,0:0:0:0:
182,192,58692,1,0,0:0:0:0:
384,192,58692,1,0,0:0:0:0:
469,192,58839,1,0,0:0:0:0:
384,192,58985,1,0,0:0:0:0:
128,192,59131,1,0,0:0:0:0:
298,192,59131,1,0,0:0:0:0:
384,192,59278,1,0,0:0:0:0:
213,192,59424,1,0,0:0:0:0:
36,192,59570,1,0,0:0:0:0:
128,192,59717,1,0,0:0:0:0:
182,192,59863,1,0,0:0:0:0:
256,192,60009,1,0,0:0:0:0:
475,192,60156,1,0,0:0:0:0:
329,192,60156,1,0,0:0:0:0:
64,192,60302,1,0,0:0:0:0:
475,192,60302,1,0,0:0:0:0:
128,192,60595,1,0,0:0:0:0:
384,192,60595,1,0,0:0:0:0:
64,192,60888,1,0,0:0:0:0:
475,192,60888,1,0,0:0:0:0:
192,192,61180,1,0,0:0:0:0:
475,192,61180,1,0,0:0:0:0:
109,192,61327,1,0,0:0:0:0:
298,192,61473,1,0,0:0:0:0:
469,192,61473,1,0,0:0:0:0:
109,192,61619,1,0,0:0:0:0:
384,192,61766,1,0,0:0:0:0:
213,192,61912,1,0,0:0:0:0:
36,192,62058,1,0,0:0:0:0:
469,192,62205,1,0,0:0:0:0:
182,192,62351,1,0,0:0:0:0:
298,192,62497,1,0,0:0:0:0:
36,192,62644,1,0,0:0:0:0:
469,192,62644,1,0,0:0:0:0:
384,192,62790,1,0,0:0:0:0:
182,192,62936,1,0,0:0:0:0:
298,192,63083,1,0,0:0:0:0:
36,192,63229,1,0,0:0:0:0:
384,192,63375,1,0,0:0:0:0:
182,192,63522,1,0,0:0:0:0:
128,192,63668,1,0,0:0:0:0:
36,192,63814,1,0,0:0:0:0:
384,192,63814,1,0,0:0:0:0:
109,192,63961,1,0,0:0:0:0:
384,192,64107,1,0,0:0:0:0:
213,192,64253,1,0,0:0:0:0:
36,192,64400,1,0,0:0:0:0:
298,192,64546,1,0,0:0:0:0:
182,192,64692,1,0,0:0:0:0:
256,192,64839,1,0,0:0:0:0:
448,192,64985,1,0,0:0:0:0:
64,192,64985,1,0,0:0:0:0:
448,192,65424,1,0,0:0:0:0:
384,192,65424,1,0,0:0:0:0:
320,192,65570,1,0,0:0:0:0:
384,192,65570,1,0,0:0:0:0:
213,192,65717,1,0,0:0:0:0:
298,192,65717,1,0,0:0:0:0:
298,192,65863,1,0,0:0:0:0:
469,192,66009,1,0,0:0:0:0:
384,192,66156,1,0,0:0:0:0:
128,192,66156,1,0,0:0:0:0:
64,192,66302,1,0,0:0:0:0:
298,192,66449,1,0,0:0:0:0:
182,192,66595,1,0,0:0:0:0:
469,192,66741,1,0,0:0:0:0:
36,192,66888,1,0,0:0:0:0:
298,192,67034,1,0,0:0:0:0:
42,192,67180,1,0,0:0:0:0:
109,192,67327,1,0,0:0:0:0:
384,192,67327,1,0,0:0:0:0:
64,192,67473,1,0,0:0:0:0:
384,192,67619,1,0,0:0:0:0:
182,192,67766,1,0,0:0:0:0:
298,192,67912,1,0,0:0:0:0:
36,192,68058,1,0,0:0:0:0:
469,192,68205,1,0,0:0:0:0:
182,192,68351,1,0,0:0:0:0:
109,192,68497,1,0,0:0:0:0:
384,192,68497,1,0,0:0:0:0:
64,192,68644,1,0,0:0:0:0:
109,192,68790,1,0,0:0:0:0:
182,192,68936,1,0,0:0:0:0:
256,192,69083,1,0,0:0:0:0:
42,192,69229,1,0,0:0:0:0:
402,192,69375,1,0,0:0:0:0:
448,192,69522,1,0,0:0:0:0:
36,192,69668,1,0,0:0:0:0:
384,192,69668,1,0,0:0:0:0:
448,192,69961,1,0,0:0:0:0:
128,192,69961,1,0,0:0:0:0:
36,192,70253,1,0,0:0:0:0:
384,192,70253,1,0,0:0:0:0:
448,192,70546,1,0,0:0:0:0:
320,192,70692,1,0,0:0:0:0:
64,192,70839,1,0,0:0:0:0:
128,192,70839,1,0,0:0:0:0:
384,192,71424,1,0,0:0:0:0:
448,192,71570,1,0,0:0:0:0:
320,192,71717,1,0,0:0:0:0:
128,192,71863,1,0,0:0:0:0:
64,192,72009,1,0,0:0:0:0:
64,192,72595,1,0,0:0:0:0:
128,192,72741,1,0,0:0:0:0:
320,192,72888,1,0,0:0:0:0:
448,192,73034,1,0,0:0:0:0:
384,192,73180,1,0,0:0:0:0:
128,192,73180,1,0,0:0:0:0:
213,192,73327,1,0,0:0:0:0:
42,192,73619,1,0,0:0:0:0:
182,192,73912,1,0,0:0:0:0:
469,192,74205,1,0,0:0:0:0:
192,192,74351,1,0,0:0:0:0:
402,192,74351,1,0,0:0:0:0:
469,192,74790,1,0,0:0:0:0:
384,192,74790,1,0,0:0:0:0:
42,192,74790,1,0,0:0:0:0:
128,192,74790,1,0,0:0:0:0:
42,192,75083,1,0,0:0:0:0:
192,192,75229,1,0,0:0:0:0:
320,192,75375,1,0,0:0:0:0:
469,192,75522,128,0,76692:0:0:0:0:
128,192,75522,128,0,76692:0:0:0:0:
42,192,75522,128,0,76692:0:0:0:0:
213,192,76692,128,0,77863:0:0:0:0:
384,192,76692,128,0,77863:0:0:0:0:
128,192,77863,128,0,79034:0:0:0:0:
469,192,77863,128,0,79034:0:0:0:0:
298,192,77863,128,0,79034:0:0:0:0:
384,192,79034,128,0,80205:0:0:0:0:
213,192,79034,128,0,80205:0:0:0:0:
128,192,80205,128,0,81375:0:0:0:0:
42,192,80205,128,0,81375:0:0:0:0:
469,192,80205,128,0,81375:0:0:0:0:
213,192,81375,128,0,82546:0:0:0:0:
384,192,81375,128,0,82546:0:0:0:0:
298,192,82546,128,0,83717:0:0:0:0:
128,192,82546,128,0,83717:0:0:0:0:
469,192,82546,128,0,83717:0:0:0:0:
213,192,83717,1,0,0:0:0:0:
384,192,83717,1,0,0:0:0:0:
469,192,84156,1,0,0:0:0:0:
384,192,84302,1,0,0:0:0:0:
298,192,84449,1,0,0:0:0:0:
213,192,84595,1,0,0:0:0:0:
128,192,84741,1,0,0:0:0:0:
42,192,84888,1,0,0:0:0:0:
213,192,84888,1,0,0:0:0:0:
384,192,84888,1,0,0:0:0:0:
